#TITLE:Sting Of The Bumblebee;
#ARTIST:ManOwaR;
#BANNER:Sting Of The Bumblebee-bn.png;
#BACKGROUND:Sting Of The Bumblebee-bg.png;
#CDTITLE:.\CDTITLES\hellrazor.png;
#MUSIC:Sting Of The Bumblebee.mp3;
#OFFSET:-0.110;
#SAMPLESTART:13.82;
#SAMPLELENGTH:10.9;
#DISPLAYBPM:205;
#BPMS:0=211.3,32=209.6,44=200,56=210,60=241,63=207,79=201,96=205,105=207,118=201.8,130=205,132=1079,176=207.9,189=209.4,207=190,208=199.6,216=202.8,220=243,223=207.4,239=203.2,247=201,257=205,263=206.2,278=194,280=204.4,287=197.7;
#STOPS:136=0.048,137=0.048,138=0.048,139=0.048,140=0.048,141=0.048,142=0.048,143=0.048,144=0.048,144.5=0.048,145=0.048,145.5=0.048,146=0.048,146.5=0.048,147=0.048,147.5=0.048,148=0.048,148.5=0.048,149=0.048,149.5=0.048,150=0.048,150.5=0.048,151=0.048,151.5=0.048,152=0.048,152.25=0.048,152.5=0.048,152.75=0.048,153=0.048,153.25=0.048,153.5=0.048,153.75=0.048,154=0.048,154.25=0.048,154.5=0.048,154.75=0.048,155=0.048,155.25=0.048,155.5=0.048,155.75=0.048,156=0.048,156.25=0.048,156.5=0.048,156.75=0.048,157=0.048,157.25=0.048,157.5=0.048,157.75=0.048,158=0.048,158.25=0.048,158.5=0.048,158.75=0.048,159=0.048,159.25=0.048,159.5=0.048,159.75=0.048,160=0.048,160.125=0.048,160.25=0.048,160.375=0.048,160.5=0.048,160.625=0.048,160.75=0.048,160.875=0.048,161=0.048,161.125=0.048,161.25=0.048,161.375=0.048,161.5=0.048,161.625=0.048,161.75=0.048,161.875=0.048,162=0.048,162.125=0.048,162.25=0.048,162.375=0.048,162.5=0.048,162.625=0.048,162.75=0.048,162.875=0.048,163=0.048,163.125=0.048,163.25=0.048,163.375=0.048,163.5=0.048,163.625=0.048,163.75=0.048,163.875=0.048,164=0.048,164.125=0.048,164.25=0.048,164.375=0.048,164.5=0.048,164.625=0.048,164.75=0.048,164.875=0.048,165=0.048,165.125=0.048,165.25=0.048,165.375=0.048,165.5=0.048,165.625=0.048,165.75=0.048,165.875=0.048,166=0.048,166.125=0.048,166.25=0.048,166.375=0.048,166.5=0.048,166.625=0.048,166.75=0.048,166.875=0.048,167=0.048,167.125=0.048,167.25=0.048,167.375=0.048,167.5=0.048,167.625=0.048,167.75=0.048,167.875=0.048,168=0.048,168.063=0.048,168.125=0.048,168.188=0.048,168.25=0.048,168.313=0.048,168.375=0.048,168.438=0.048,168.5=0.048,168.563=0.048,168.625=0.048,168.688=0.048,168.75=0.048,168.813=0.048,168.875=0.048,168.938=0.048,169=0.048,169.063=0.048,169.125=0.048,169.188=0.048,169.25=0.048,169.313=0.048,169.375=0.048,169.438=0.048,169.5=0.048,169.563=0.048,169.625=0.048,169.688=0.048,169.75=0.048,169.813=0.048,169.875=0.048,169.938=0.048,170=0.048,170.063=0.048,170.125=0.048,170.188=0.048,170.25=0.048,170.313=0.048,170.375=0.048,170.438=0.048,170.5=0.048,170.563=0.048,170.625=0.048,170.688=0.048,170.75=0.048,170.813=0.048,170.875=0.048,170.938=0.048,171=0.048,171.063=0.048,171.125=0.048,171.188=0.048,171.25=0.048,171.313=0.048,171.375=0.048,171.438=0.048,171.5=0.048,171.563=0.048,171.625=0.048,171.688=0.048,171.75=0.048,171.813=0.048,171.875=0.048,171.938=0.048,172=0.048,172.063=0.048,172.125=0.048,172.188=0.048,172.25=0.048,172.313=0.048,172.375=0.048,172.438=0.048,172.5=0.048,172.563=0.048,172.625=0.048,172.688=0.048,172.75=0.048,172.813=0.048,172.875=0.048,172.938=0.048,173=0.048,173.063=0.048,173.125=0.048,173.188=0.048,173.25=0.048,173.313=0.048,173.375=0.048,173.438=0.048,173.5=0.048,173.563=0.048,173.625=0.048,173.688=0.048,173.75=0.048,173.813=0.048,173.875=0.048,173.938=0.048,174=0.048,174.063=0.048,174.125=0.048,174.188=0.048,174.25=0.048,174.313=0.048,174.375=0.048,174.438=0.048,174.5=0.048,174.563=0.048,174.625=0.048,174.688=0.048,174.75=0.048,174.813=0.048,174.875=0.048,174.938=0.048,175=0.048,175.063=0.048,175.125=0.048,175.188=0.048,175.25=0.048,175.313=0.048,175.375=0.048,175.438=0.048,175.5=0.048,175.563=0.048,175.625=0.048,175.688=0.048,175.75=0.048,175.813=0.048,175.875=0.048,175.938=0.048;

//---------------dance-single - ----------------
#NOTES:
     dance-single:
     Too Easy:
     Beginner:
     2:
     0.123,0.198,0.123,0,0:
0000
0000
0000
0000
,
0000
0000
0000
0000
,
0000
0000
0000
0000
,
0000
0000
0000
0000
,
1000
0000
0000
0000
,
0001
0000
0000
0000
,
0010
0000
0000
0000
,
0100
0000
0000
0000
,
0100
0000
0000
0000
,
1000
0000
0000
0000
,
0010
0000
0000
0000
,
1000
0000
0000
0000
,
1001
0000
0000
0000
,
0010
0000
0000
0000
,
0010
0000
0000
0000
,
1001
0000
0000
0000
,
0010
0000
0000
0000
,
0010
0000
0000
0000
,
0100
0000
0000
0000
,
0100
0000
0000
0000
,
0001
0000
0000
0000
,
1001
0000
0000
0000
,
0010
0000
0000
0000
,
1001
0000
0000
0000
,
0010
0000
0010
0000
,
0100
0000
0100
0000
,
0001
0000
0000
0000
,
1001
0000
0000
0000
,
0010
0000
0000
0000
,
0110
0000
0000
0000
,
0001
0000
1000
0000
,
0010
0000
0000
0000
,
0000
0000
0000
0000
,
0000
0000
0000
0000
,
0000
0000
0000
0000
,
0000
0000
0000
0000
,
0000
0000
0000
0000
,
0000
0000
0000
0000
,
0000
0000
0000
0000
,
0000
0000
0000
0000
,
0000
0000
0000
0000
,
0000
0000
0000
0000
,
0000
0000
0000
0000
,
0000
0000
0000
0000
,
1000
0000
0000
0000
,
0010
0000
0000
0000
,
1000
0000
0000
0000
,
1001
0000
0000
0010
,
0100
0000
0000
0000
,
0100
0000
0000
0000
,
0010
0000
0000
0000
,
1000
0000
0000
1000
,
0001
0000
0000
0000
,
0001
0000
0000
0000
,
0001
0000
0000
0000
,
0010
0000
0000
0010
,
0100
0000
0000
0000
,
1000
0000
0000
0000
,
1000
0000
0000
0000
,
0001
0000
0000
0000
,
1000
0000
0000
0000
,
1001
0000
0000
0000
,
0001
0000
0000
0000
,
1001
0000
0000
0000
,
1000
0001
1000
0001
,
0000
0000
0000
0000
,
1000
0000
0000
0000
,
1001
0000
0000
0000
,
0001
0000
0000
0000
,
1001
0000
0000
0000
,
0010
0100
0010
0100
;

//---------------dance-single - ----------------
#NOTES:
     dance-single:
     Pick Up The Pace:
     Easy:
     4:
     0.367,0.415,0.191,0.045,0:
0000
0000
0000
0000
,
0000
0000
0000
0000
,
0000
0000
0000
0000
,
0000
0000
0000
0000
,
1000
1000
0100
0100
,
1000
1000
0001
0001
,
1000
0010
1000
0001
,
0100
0000
0000
0001
,
0010
0010
0001
0001
,
1000
1000
0100
0100
,
1000
0010
1000
0001
,
1000
0100
1000
0100
,
0010
0010
0100
0100
,
0010
0010
0001
0001
,
1000
0001
0100
0010
,
0100
0000
0000
0001
,
0001
1000
1000
0010
,
0010
1000
1000
0001
,
0001
1000
0010
0100
,
0010
1000
0001
1000
,
0010
0010
0100
0100
,
0010
0000
0110
0000
,
0001
0001
1000
1000
,
0100
0000
0110
0000
,
1000
1000
0010
0010
,
0100
0100
0001
0001
,
0001
1000
0010
1000
,
0100
0000
0110
0000
,
1000
0010
0100
0001
,
0010
0000
0110
0000
,
0010
0001
0010
0001
,
0010
0100
0100
1000
,
1000
0010
0010
0000
,
0220
0000
0000
0000
,
0000
0000
0000
0000
,
0000
0000
0000
0000
,
0000
0000
0000
0000
,
0000
0000
0000
0000
,
0000
0000
0000
0000
,
0000
0000
0000
0000
,
0000
0000
0000
0000
,
0000
0000
0000
0000
,
0000
0000
0000
0000
,
0000
0000
0000
0330
,
1001
1000
1000
0010
,
0010
1000
0001
0001
,
0010
0001
0001
1000
,
0010
0000
0000
0010
,
1000
1000
0001
1000
,
0100
0100
1000
0010
,
0100
0100
0001
0010
,
0001
0001
0010
0001
,
1000
1000
0010
0010
,
0100
0100
0001
0100
,
0001
0010
0010
0100
,
0110
0000
0000
0001
,
0001
0010
0010
0010
,
0100
0100
0010
0100
,
1000
0100
0010
0001
,
0010
0100
0010
0100
,
1000
1000
0100
0100
,
1100
0000
1100
0000
,
1000
1000
0001
0001
,
0101
0000
0101
0000
,
0001
0001
0010
0010
,
0100
0010
0100
0010
,
0001
0001
1000
1000
,
0110
0000
0110
0000
,
1000
1000
0010
0010
,
0110
0000
0110
0000
,
0010
0010
0100
0100
,
0001
0001
0010
0010
,
0100
0100
0110
0000
,
0022
0000
0000
0000
,
0033
0000
0000
0000
;

//---------------dance-single - ----------------
#NOTES:
     dance-single:
     Do You Like To Jump?:
     Medium:
     7:
     0.565,0.744,0.953,0.045,0:
0000
0000
0000
0000
,
0000
0000
0000
0000
,
0000
0000
0000
0000
,
0000
0000
0000
0000
,
1000
0100
1000
0000
0010
1000
0010
0000
,
0100
0010
0100
0000
0001
0100
0001
0000
,
0010
0010
0001
0001
,
0011
0000
0000
0100
,
1000
0010
1000
0000
0010
0100
0010
0000
,
0100
0001
0100
0000
0001
0010
0001
0000
,
0010
0100
1000
0001
,
1001
1001
0110
0110
,
0100
0010
0100
0000
0001
1000
0001
0000
,
1000
0100
1000
0000
0010
0100
0010
0000
,
0110
0110
0101
0101
,
0011
0000
0000
1001
,
0010
1000
0010
0000
0100
0010
0100
0000
,
0001
0100
0001
0000
0010
0001
0010
0000
,
0101
0101
0110
0110
,
1100
1100
0101
0101
,
0010
0100
0010
0100
0010
0100
0010
0000
,
0110
0000
0000
0000
,
0001
0100
0001
0100
0001
0100
0001
0000
,
0101
0000
0000
0000
,
1001
1001
0011
0011
,
1100
1100
1010
1010
,
0100
0010
0100
0010
0100
0010
0100
0000
,
0110
0000
0000
0000
,
1000
0001
1000
0001
1000
0001
1000
0000
,
1001
0000
0000
0000
,
0101
0101
0011
0011
,
0010
0010
0100
0100
,
0010
0010
1001
0000
,
0220
0000
0000
0000
,
0000
0000
0000
0000
,
0000
0000
0000
0000
,
0000
0000
0000
0000
,
0000
0000
0000
0000
,
0000
0000
0000
0000
,
0000
0000
0000
0000
,
0000
0000
0000
0000
,
0000
0000
0000
0000
,
0000
0000
0000
0000
,
0000
0000
0000
0330
,
1000
0100
1000
0000
0010
0100
0010
0000
,
0100
0001
0100
0000
0001
0010
0001
0000
,
0101
0101
1001
1001
,
0011
0000
0000
1100
,
0100
1000
0100
0000
0010
0100
0010
0000
,
0001
0010
0001
0000
0100
0010
0100
0000
,
0101
0101
0110
0110
,
1010
1010
1100
1100
,
0001
0100
0001
0000
1000
0100
1000
0000
,
0010
0100
0010
0000
1000
0001
1000
0000
,
0011
0011
0101
0101
,
0110
0000
0000
0101
,
1000
0010
0100
0000
0001
0010
0100
0000
,
1000
0001
0100
0000
0010
1000
0100
0000
,
0010
0001
1000
0001
0100
0000
0010
0000
,
0010
1000
0001
1000
0100
0000
1000
0000
,
0001
0100
0001
0100
0001
0100
0001
0000
,
0101
0000
1001
0000
,
0100
1000
0100
1000
0100
1000
0100
0000
,
1100
0000
1001
0000
,
1100
1100
0110
0110
,
0011
0011
1100
1100
,
1000
0001
1000
0010
1000
0001
1000
0000
,
1100
0000
0101
0000
,
0001
1000
0001
0010
0001
1000
0001
0000
,
0101
0000
0110
0000
,
1001
1001
1100
1100
,
0110
0110
0011
0011
,
0101
0101
0110
0000
,
2020
0000
0000
3030
;

//---------------dance-single - ----------------
#NOTES:
     dance-single:
     Do You Like To Run?:
     Hard:
     9:
     0.656,0.865,0.314,0.202,0.947:
0000
0000
0000
0000
,
0000
0000
0000
0000
,
0000
0000
0000
0000
,
0000
0000
0000
0000
,
1000
0100
1000
0001
0100
0001
1000
0000
,
1000
0010
1000
0001
0010
0001
1000
0000
,
0001
0001
0100
0100
0010
0010
0100
0100
,
0101
0000
0000
1001
,
0001
0100
0001
1000
0100
1000
0001
0000
,
0001
0010
0001
1000
0010
1000
0001
0000
,
0100
0100
0010
0010
1000
1000
0100
0100
,
0010
0010
0001
0001
1000
1000
1100
0000
,
1000
0100
1000
0010
0100
0010
1000
0000
,
0001
0100
0001
0010
0100
0010
0001
0000
,
0010
0010
0100
0100
1000
1000
0001
0001
,
0011
0000
0000
1001
,
1000
0100
1000
0001
1000
0010
1000
0000
,
0001
0100
0001
1000
0001
0010
0001
0000
,
0010
0100
0010
0100
0010
0100
1000
0001
,
1000
0001
1000
0001
1000
0001
1001
0000
,
0001
0010
0001
0010
0001
0010
0001
0020
,
0002
0000
0000
0033
,
1000
0010
1000
0010
1000
0010
1000
0020
,
2000
0000
0000
3030
,
1001
1001
1001
0000
0110
0110
0110
0000
,
0001
0110
0001
1001
,
0010
0100
0010
0100
0010
0100
0010
0200
,
0020
0000
0000
0330
,
0100
0001
0100
0001
0100
0001
0100
0002
,
0200
0000
0000
0303
,
1010
1010
1010
0000
1100
1100
1100
0000
,
0010
0001
0010
0001
0010
0001
0010
0100
,
0010
0100
0010
0100
0020
0000
0000
0000
,
0200
0000
0000
0000
,
M00M
M00M
M00M
M00M
,
M00M
M00M
M00M
M00M
,
M00M
M00M
M00M
M00M
M00M
M00M
M00M
M00M
,
M00M
M00M
M00M
M00M
M00M
M00M
M00M
M00M
,
M00M
M00M
M00M
M00M
M00M
M00M
M00M
M00M
M00M
M00M
M00M
M00M
M00M
M00M
M00M
M00M
,
M00M
M00M
M00M
M00M
M00M
M00M
M00M
M00M
M00M
M00M
M00M
M00M
M00M
M00M
M00M
M00M
,
M00M
M00M
M00M
M00M
M00M
M00M
M00M
M00M
M00M
M00M
M00M
M00M
M00M
M00M
M00M
M00M
M00M
M00M
M00M
M00M
M00M
M00M
M00M
M00M
M00M
M00M
M00M
M00M
M00M
M00M
M00M
M00M
,
M00M
M00M
M00M
M00M
M00M
M00M
M00M
M00M
M00M
M00M
M00M
M00M
M00M
M00M
M00M
M00M
M00M
M00M
M00M
M00M
M00M
M00M
M00M
M00M
M00M
M00M
M00M
M00M
M00M
M00M
M00M
M00M
,
M00M
M00M
M00M
M00M
M00M
M00M
M00M
M00M
M00M
M00M
M00M
M00M
M00M
M00M
M00M
M00M
M00M
M00M
M00M
M00M
M00M
M00M
M00M
M00M
M00M
M00M
M00M
M00M
M00M
M00M
M00M
M00M
M00M
M00M
M00M
M00M
M00M
M00M
M00M
M00M
M00M
M00M
M00M
M00M
M00M
M00M
M00M
M00M
M00M
M00M
M00M
M00M
M00M
M00M
M00M
M00M
M00M
M00M
M00M
M00M
M00M
M00M
M00M
M00M
,
M00M
M00M
M00M
M00M
M00M
M00M
M00M
M00M
M00M
M00M
M00M
M00M
M00M
M00M
M00M
M00M
M00M
M00M
M00M
M00M
M00M
M00M
M00M
M00M
M00M
M00M
M00M
M00M
M00M
M00M
M00M
M00M
M00M
M00M
M00M
M00M
M00M
M00M
M00M
M00M
M00M
M00M
M00M
M00M
M00M
M00M
M00M
M00M
M00M
M00M
M00M
M00M
M00M
M00M
M00M
M00M
M33M
0000
0000
0000
0000
0000
0000
0000
,
1000
0001
0100
0010
1000
0010
0100
0000
,
0001
0010
0100
0001
0100
1000
0001
0000
,
1000
0010
1000
0010
1000
0010
1000
0010
,
2002
0000
3003
1100
,
0100
1000
0100
0010
0001
0010
0100
0000
,
1000
0010
0100
1000
0100
0001
1000
0000
,
0010
0100
0010
0100
0010
1000
0001
1000
,
0001
0100
0001
0100
0001
1000
1001
0000
,
0100
1000
0100
0010
0001
0010
0100
0000
,
1000
0010
0100
1000
0100
0001
1000
0000
,
0010
0100
0010
0100
0010
1000
0001
1000
,
1001
0000
0000
0110
,
0100
0010
0100
0001
1000
0100
1000
0000
,
1000
0100
1000
0001
0100
0010
0100
0000
,
0010
1000
0010
1000
0010
1000
0010
1000
,
0001
0100
0001
0100
0001
0100
0101
0000
,
0010
1000
0010
0100
0010
1000
0010
0100
,
0020
0100
0100
0130
,
0001
1000
0001
0100
0001
1000
0001
0100
,
0002
1000
1000
1003
,
0010
1000
0010
1000
0010
0100
0010
0100
,
0001
1000
0001
1000
0001
0100
0001
0100
,
0010
1000
0100
0010
0001
0010
0001
0010
,
0002
1000
1000
1003
,
1000
0010
1000
0010
0100
0010
0100
0010
,
2000
0010
0010
3010
,
0010
1000
0100
0010
0100
1000
0010
0100
,
0001
0010
0100
0010
0001
0100
0010
1000
,
0010
0100
0001
0100
1010
0000
0000
0000
,
0220
0000
0330
0000
;

//---------------dance-single - ----------------
#NOTES:
     dance-single:
     Can You Keep Up?:
     Challenge:
     12:
     0.957,1,0.235,0.459,1:
0000
0000
0000
0000
,
0000
0000
0000
0000
,
0000
0000
0000
0000
,
0000
0000
0000
0000
,
1000
0100
1000
0100
1000
0000
0100
0000
1000
0010
1000
0010
1000
0000
0010
0000
,
0100
0000
0000
0001
0000
0000
0100
0000
0000
0001
0000
0000
0100
0000
0000
0000
0000
0000
0001
0000
0000
0000
0000
0000
1000
0000
0000
0001
0000
0000
1000
0000
0000
0001
0000
0000
1000
0000
0000
0000
0000
0000
0000
0000
1000
0000
0000
0000
,
0100
1000
0001
0010
0001
1000
0100
1000
0001
0010
0001
1000
,
0100
0000
0000
MM1M
,
0001
0100
0001
0100
0001
0000
0100
0000
0001
0010
0001
0010
0001
0000
0010
0000
,
0100
0000
0000
1000
0000
0000
0100
0000
0000
1000
0000
0000
0100
0000
0000
0000
0000
0000
1000
0000
0000
0000
0000
0000
0001
0000
0000
1000
0000
0000
0001
0000
0000
1000
0000
0000
0001
0000
0000
0000
0000
0000
0000
0000
1000
0000
0000
0000
,
0100
1000
0001
0100
0001
1000
0100
1000
0001
0100
0001
1000
,
0010
1000
0001
0010
0001
1000
0010
1000
0001
0010
0000
0000
,
1000
0001
1000
0001
1000
0000
0001
0000
0010
0100
0010
0100
0010
0000
0100
0000
,
1000
0000
0000
0100
0000
0000
1000
0000
0000
0100
0000
0000
1000
0000
0000
0000
0000
0000
0100
0000
0000
0000
0000
0000
0010
0000
0000
0001
0000
0000
0010
0000
0000
0001
0000
0000
0010
0000
0000
0000
0000
0000
0000
0000
0001
0000
0000
0000
,
1000
0001
0010
0100
0010
0001
1000
0001
0010
0100
0010
0001
,
1000
0000
0000
M11M
,
0001
1000
0001
1000
0001
0000
1000
0000
0010
0100
0010
0100
0010
0000
0100
0000
,
0001
0000
0000
0100
0000
0000
0001
0000
0000
0100
0000
0000
0001
0000
0000
0000
0000
0000
0100
0000
0000
0000
0000
0000
0010
0000
0000
1000
0000
0000
0010
0000
0000
1000
0000
0000
0010
0000
0000
0000
0000
0000
0000
0000
0001
0000
0000
0000
,
0010
0001
1000
0100
1000
0001
0010
0001
1000
0100
1000
0001
,
0100
0001
1000
0010
1000
0001
0100
0001
1000
0010
0000
0000
,
1000
0100
1000
0100
1000
0100
1000
0100
1000
0100
1000
0100
1000
0100
1000
0200
,
2000
0000
0000
3300
,
0010
0001
0010
0001
0010
0001
0010
0001
0010
0001
0010
0001
0010
0001
0010
0002
,
0020
0000
0000
0033
,
1001
0110
1001
1100
,
2000
3020
0230
0302
,
1003
0001
1000
0001
1000
0001
1000
0001
1000
0001
1000
0001
1000
0001
1000
0002
,
2000
0000
0000
3003
,
0010
0100
0010
0100
0010
0100
0010
0100
0010
0100
0010
0100
0010
0100
0010
0200
,
0020
0000
0000
0330
,
1100
0101
1010
1100
,
1001
0002
2003
3020
,
0230
0302
0023
0030
,
0440
0000
0000
0000
,
M00M
M00M
M00M
M00M
,
M00M
M00M
M00M
M00M
,
M00M
M00M
M00M
M00M
M00M
M00M
M00M
M00M
,
M00M
M00M
M00M
M00M
M00M
M00M
M00M
M00M
,
M00M
M00M
M00M
M00M
M00M
M00M
M00M
M00M
M00M
M00M
M00M
M00M
M00M
M00M
M00M
M00M
,
M00M
M00M
M00M
M00M
M00M
M00M
M00M
M00M
M00M
M00M
M00M
M00M
M00M
M00M
M00M
M00M
,
M00M
M00M
M00M
M00M
M00M
M00M
M00M
M00M
M00M
M00M
M00M
M00M
M00M
M00M
M00M
M00M
M00M
M00M
M00M
M00M
M00M
M00M
M00M
M00M
M00M
M00M
M00M
M00M
M00M
M00M
M00M
M00M
,
M00M
M00M
M00M
M00M
M00M
M00M
M00M
M00M
M00M
M00M
M00M
M00M
M00M
M00M
M00M
M00M
M00M
M00M
M00M
M00M
M00M
M00M
M00M
M00M
M00M
M00M
M00M
M00M
M00M
M00M
M00M
M00M
,
M00M
M00M
M00M
M00M
M00M
M00M
M00M
M00M
M00M
M00M
M00M
M00M
M00M
M00M
M00M
M00M
M00M
M00M
M00M
M00M
M00M
M00M
M00M
M00M
M00M
M00M
M00M
M00M
M00M
M00M
M00M
M00M
M00M
M00M
M00M
M00M
M00M
M00M
M00M
M00M
M00M
M00M
M00M
M00M
M00M
M00M
M00M
M00M
M00M
M00M
M00M
M00M
M00M
M00M
M00M
M00M
M00M
M00M
M00M
M00M
M00M
M00M
M00M
M00M
,
M00M
M00M
M00M
M00M
M00M
M00M
M00M
M00M
M00M
M00M
M00M
M00M
M00M
M00M
M00M
M00M
M00M
M00M
M00M
M00M
M00M
M00M
M00M
M00M
M00M
M00M
M00M
M00M
M00M
M00M
M00M
M00M
M00M
M00M
M00M
M00M
M00M
M00M
M00M
M00M
M00M
M00M
M00M
M00M
M00M
M00M
M00M
M00M
M00M
M00M
M00M
M00M
M00M
M00M
M00M
M00M
M33M
M00M
M00M
M00M
MMMM
0000
0000
0000
,
0001
0100
0001
0100
0001
0000
1000
0000
0100
1000
0100
1000
0100
0000
1000
0000
,
0001
0000
0000
0010
0000
0000
0001
0000
0000
0010
0000
0000
0001
0000
0000
0000
0000
0000
0010
0000
0000
0000
0000
0000
0100
0000
0000
0010
0000
0000
0100
0000
0000
0010
0000
0000
0100
0000
0000
0000
0000
0000
0000
0000
0010
0000
0000
0000
,
0001
0100
0001
0010
0001
0100
0001
0010
0001
0100
0001
0010
,
0001
0000
0000
1MMM
,
0010
1000
0010
1000
0010
0000
0100
0000
0001
0010
0001
0010
0001
0000
1000
0000
,
0001
0000
0000
0100
0000
0000
0001
0000
0000
0100
0000
0000
0001
0000
0000
0000
0000
0000
0100
0000
0000
0000
0000
0000
0010
0000
0000
0100
0000
0000
0010
0000
0000
0100
0000
0000
0010
0000
0000
0000
0000
0000
0000
0000
1000
0000
0000
0000
,
0100
1000
0010
0100
0010
1000
0100
1000
0010
0100
0010
1000
,
0001
1000
0010
0100
0010
1000
0001
1000
0010
0100
0000
0000
,
0100
0010
0100
0010
0100
0000
0010
0000
1000
0001
1000
0001
1000
0000
0001
0000
,
0100
0000
0000
0001
0000
0000
0100
0000
0000
0001
0000
0000
0100
0000
0000
0000
0000
0000
0001
0000
0000
0000
0000
0000
1000
0000
0000
0010
0000
0000
1000
0000
0000
0010
0000
0000
1000
0000
0000
0000
0000
0000
0000
0000
0010
0000
0000
0000
,
1000
0100
1000
0010
1000
0100
1000
0010
1000
0100
1000
0010
,
1000
0000
0000
1MM1
,
0001
1000
0001
1000
0001
0000
0010
0000
0100
0010
0100
0010
0100
0000
0010
0000
,
0001
0000
0000
0100
0000
0000
0001
0000
0000
0100
0000
0000
0001
0000
0000
0000
0000
0000
1000
0000
0000
0000
0000
0000
0100
0000
0000
1000
0000
0000
0100
0000
0000
1000
0000
0000
0100
0000
0000
0000
0000
0000
0000
0000
0001
0000
0000
0000
,
0100
0001
0010
0100
0010
0001
0100
0001
0010
0100
0010
0001
,
1000
0001
0010
0100
0010
0001
1000
0001
0010
0100
0000
0000
,
0100
1000
0100
1000
0100
1000
0100
1000
0100
1000
0100
1000
0100
1000
0100
2000
,
0200
0000
0000
3300
,
1000
0010
1000
0010
1000
0010
1000
0010
1000
0010
1000
0010
1000
0010
1000
0020
,
2000
0000
0000
3030
,
0110
1001
1100
0110
,
0200
2300
3002
0023
,
0130
0010
0100
0010
0100
0010
0100
0010
0100
0010
0100
0010
0100
0010
0100
0020
,
0200
0000
0000
0330
,
1000
0001
1000
0001
1000
0001
1000
0001
1000
0001
1000
0001
1000
0001
1000
0002
,
2000
0000
0000
3003
,
0101
0011
1100
0110
,
0002
0203
0320
2030
,
3200
0320
0032
0003
,
2002
0000
0000
0000
0000
0000
0000
0000
0000
0000
0000
0000
0000
0000
0000
0000
0000
0000
0000
0000
0000
0000
0000
0000
0000
0000
0000
0000
0000
0000
0000
0000
0000
0000
0000
0000
0000
0000
0000
0000
0000
0000
0000
0000
0000
0000
0000
0000
0000
0000
0000
0000
0000
0000
0000
0000
0000
0000
0000
0000
0000
0000
0000
0000
0000
0000
0000
0000
0000
0000
0000
0000
0000
0000
0000
0000
0000
0000
0000
0000
0000
0000
0000
0000
0000
0000
0000
0000
0000
0000
0000
0000
0000
0000
0000
0000
3000
0003
0000
0000
0000
0000
0000
0000
0000
0000
0000
0000
0000
0000
0000
0000
0000
0000
0000
0000
0000
0000
0000
0000
0000
0000
0000
0000
0000
0000
0000
0000
0000
0000
0000
0000
0000
0000
0000
0000
0000
0000
0000
0000
0000
0000
0000
0000
0000
0000
0000
0000
0000
0000
0000
0000
0000
0000
0000
0000
0000
0000
0000
0000
0000
0000
0000
0000
0000
0000
0000
0000
0000
0000
0000
0000
0000
0000
0000
0000
0000
0000
0000
0000
0000
0000
0000
0000
0000
0000
0000
0000
0000
0000
0000
0000
;
