#TITLE:Polkarama!;
#ARTIST:Weird Al Yankovic;
#BANNER:Polkarama!-bn.png;
#BACKGROUND:Polkarama!-bg.png;
#LYRICSPATH:Song List.lrc;
#CDTITLE:.\CDTITLES\hellrazor.png;
#MUSIC:Polkarama!.mp3;
#OFFSET:-0.042;
#SAMPLESTART:16.3;
#SAMPLELENGTH:12;
#BPMS:0=113,2=111,4=122,8=119,10=123.8,16=125,18=130.5,24=134,26=140,32=142,36=145.660,68=146.5,84=147.3,100=154.360,139=167.560,192=166.7,224=166.340,240=164.5,272=162.8,300=162.4,392=155,393=151,394=145,395=145,396=143,397=140,398=137,399=120,400=113.2,404=114.14,408=115,440=117.7,456=120.4,472=121.76,488=123.64,512=145,513=128.5,514.5=135,515.5=172,518.5=134,519.5=168.4,531=122.5,533=146,534=168.3,540.5=170,546=121.4,548=155,549=168.6,558=170,577=170.8,597.5=167.6,609=162.2,613=155.6;
#BGCHANGES:0=Polkarama!.AVI=1=1=1=0,9999=-=1=0=0=0;

//---------------dance-single - ----------------
#NOTES:
     dance-single:
     :
     Beginner:
     2:
     0.137,0.211,0.012,0.035,0:
0000
0000
0000
0000
,
1000
0000
0001
0000
,
0010
0000
0010
0000
,
0001
0000
1000
0000
,
0100
0000
0100
0000
,
1000
0000
0010
0000
,
0100
0000
0100
0000
,
0001
0000
1000
0000
,
0001
0000
0001
0000
,
1000
0000
0000
0000
,
0100
0000
0000
0000
,
0010
0000
0000
0000
,
0100
0000
0000
0000
,
1000
0000
0000
0000
,
0001
0000
0000
0000
,
1000
0000
0010
0000
,
0100
0000
0010
0000
,
1000
0000
0001
0000
,
0000
0000
0001
0000
,
0000
0000
1000
0000
,
0000
0000
1000
0000
,
0100
0000
0010
0000
,
0000
0000
0001
0000
,
0000
0000
0001
0000
,
0000
0000
0010
0000
,
0001
0000
1000
0000
,
0100
0000
0100
0000
,
0010
0000
0000
0000
,
0001
0000
0000
0000
,
0100
0000
0000
0000
,
0001
0000
0000
0000
,
0001
0000
0000
0000
,
1000
0000
0000
0000
,
0100
0000
0000
0000
,
1000
0000
0000
0000
,
1000
0000
0010
0000
,
0000
0000
0010
0000
,
1000
0000
0001
0000
,
0000
0000
0001
0000
,
0100
0000
0000
0000
,
0010
0000
0000
0000
,
0100
0000
0000
0000
,
0010
0000
0000
0000
,
0100
0000
0000
0000
,
0001
0000
0000
0000
,
1000
0000
0000
0000
,
1000
0000
0000
0000
,
0100
0000
0000
0000
,
0100
0000
1000
0000
,
0001
0000
0000
0000
,
0010
0000
0001
0000
,
1000
0000
0000
0000
,
0001
0000
0010
0000
,
0100
0000
0000
0000
,
0010
0000
0000
0000
,
0100
0000
0000
0000
,
0010
0000
0001
0000
,
1000
0000
0001
0000
,
1000
0000
0100
0000
,
1000
0000
0100
0000
,
0010
0000
0000
0000
,
0000
0000
0100
0000
,
1000
0000
0000
0000
,
0000
0000
0001
0000
,
1000
0000
0000
0000
,
0000
0000
0010
0000
,
0100
0000
0000
0000
,
0010
0000
0000
0000
,
1000
0000
0001
0000
,
0000
0000
0000
0000
,
0001
0000
0010
0000
,
0000
0000
0000
0000
,
0010
0000
0100
0000
,
0010
0000
0100
0000
,
0010
0000
0001
0000
,
1000
0000
0001
0000
,
1000
0000
0100
0000
,
0000
0000
0000
0000
,
1000
0000
0010
0000
,
0000
0000
0000
0000
,
0100
0000
0000
0000
,
0010
0000
0000
0000
,
0100
0000
0001
0000
,
1000
0000
1000
0000
,
0100
0000
0010
0000
,
0100
0000
0010
0000
,
0001
0000
0100
0000
,
0010
0000
0100
0000
,
0001
0000
1000
0000
,
0001
0000
0010
0000
,
0001
0000
1000
0000
,
0100
0000
1000
0000
,
0100
0000
0100
0000
,
0100
0000
0100
0010
,
0010
0000
0010
0000
,
0010
0000
0010
0001
,
0001
0000
0001
0000
,
0001
0000
0001
1000
,
1000
0000
1000
0000
,
1000
0000
1000
0000
,
2000
0000
0000
0000
,
0000
0000
0000
3000
,
0010
0200
0000
0300
,
0010
0200
0000
0300
,
0010
0200
0000
0300
,
0010
0200
0000
0300
,
0001
2000
0000
3000
,
0001
2000
0000
3000
,
0001
2000
0000
3000
,
0001
2000
0000
3000
,
0010
0000
0100
0000
,
0001
0000
1000
0000
,
0001
0000
0100
0000
,
0010
0000
0100
0000
,
0001
0000
0001
0000
,
1000
0000
0100
0000
,
1000
0000
1000
0000
,
0010
0000
0100
0000
,
0010
0000
1000
0000
,
0001
0000
1000
0000
,
0001
0000
0010
0000
,
0001
0000
0001
0000
,
1000
0000
1000
0000
,
0001
0000
0001
0000
,
1000
0000
1000
0000
,
0001
0000
0001
0000
,
1000
0000
1000
0000
,
0001
0000
0001
0000
,
0000
0000
0000
0000
,
0000
0000
0000
0000
,
1000
0000
0001
0000
,
0010
0000
0010
0000
,
0001
0000
0000
0000
,
1001
0000
0000
1000
,
0000
0010
0000
0100
,
0000
0100
0000
0010
,
0000
1000
0000
1001
,
0000
0000
1000
0000
,
0001
0000
1000
0000
,
0000
0000
0001
0000
,
0010
0000
0001
0000
,
0000
0000
1000
0000
,
0100
0000
1000
0000
,
0000
0000
0001
0000
,
0010
0000
0001
0000
,
0000
0010
0000
0000
,
0000
0001
0000
0000
,
0000
1000
0000
0000
,
0000
0100
0000
0000
,
0000
0000
0010
0000
,
0000
0000
0001
0000
,
0000
0000
1000
0000
,
0000
0010
0000
0000
,
0100
0000
0000
0000
,
0000
0000
0000
0000
,
0000
0000
0000
1001
0000
0000
0000
0000
;

//---------------dance-single - ----------------
#NOTES:
     dance-single:
     :
     Easy:
     4:
     0.296,0.275,0.023,0.023,0:
0010
0000
0000
0000
,
1000
0000
0001
0000
,
0010
0001
1000
0000
,
0100
0000
0010
0000
,
0100
1000
0001
0000
,
0100
0000
0010
0000
,
0100
0001
0100
0000
,
0010
0000
0100
0000
,
0001
1000
0100
0000
,
1000
0000
0010
0000
,
0100
0000
0010
0000
,
1000
0000
0001
0000
,
0010
0000
0001
0000
,
1000
0000
0100
0000
,
0010
0000
0100
0000
,
1000
0100
0010
0100
,
0010
0001
0010
0001
,
0000
0010
0001
0000
,
0000
0100
0010
0000
,
0000
1000
0000
0000
,
0100
0000
0010
0000
,
0100
1000
0001
0000
,
0100
0010
0100
0000
,
0001
0100
0001
0000
,
1000
0000
0100
0000
,
0010
0100
1000
0100
,
1000
0010
1000
0000
,
0100
1000
0100
0000
,
0010
0100
0010
0000
,
0100
1000
0001
0000
,
0100
0001
1000
0100
,
1000
0010
1000
0000
,
0100
0010
0100
0000
,
1000
0001
0100
0000
,
0010
0100
0001
0100
,
0010
0000
0100
0000
,
0001
1000
0100
0000
,
1000
0000
0010
0000
,
0100
0010
0100
0000
,
0010
0010
1000
1000
,
0010
0010
1000
1000
,
0100
0100
1000
0100
,
1000
0100
1000
0010
,
1000
1000
0001
0001
,
0100
0100
0001
0001
,
1000
0100
1000
0100
,
0001
0000
0100
0000
,
1000
0000
0010
0000
,
1000
0100
0010
0000
,
0100
1000
0001
0000
,
0100
0001
0010
0000
,
0010
0001
0100
0000
,
0010
1000
0010
0000
,
1000
0100
0010
0100
,
1000
0001
0100
0010
,
0100
0010
1000
0100
,
0010
0100
1000
0100
,
0010
0100
1000
0100
,
1000
0001
0100
0001
,
0100
0010
0100
0001
,
0010
0001
1000
1000
,
0100
0100
0010
0100
,
1000
1000
0001
0001
,
0100
0100
0010
0100
,
0001
0001
1000
1000
,
0100
0100
0010
0100
,
1000
1000
0001
0001
,
0100
0100
0010
0100
,
0001
1000
0100
0010
,
0100
1000
0100
0000
,
1000
0010
0100
0010
,
0100
0001
0100
0000
,
0001
1000
0100
1000
,
0001
0100
0001
0100
,
0010
0010
0100
0100
,
0010
0100
0001
1000
,
0100
0100
0010
0010
,
0100
1000
0001
0000
,
0100
0100
0010
0010
,
0100
0001
1000
0000
,
0100
0010
0100
0100
,
1000
0010
1000
1000
,
0010
0100
0010
0100
,
0001
0000
1000
0100
,
0010
0100
1000
0010
,
1000
0010
0100
0010
,
0100
0010
0100
0001
,
1000
0100
0010
0100
,
0010
0100
1000
0010
,
0100
0010
0100
0010
,
1000
0100
0010
0001
,
0100
0010
0100
0001
,
0010
0100
1000
0100
,
0001
0100
1000
0010
,
1000
0100
0001
0100
,
1000
0010
0100
0010
,
1000
0100
0001
0100
,
1000
0010
0100
0010
,
1000
0100
0001
0100
,
1000
0010
0100
0010
,
0200
0000
0000
0300
,
0001
0001
0010
0000
,
0001
1000
0100
0100
,
1000
0010
0100
0100
,
0010
1000
0100
0100
,
0010
0100
1001
0000
,
1000
0100
0010
0010
,
0100
1000
0001
0001
,
0100
0010
0100
0100
,
0001
1000
1001
0000
,
0100
0100
0010
0100
,
1000
0100
1000
0010
,
0000
1000
0001
0010
,
0001
0010
0001
1000
,
1000
0100
1000
0100
,
0010
0100
1000
0001
,
0100
0010
0100
0001
,
1000
0100
1000
0100
,
0010
0010
0100
1000
,
0001
0001
0100
0010
,
0100
0100
0001
1000
,
0001
0001
0100
0000
,
0100
0010
1000
0000
,
0000
0100
0010
0000
,
0000
0100
1000
0010
,
1000
0100
0010
0100
,
1000
1000
0100
0100
,
0001
0001
0100
1000
,
0100
0000
1100
0000
0000
1100
0000
0000
,
0000
0000
0000
0000
,
0100
0010
1000
0010
,
0000
0100
0010
0000
,
1000
0100
0010
0100
,
0100
0000
0000
0100
,
1000
0010
1000
0000
,
0100
1000
0000
0001
,
1000
0010
0100
0100
,
0000
0000
0010
1000
,
0100
0010
0100
1000
,
0010
0100
0100
0010
,
0100
0001
0010
0100
,
0010
0010
0001
0001
,
0100
0010
0100
0001
,
1000
0100
1000
0010
,
0100
0020
0000
0030
,
1000
0100
0000
0010
,
0100
1000
0001
1000
,
0001
0100
1000
0100
,
0001
0100
0010
0010
,
1000
0010
1000
0100
,
0010
0100
1000
0010
,
0100
0010
1000
0100
,
0010
0000
0100
0000
1000
0010
0000
1000
,
0100
0220
0000
0000
,
0000
0000
0000
0000
,
0330
0000
0000
2002
0000
0000
0000
0000
,
0000
0000
0000
0000
,
0000
0003
3001
0000
;

//---------------dance-single - ----------------
#NOTES:
     dance-single:
     :
     Medium:
     6:
     0.405,0.428,0.109,0.070,0.004:
0000
0000
0000
1000
,
0001
0010
0001
1000
,
0100
0010
0100
0010
0100
0000
1000
0000
,
0001
0100
0010
0100
,
0001
0100
0001
0100
0001
0000
1000
0000
,
0100
1000
0010
1000
,
0100
1000
0100
1000
0100
0000
1000
0000
,
0010
0100
0010
0100
,
0001
0100
0001
0100
0001
0000
0000
0000
,
1000
0001
0010
0010
,
0001
1000
0100
1000
,
0010
1000
0010
0010
,
0100
0000
0010
1000
0000
0000
0100
0000
,
0010
0100
1000
1000
,
0100
0000
1000
0100
0000
0000
0000
0000
,
0100
1000
0010
0000
1000
0010
1000
0000
,
0001
0010
0100
0000
0010
0001
0010
0000
,
0001
1000
0100
0000
0010
0000
0001
0000
,
0100
0001
0100
0000
0010
0000
0100
0000
,
0001
0100
0010
0000
0100
0000
0001
0000
,
0010
0001
1000
0000
0100
0000
0010
0000
,
0001
1000
0010
0000
1000
0000
0100
0000
,
0010
0001
0100
0000
0010
0000
0100
0000
,
0100
0010
1000
0000
0100
0000
1000
0000
,
0001
0000
0100
0000
0001
0000
1000
0100
,
0000
0010
0100
0000
1000
0010
1000
0000
,
0100
0010
0100
1000
,
0100
1000
0100
1000
0000
0000
0010
0000
,
0100
0000
0010
0000
1000
0000
0001
0100
,
0000
0001
0100
0001
,
0100
0010
0100
0001
0010
0100
0010
0000
,
0001
0010
0001
0010
0000
0000
0100
0000
,
0010
0001
1000
0100
,
0010
0100
1000
0001
,
0100
0001
0100
0001
0100
0001
0100
0000
,
0100
0000
0010
0000
1000
0010
0000
0000
,
1000
0100
0000
0000
1100
0000
0000
0000
,
1000
0000
0010
0000
0010
0100
0000
0010
,
1000
0010
0000
0010
1000
0000
0000
0000
,
0010
0100
0010
1000
,
0100
0010
0100
1000
,
0100
0001
0100
1000
,
0100
0001
0100
1000
,
0010
1000
0010
0001
,
0010
0010
0001
0010
,
1000
0010
0001
0010
,
2000
3010
0200
0310
,
0020
0000
0130
0000
0020
0000
1030
1000
,
0000
0000
0001
0000
0010
0000
0001
0100
,
0000
0000
0001
0000
0010
0000
0010
0100
,
0000
0000
1000
0000
0010
0000
1000
0100
,
0000
0000
1000
0000
0100
0000
0001
0100
,
0000
0000
1000
0000
0010
1000
0010
1000
,
0000
0000
0100
0000
0001
0000
0100
1000
,
0000
0000
0000
0000
0000
1000
0010
1000
,
0000
0100
0001
0100
,
1000
0000
0100
0000
0001
0100
1000
0100
,
0000
1000
0010
0100
,
0110
0000
0100
0000
0001
1000
0100
1000
,
0000
0010
1000
0010
,
0100
0000
0000
0100
0010
0100
0000
0010
,
0000
1000
0000
0000
1100
0000
1100
0000
,
1000
0000
0000
0010
1000
0010
0000
0100
,
0000
0010
0000
0000
0110
0000
0110
0000
,
0100
0000
0000
0001
0100
0001
0000
0100
,
0000
0010
0000
0000
0101
0000
0101
0000
,
1000
0000
0000
0100
1000
0100
0000
1000
,
0000
0010
0000
0000
1010
0000
1010
0000
,
0010
1000
0100
0000
0100
0010
0100
0000
,
0100
1000
0100
0100
,
1000
0010
1000
0000
0100
0010
0100
0000
,
0100
1000
0001
0001
,
0100
0010
0000
0100
0001
0000
1000
0000
,
1000
0010
0000
0100
0010
0000
0010
0000
,
0100
0010
0000
1000
0100
0000
0010
0000
,
0100
1000
0010
1000
,
0100
0001
0100
0000
1000
0010
1000
0000
,
0100
0010
0100
0010
,
0100
1000
0100
0000
1000
0010
1000
0000
,
0010
0100
0010
0100
,
0001
0010
0000
0010
0001
0000
0100
0000
,
0010
0100
0000
0100
0001
0000
0010
0000
,
0100
0010
0001
0100
,
0010
0000
0100
0000
0001
1000
0100
1000
,
0000
1000
0000
0000
1000
0010
0100
0010
,
0000
0010
0000
1000
0100
0010
0100
0010
,
0000
0100
0000
1000
0001
0100
0001
0100
,
0000
0010
0000
0010
0000
0100
0010
0100
,
0000
0001
0000
1000
0100
0010
0100
1000
,
0000
0010
0000
0010
0100
0010
0100
0001
,
0000
0010
0000
0100
0000
0000
0010
0001
,
0010
0100
0010
0100
1000
0010
1000
0000
,
1000
0010
1000
0000
0010
0100
0010
0000
,
1000
0010
0100
0000
0010
0100
0001
0000
,
1000
0010
0100
0000
0001
0100
0001
0000
,
0010
0100
0010
0000
0010
0001
0010
0000
,
0001
1000
0010
0000
0100
0010
1000
0000
,
0100
1000
0010
0000
0100
0010
1000
0000
,
0100
0010
0001
0000
0100
0001
1000
0000
,
0001
0100
0010
0000
0100
0001
0010
0100
,
0010
0001
0100
0001
,
0100
0000
0010
0010
1000
0000
0000
0000
,
0100
1000
0010
0010
,
1000
0100
0001
0001
,
0100
1000
0010
0010
,
1000
0100
1100
0000
,
0100
1000
0001
0001
,
1000
0100
0010
0010
,
0100
1000
0001
0001
,
0100
0010
0101
0000
,
0001
0000
0100
0000
0010
0100
0010
0000
,
1000
0100
1000
0000
0010
1000
0010
0000
,
1000
0000
0001
0000
0100
0001
0100
0000
,
0010
0000
0000
0100
0001
0000
0100
0000
0001
0000
0000
0000
0000
0000
0000
0000
,
0100
0001
1000
0100
,
0010
0100
1000
0010
1000
0010
1000
0000
,
0100
0010
0001
0010
,
0001
0010
0001
0100
0010
0100
0010
0100
,
0010
1000
0100
0010
,
0100
1000
0010
1000
,
0001
0100
0001
0100
,
0011
0110
1010
0000
,
0200
1000
1300
2000
,
0010
0010
3001
0200
,
0001
0001
0010
0010
,
0000
0001
0301
2001
,
0001
0010
0010
0100
,
0010
0100
0010
0001
,
3001
0000
0101
0000
0000
0110
0000
0010
,
1000
0001
0010
0100
0010
0000
0100
0000
,
1000
0100
1000
0010
,
0000
0110
0000
0220
0000
0000
0330
0000
,
0100
0001
1000
1001
,
0101
0000
0000
0001
,
1000
0000
0100
0000
0010
0000
0000
1100
,
0000
2200
0000
0000
3300
0000
1000
0000
,
0010
0100
0110
0101
,
0000
0000
1000
0001
,
0100
0001
0010
0100
,
1000
0010
1000
0100
,
0010
0001
1000
0001
,
0100
0001
0100
0010
,
1000
0010
1000
0001
,
0100
0100
0010
0100
,
0100
0010
0010
1000
,
0001
2000
0010
0010
,
3000
0200
0001
0001
,
0300
0020
0100
0100
,
0030
0200
0010
0010
,
0300
0000
0000
0001
0000
1000
0100
0000
,
0000
0000
0000
1000
0000
0010
0100
0000
,
0000
0000
0000
0010
0000
1000
0100
0000
,
0000
0000
1000
0000
0010
0000
0000
0100
,
0001
0000
0000
0000
,
0000
0000
0000
0000
1000
0000
0000
0000
1000
0000
0000
0000
0000
0000
0000
0100
,
0000
0000
0000
2020
0000
0000
0000
0000
,
0000
0000
0000
0000
,
0000
3030
0110
0000
;

//---------------dance-single - ----------------
#NOTES:
     dance-single:
     :
     Hard:
     8:
     0.570,0.734,0.264,0.117,0.130:
0000
0000
0000
0000
0000
1000
0010
1000
,
0010
0100
0010
0100
0010
1000
0001
1000
,
0001
0101
0101
0110
0110
0010
1000
0010
,
1000
0100
1000
0100
1000
0001
1000
0001
,
1000
1100
1100
1010
1010
0100
0010
0100
,
0010
0100
0001
0100
0001
1000
0001
1000
,
0001
0110
0110
0101
0101
1000
0001
1000
,
0001
0010
0001
0010
0001
1000
0100
1000
,
0100
1001
1001
0101
0101
1000
0010
0100
,
0010
0100
0000
0110
0000
0100
0001
1000
,
0100
0010
0001
0001
0000
0010
0100
1000
,
0001
0100
0000
0101
0000
0100
0010
0100
,
0001
1000
0100
0100
0000
1000
0010
0100
,
0010
0100
0000
0101
0000
1000
0100
0010
,
0100
1000
0010
0010
0000
0100
0010
0100
,
0010
1000
0000
1000
0010
0000
1000
0000
1000
0100
0000
0100
1000
0000
0001
0000
,
0100
0001
0000
0001
0100
0000
0100
0000
0010
0100
0000
0100
0010
0000
0000
0000
,
0010
0000
1000
0000
0100
0000
0010
0000
0100
0000
1000
0100
0000
0000
0000
0000
,
0010
0100
0010
0000
0100
0010
0100
0000
,
0100
1000
0001
0000
0000
0000
0000
0000
,
1000
0000
0100
0000
0010
0000
0100
1000
,
0000
0000
0001
0000
1000
0000
0100
0000
1000
0100
0000
1000
0000
0000
0010
0000
,
0100
0000
0010
0000
1000
0000
0100
0000
1000
0100
0000
1000
0000
0000
0000
0000
,
0000
0010
0100
0000
0001
0000
0100
0000
,
0010
0000
0100
0000
0101
0000
0001
1000
,
0001
0000
0100
0000
0001
0000
0100
0010
0100
0000
0010
0000
0100
0000
0000
0000
,
0001
0100
0001
0100
0001
0000
0011
0000
,
1000
0100
1000
0100
0000
0000
1000
0000
,
0010
0000
0010
0100
0010
0000
0010
0100
,
0010
0000
1000
0000
0100
1000
0000
0000
0000
0000
1000
0000
0001
0100
0000
0000
,
0001
1000
0100
1000
0100
1000
1100
0000
,
1000
0010
1000
1000
0000
0000
0100
0000
,
1000
0010
0100
0010
1000
0000
0100
0010
,
0000
0000
0100
0000
1000
0100
0000
0000
0000
0000
1000
0000
0001
0100
0000
0000
,
0010
0100
0010
1000
0001
1000
1001
0000
,
0001
0000
0000
0001
1000
0000
0000
1000
0100
0000
1000
0000
0000
0000
0100
0000
,
0010
0100
0000
0100
1000
0000
1000
0000
,
0010
0000
0000
1000
0001
0000
0000
0001
1000
0000
1000
0000
0000
0000
0010
0100
,
0010
0100
0001
1000
0001
0000
1001
0000
,
1000
0000
1000
0000
0001
0100
0001
0100
,
0010
0100
0010
0100
0000
0001
0100
0001
,
0100
0010
1000
0100
1000
0000
1000
0000
,
1001
0001
0101
0001
,
1000
0000
0100
0000
0010
0100
1000
0010
,
1000
0000
0100
0010
0000
0100
1000
0010
,
0100
0010
1000
0010
1000
0000
0010
0000
,
0200
0000
0302
0000
,
2003
0000
0000
0000
3010
0000
0010
1000
,
0000
0000
0100
0000
0010
0000
0010
0100
,
0000
0000
1000
0000
0010
0000
0010
1000
,
0000
0000
0001
0000
0100
0000
0100
0010
,
0000
0000
0100
0000
0001
0000
1000
0100
,
0000
0000
1000
0000
0010
1000
0010
1000
,
0000
0000
0010
0000
0100
0000
0001
2000
,
0000
0000
0000
0000
3000
0100
0010
0100
,
0000
1000
0001
1000
,
0101
0000
0100
0000
0010
0100
0010
0100
,
0000
0001
1000
0100
,
1100
0000
0001
0000
1000
0010
0100
0010
,
0000
1000
0001
0101
,
0100
0000
0000
0100
0001
0100
0000
0100
,
0000
0010
0000
0000
0110
0000
0101
0000
,
0001
0000
1000
0100
1000
0010
0000
0100
,
0000
0010
0000
0000
0110
0000
0101
0000
,
0100
0000
0000
0001
1000
0001
0000
0010
,
0000
0001
0000
0000
1100
0000
0110
0000
,
0100
0000
0000
1000
0010
1000
0000
0100
,
0000
0010
0000
0100
1000
0000
0000
0000
,
1000
0100
1000
0010
1000
0100
1000
0000
,
0010
0100
0100
0000
,
0100
0001
0010
0001
0100
0001
0010
0001
,
0100
0010
0100
0010
,
1000
0100
0000
1000
0010
1000
0010
0000
,
0100
0010
0000
0010
0100
0010
1000
0000
,
0001
0100
0000
0100
0010
0100
0010
0000
,
0100
0001
1000
1001
,
1000
0100
0010
0100
1000
0010
1000
0000
,
0110
0100
0101
0001
,
1000
0100
0010
0100
1000
0100
1000
0000
,
1010
0100
0110
0100
,
0001
0000
1000
0000
0000
0100
0000
0000
0010
0000
0100
0000
1000
0100
0000
0000
,
1000
0000
0010
0000
0000
0100
0000
0000
0010
0000
0100
0000
0010
0100
0000
0000
,
0001
0100
0000
0000
1000
0010
0000
0000
,
0020
0000
0200
0000
0000
0000
0330
1000
,
0000
0100
0000
0100
1000
0100
1000
0100
,
0000
0010
0000
0100
0010
0100
0010
0100
,
0000
1000
0000
0001
0010
0001
0010
0001
,
0000
0010
0000
0100
0000
1000
0001
0100
,
0000
0001
0000
1000
0010
1000
0010
1000
,
0000
0100
0000
0010
0100
0010
0100
1000
,
0000
0100
0000
0000
0000
0000
1000
0000
,
0100
0010
0100
1000
0010
1000
0010
0000
,
1000
0100
0010
0100
1000
0010
0100
0010
,
1000
0100
0010
0100
1000
0100
1001
0000
,
0100
0010
0100
0001
0010
0100
0010
0001
,
0100
0010
0100
0001
0010
0001
0011
0000
,
0010
0001
0100
0010
0100
0010
0100
0001
,
1000
0100
0010
0100
1000
1000
1100
0000
,
1000
0010
0100
0010
1000
0100
0010
0100
,
1000
0010
0100
0010
1000
0100
0010
0100
,
2002
0000
0000
0000
,
0000
0000
0000
3003
,
1000
0000
0000
0010
0000
0000
1010
0000
0000
0010
0000
0100
0010
0000
0000
1000
0000
0000
0100
0000
0000
0010
0000
0000
,
0110
0000
0000
0100
0000
0000
0011
0000
0000
0001
0000
1000
0001
0000
0000
1000
0000
0000
0001
0000
0000
1000
0000
0000
,
1010
0000
0000
1000
0000
0000
0110
0000
0000
1000
0000
0001
1000
0000
0000
0001
0000
0000
0001
0000
0000
0010
0000
0000
,
1001
0100
0101
0220
0000
0330
0000
0010
,
0101
0000
0000
0100
0000
0000
0110
0000
0000
0010
0000
0100
0010
0000
0000
1000
0000
0000
0001
0000
0000
0010
0000
0000
,
1001
0000
0000
1000
0000
0000
0110
0000
0000
1000
0000
0100
1000
0000
0000
0001
0000
0000
0100
0000
0000
0010
0000
0000
,
0110
0000
0000
0100
0000
0000
1001
0000
0000
0100
0000
0010
0100
0000
0000
0010
0000
0000
0010
0000
0000
1000
0000
0000
,
1001
0000
0000
0000
0000
0000
0001
0000
0000
0000
0000
0000
0101
0000
0000
0000
0000
0000
0001
0000
0000
0000
1000
0000
0001
0000
0000
0000
0000
0000
1000
0000
0000
0000
0000
0000
0001
0000
0000
0000
0000
0000
0001
0000
0000
0100
0000
0000
,
0001
0000
0001
0100
0001
0000
0100
0000
0010
0100
0010
0100
0010
0000
0000
0000
,
0010
1000
0010
1000
0010
0000
0000
0000
1000
0100
1000
0100
1000
0000
1000
0000
,
0100
0000
1000
0000
0010
0000
1000
0000
0010
0100
0010
0100
0010
0000
0000
0000
,
0100
0000
0000
0100
0010
0000
0100
0000
0200
0000
0000
0000
0002
0000
0303
0000
,
1000
0010
0100
0010
1000
0001
1000
0100
,
1000
0001
0010
0100
0010
0001
0010
0100
,
1000
0100
0001
0100
1000
0100
0010
0100
,
1000
0100
0010
0001
0010
1000
0010
0001
,
1000
0000
0100
0000
0010
0000
0100
0000
1000
0000
0000
0100
0000
1000
0000
0001
,
0100
0000
0001
0000
0010
0000
0001
0000
0100
0000
0000
0000
0001
0100
0010
0100
,
0001
0000
0010
0000
0001
0000
1000
0000
0010
0000
0000
0000
0010
1000
0001
1000
,
0020
0000
0000
0030
0020
0000
0000
0030
0020
0000
0000
0030
1000
0000
0001
0100
,
0000
0000
0100
0000
0001
0000
1000
0100
0000
0000
0010
0000
0100
0000
1000
0000
,
0010
0010
1000
0010
1000
0010
0100
0010
,
0200
0302
2003
3200
,
0310
0001
0000
0100
0001
1000
0100
0010
,
0100
0000
0000
0000
1000
0100
0000
0000
1000
0000
0010
0000
1000
0000
0100
0000
,
0010
0100
1000
0100
0001
0100
1000
0010
,
1000
0000
0000
0000
1100
0000
0000
0000
0000
0000
1100
0000
0000
0000
0010
1000
,
0000
1000
0010
0000
0010
0000
1000
0000
0100
0000
1000
0000
0000
0000
0010
0000
,
1000
0100
1000
0010
1000
0100
2000
0000
,
0000
0001
0000
0002
0000
0000
3003
0000
,
0001
1000
0100
0010
0100
1000
1100
0000
,
1001
0000
0000
0000
0100
1000
0010
1000
,
0100
0010
0100
1000
0200
0000
0000
1000
,
0000
2000
0000
3300
0000
1000
0100
0010
,
0100
1000
0010
1000
1100
0000
0101
0000
,
0000
0000
0000
0000
1000
0100
0000
0010
,
0000
0100
1000
0010
1000
0100
0000
0010
,
0001
1000
0001
0000
0010
0100
0000
0100
,
0000
1000
0010
1000
0100
0100
0000
0010
,
0001
0100
0001
0000
0010
0001
0000
0100
,
0000
0100
0010
1000
0100
0010
0000
0100
,
1000
0010
1000
0000
1000
0100
0000
0100
,
0010
0000
0100
0000
1000
0000
0001
0100
,
0010
0010
2000
0000
0000
0000
0000
0000
,
0000
3002
0000
0000
,
0000
0023
0000
0000
,
0000
0230
0000
2000
,
3300
0000
0000
0000
0000
0000
1000
0000
0000
0010
0000
0000
0100
0000
0000
0001
,
0000
0000
1000
0000
1000
0000
0100
0000
0000
0100
0000
0000
1000
0000
0000
0001
,
0000
0000
0001
0000
0100
0000
0010
0000
0000
0010
0000
0000
0100
0000
0000
0100
,
0000
0000
0000
0000
0001
0000
0010
0100
0010
0000
0100
0000
0000
0000
1000
0000
,
0100
0000
1000
0001
1000
0001
1000
0001
,
1000
0000
0001
0000
1000
1000
0000
0000
0100
0000
0000
0010
0001
0000
0000
0100
,
0000
0000
0000
2002
0000
0000
0000
0000
,
0000
0000
0000
0000
,
0000
3003
0110
0000
;

//---------------dance-single - ----------------
#NOTES:
     dance-single:
     :
     Challenge:
     10:
     0.7,0.948,0.264,0.272,0.367:
// measure 1
0000
0000
0000
0000
0000
0000
0000
0000
0000
0000
1000
0010
1000
0001
1000
0010
,  // measure 2
1000
0000
0100
1000
0100
1000
0100
0010
0001
0000
1000
0001
0010
0001
0100
0010
,  // measure 3
0100
0000
0110
0000
0101
0000
1001
0000
1010
0000
1000
0010
1000
0100
0010
0100
,  // measure 4
1000
0000
0001
0010
0100
0010
0001
1000
0010
0000
0010
0100
0001
0100
0010
1000
,  // measure 5
0001
0000
0101
0000
1001
0000
1100
0000
0110
0000
0100
0010
0100
0010
0100
1000
,  // measure 6
0100
0000
1000
0010
1000
0010
0100
0010
0100
0000
0001
0100
0001
0010
0100
0010
,  // measure 7
0100
0000
0011
0000
0110
0000
1100
0000
0110
0000
0100
1000
0010
1000
0100
0010
,  // measure 8
0100
0000
1000
0010
0100
0010
1000
0100
0010
0000
0001
0010
0100
0010
0001
1000
,  // measure 9
0010
1010
0110
0101
0110
0010
1000
0010
,  // measure 10
0100
0020
0000
1030
0000
0001
0010
0100
,  // measure 11
0010
0001
1001
0101
0000
0001
0010
0100
,  // measure 12
0010
0002
0000
1003
0000
1000
0010
1000
,  // measure 13
0100
0010
0110
1100
0000
1000
0010
1000
,  // measure 14
0010
0200
0000
0310
0000
1000
0001
0010
,  // measure 15
0100
0010
1001
0011
0000
0001
1000
0100
,  // measure 16
0010
0100
0000
0010
0100
0000
1000
0000
0100
1000
0000
0100
1000
0000
0001
0000
,  // measure 17
1000
0001
0000
1000
0001
0000
1000
0000
0010
1000
0000
0010
1000
0000
0000
0000
,  // measure 18
1000
0010
0100
0010
1000
0100
0010
0100
,  // measure 19
1000
0001
0010
0100
0010
0001
1000
0100
,  // measure 20
0010
0100
1000
0010
1000
0010
0100
0001
,  // measure 21
0010
0001
0010
0001
0200
0000
0320
2030
,  // measure 22
3000
0000
0001
0000
0010
0000
0100
0000
1000
0010
0000
1000
0000
0000
0010
0000
,  // measure 23
0010
0000
0100
0000
0010
0000
1000
0000
0010
1000
0000
0010
0000
0000
0010
0000
,  // measure 24
1000
0010
0100
0001
0010
0100
0010
0001
,  // measure 25
0100
0000
0010
1000
0010
1000
0010
1000
0020
0000
0000
0000
2030
0000
3200
0000
,  // measure 26
0310
0000
0001
0000
0001
0000
0010
0001
0010
0000
0001
0000
0010
0000
0001
0000
,  // measure 27
0100
0010
1000
0010
1000
0010
1000
0010
1000
0000
0000
0000
1100
0000
0000
0000
,  // measure 28
0100
0010
0001
0010
0100
0010
0001
0010
,  // measure 29
1000
0010
0001
0010
0100
0010
0001
0100
,  // measure 30
0010
0000
0100
0000
0001
1000
0000
0000
1000
0000
0010
0000
1000
0001
0000
0000
,  // measure 31
2000
3200
0320
0032
0023
0230
1300
0000
,  // measure 32
0100
1000
0010
1000
0010
1000
0001
0010
,  // measure 33
1000
0010
0100
0001
0100
1000
0010
1000
,  // measure 34
0100
0000
0001
0000
0100
1000
0000
0000
0100
0000
1000
0000
0010
1000
0000
0000
,  // measure 35
0020
2030
3020
0032
0023
2030
3010
0000
,  // measure 36
0100
0000
0000
0001
1000
0000
0000
1000
0100
0000
1000
0000
0000
0000
0010
0000
,  // measure 37
1000
0010
0000
0100
1001
0000
0010
0000
,  // measure 38
1000
0000
0000
1000
0010
0000
0000
0010
1000
0000
0001
0000
0000
0000
0010
0001
,  // measure 39
1000
0000
0001
0000
0010
0001
0010
0001
1000
0000
0000
0000
0000
0000
0000
0000
,  // measure 40
1010
0000
1100
0000
0100
1000
0001
1000
,  // measure 41
0110
0000
0010
1000
0000
1000
0001
1000
,  // measure 42
0100
0010
0001
1000
0010
0100
0010
1000
,  // measure 43
1010
0000
0001
0100
0010
1000
1010
0000
,  // measure 44
0010
0000
0100
0000
0010
0100
0001
0100
,  // measure 45
0010
1000
0100
1001
0000
0001
0010
0100
,  // measure 46
1000
0010
0100
0001
1001
0000
0010
0000
,  // measure 47
2000
3002
0203
0320
,  // measure 48
0230
0000
0302
0000
2003
0000
3010
2000
,  // measure 49
0000
0000
3010
0000
1000
0000
0001
0020
,  // measure 50
0000
0000
0031
0000
0010
0000
0010
0200
,  // measure 51
0000
0000
0310
0000
0010
0000
0001
2000
,  // measure 52
0000
0000
3001
0000
0001
0000
1000
0020
,  // measure 53
0000
0000
1030
0000
1000
0010
1000
0100
,  // measure 54
0000
0000
0010
0000
0100
0000
1000
0001
,  // measure 55
0000
0000
0000
0000
0000
0100
0001
1000
,  // measure 56
0000
0000
0100
0000
0010
0000
0100
2000
,  // measure 57
0100
0000
0001
0000
3001
0010
1000
0010
,  // measure 58
0000
0000
0001
0000
0100
0000
0001
0002
,  // measure 59
1000
0000
1000
0000
0010
0010
1000
1000
,  // measure 60
0000
0000
1003
0000
1000
0000
0010
2000
,  // measure 61
0010
0000
0010
3010
1000
0010
0000
1000
,  // measure 62
0000
0100
0000
0000
1001
0000
0101
0000
,  // measure 63
1000
0000
0010
1000
0010
0001
0000
0010
,  // measure 64
0000
0100
0001
0000
1001
0000
0101
0000
,  // measure 65
0001
0000
1000
0010
1000
0100
0000
0010
,  // measure 66
0000
1100
0000
0000
1010
0000
1001
0000
,  // measure 67
1000
0000
0010
0001
0010
1000
0000
0001
,  // measure 68
0000
0001
0100
0000
0101
0000
0101
0000
,  // measure 69
1000
0010
1000
0100
1000
0010
1000
0100
,  // measure 70
1000
1000
0010
0010
1000
1000
1001
0000
,  // measure 71
0100
0001
0100
0001
0010
0001
0100
0001
,  // measure 72
0010
0010
0001
0001
0100
0100
1001
0000
,  // measure 73
0010
0000
1000
0000
0000
0100
0000
0000
0010
0000
0100
0000
1000
0010
0000
0000
,  // measure 74
1000
0000
0010
0000
0000
0100
0000
0000
0010
0000
0100
0000
0010
1000
0000
0000
,  // measure 75
0010
0000
1000
0000
0000
0100
0000
0000
0010
0000
0100
0000
1000
0010
0000
0000
,  // measure 76
1000
0100
0010
0100
1000
0010
1000
0010
,  // measure 77
1000
0100
0010
0001
0100
0010
0100
0001
,  // measure 78
0010
0010
0001
0001
,  // measure 79
1000
0100
0010
0100
1000
0010
1000
0100
,  // measure 80
0010
0010
0100
0100
,  // measure 81
1000
0000
0001
0000
0000
0100
0000
0000
0010
0000
0100
0000
0100
0001
0000
0000
,  // measure 82
0001
0000
1000
0000
0000
0100
0000
0000
0010
0000
0001
0000
1000
0001
0000
0000
,  // measure 83
1000
0100
1000
0100
1000
0010
1000
0010
,  // measure 84
2002
3003
0220
0330
0001
1000
0001
0010
,  // measure 85
0000
0011
0000
0010
0100
0010
0100
1000
,  // measure 86
0000
1100
0000
1000
0010
0001
0010
1000
,  // measure 87
0000
1001
0000
0001
0100
1000
0100
0001
,  // measure 88
0000
0100
0000
0001
0000
0010
0001
0100
,  // measure 89
0000
0001
0000
0100
0001
0010
1000
0010
,  // measure 90
0000
0001
0000
0100
1000
0100
0010
0100
,  // measure 91
0000
0001
0000
1000
0010
1000
0010
0100
,  // measure 92
0001
0100
0001
1000
0001
1000
0001
0000
,  // measure 93
1000
0100
0010
0001
0100
0010
1000
0100
,  // measure 94
0010
0001
0100
0010
1000
0010
0110
0000
,  // measure 95
0001
0100
0010
1000
0100
0010
0001
0100
,  // measure 96
0010
1000
0100
0010
0001
1000
1001
0000
,  // measure 97
0001
1000
0100
0010
0100
1000
0010
1000
,  // measure 98
0010
1000
0100
0010
0100
1000
1010
0000
,  // measure 99
2000
0100
3200
0010
0320
0001
0032
1000
,  // measure 100
2003
0001
3002
0100
0203
0001
0302
1000
,  // measure 101
1003
0000
0000
1000
0000
1000
0001
0000
0000
0001
0000
0001
0010
0000
0000
0010
0000
0010
0001
0000
1000
0000
0000
0000
,  // measure 102
1001
0000
0000
0000
0000
1010
0000
0000
1010
0000
0000
0010
1000
0000
0000
0001
0000
0100
0000
0000
0100
0010
0000
0000
,  // measure 103
1000
0000
0000
0000
0000
0000
0000
0000
0000
0000
0000
0000
0000
0000
0000
0000
0000
0000
0000
0000
0000
0000
0000
0000
1001
0000
0000
0000
0000
0000
0000
0000
0000
0000
0000
0000
0000
0000
0000
0000
0000
0000
0000
0000
0000
0000
0000
0000
1000
0000
0000
0000
0000
0000
0000
0000
0000
0000
0000
0000
0000
0000
0000
0000
0000
0000
0000
0000
0000
0000
0000
0000
0001
0000
0000
0000
0000
0000
0100
0000
0000
0000
0000
0000
0001
0000
0000
0000
0000
0000
0100
0000
0000
0000
0000
0000
0001
0000
0000
0000
0000
0000
0100
0000
0000
0000
0000
0000
0000
0000
0000
0000
0000
0000
0000
0000
0000
0000
0000
0000
0010
0000
0000
0000
0000
0000
0000
0000
0000
0000
0000
0000
0000
0000
0000
0000
1000
0000
0000
0000
0000
0000
0000
0000
0000
0000
0000
0000
0000
0000
0000
0000
0000
0000
0000
0000
0000
0000
0000
0000
0010
0000
0000
0000
0000
0000
0000
0000
1000
0000
0000
0000
0000
0000
0000
0000
0000
0000
0000
0000
0000
0000
0000
0000
0001
0000
0000
0000
0000
0000
0000
0000
,  // measure 104
0010
0000
0000
0000
0000
0000
0000
0000
0000
0000
0000
0000
0000
0000
0000
0000
0000
0000
0000
0000
0000
0000
0000
0000
0011
0000
0000
0000
0000
0000
0000
0000
0000
0000
0000
0000
0000
0000
0000
0000
0000
0000
0000
0000
0000
0000
0000
0000
0001
0000
0000
0000
0000
0000
0000
0000
0000
0000
0000
0000
0000
0000
0000
0000
0000
0000
0000
0000
0000
0000
0000
0000
1000
0000
0000
0000
0000
0000
0010
0000
0000
0000
0000
0000
1000
0000
0000
0000
0000
0000
0010
0000
0000
0000
0000
0000
1000
0000
0000
0000
0000
0000
0010
0000
0000
0000
0000
0000
0000
0000
0000
0000
0000
0000
0000
0000
0000
0000
0000
0000
1000
0000
0000
0000
0000
0000
0000
0000
0000
0000
0000
0000
0000
0000
0000
0000
0001
0000
0000
0000
0000
0000
0000
0000
0000
0000
0000
0000
0000
0000
0000
0000
0000
0000
0000
0000
0000
0000
0000
0000
0001
0000
0000
0000
0000
0000
0000
0000
0100
0000
0000
0000
0000
0000
0000
0000
0000
0000
0000
0000
0000
0000
0000
0000
0001
0000
0000
0000
0000
0000
0000
0000
,  // measure 105
1000
0000
0000
0000
0000
0000
0000
0000
0000
0000
0000
0000
0000
0000
0000
0000
0000
0000
0000
0000
0000
0000
0000
0000
0011
0000
0000
0000
0000
0000
0000
0000
0000
0000
0000
0000
0000
0000
0000
0000
0000
0000
0000
0000
0000
0000
0000
0000
0010
0000
0000
0000
0000
0000
0000
0000
0000
0000
0000
0000
0000
0000
0000
0000
0000
0000
0000
0000
0000
0000
0000
0000
0001
0000
0000
0000
0000
0000
1000
0000
0000
0000
0000
0000
0001
0000
0000
0000
0000
0000
1000
0000
0000
0000
0000
0000
0001
0000
0000
0000
0000
0000
1000
0000
0000
0000
0000
0000
0000
0000
0000
0000
0000
0000
0000
0000
0000
0000
0000
0000
0001
0000
0000
0000
0000
0000
0000
0000
0000
0000
0000
0000
0000
0000
0000
0000
0100
0000
0000
0000
0000
0000
0000
0000
0000
0000
0000
0000
0000
0000
0000
0000
0000
0000
0000
0000
0000
0000
0000
0000
0100
0000
0000
0000
0000
0000
0000
0000
0010
0000
0000
0000
0000
0000
0000
0000
0000
0000
0000
0000
0000
0000
0000
0000
1000
0000
0000
0000
0000
0000
0000
0000
,  // measure 106
0001
0000
0000
1010
0000
0000
0001
0000
0000
2002
0000
0000
3003
0000
0000
0100
0000
0001
0000
0000
0100
0001
0000
1000
,  // measure 107
0010
0000
0000
0000
0000
0000
0000
0000
0000
0000
0000
0000
0000
0000
0000
0000
0000
0000
0000
0000
0000
0000
0000
0000
0110
0000
0000
0000
0000
0000
0000
0000
0000
0000
0000
0000
0000
0000
0000
0000
0000
0000
0000
0000
0000
0000
0000
0000
1000
0000
0000
0000
0000
0000
0000
0000
0000
0000
0000
0000
0000
0000
0000
0000
0000
0000
0000
0000
0000
0000
0000
0000
0100
0000
0000
0000
0000
0000
1000
0000
0000
0000
0000
0000
0100
0000
0000
0000
0000
0000
1000
0000
0000
0000
0000
0000
0100
0000
0000
0000
0000
0000
1000
0000
0000
0000
0000
0000
0000
0000
0000
0000
0000
0000
0000
0000
0000
0000
0000
0000
0100
0000
0000
0000
0000
0000
0000
0000
0000
0000
0000
0000
0000
0000
0000
0000
1000
0000
0000
0000
0000
0000
0000
0000
0000
0000
0000
0000
0000
0000
0000
0000
0000
0000
0000
0000
0000
0000
0000
0000
1000
0000
0000
0000
0000
0000
0000
0000
0001
0000
0000
0000
0000
0000
0000
0000
0000
0000
0000
0000
0000
0000
0000
0000
1000
0000
0000
0000
0000
0000
0000
0000
,  // measure 108
0010
0000
0000
0000
0000
0000
0000
0000
0000
0000
0000
0000
0000
0000
0000
0000
0000
0000
0000
0000
0000
0000
0000
0000
1000
0000
0000
0000
0000
0000
0000
0000
0000
0000
0000
0000
0000
0000
0000
0000
0000
0000
0000
0000
0000
0000
0000
0000
0001
0000
0000
0000
0000
0000
0000
0000
0000
0000
0000
0000
0000
0000
0000
0000
0000
0000
0000
0000
0000
0000
0000
0000
1000
0000
0000
0000
0000
0000
0001
0000
0000
0000
0000
0000
1000
0000
0000
0000
0000
0000
0001
0000
0000
0000
0000
0000
1000
0000
0000
0000
0000
0000
0001
0000
0000
0000
0000
0000
0000
0000
0000
0000
0000
0000
0000
0000
0000
0000
0000
0000
1000
0000
0000
0000
0000
0000
0000
0000
0000
0000
0000
0000
0000
0000
0000
0000
0010
0000
0000
0000
0000
0000
0000
0000
0000
0000
0000
0000
0000
0000
0000
0000
0000
0000
0000
0000
0000
0000
0000
0000
0010
0000
0000
0000
0000
0000
0000
0000
0100
0000
0000
0000
0000
0000
0000
0000
0000
0000
0000
0000
0000
0000
0000
0000
0010
0000
0000
0000
0000
0000
0000
0000
,  // measure 109
0100
0000
0000
0000
0000
0000
0000
0000
0000
0000
0000
0000
0000
0000
0000
0000
0000
0000
0000
0000
0000
0000
0000
0000
0001
0000
0000
0000
0000
0000
0000
0000
0000
0000
0000
0000
0000
0000
0000
0000
0000
0000
0000
0000
0000
0000
0000
0000
1000
0000
0000
0000
0000
0000
0000
0000
0000
0000
0000
0000
0000
0000
0000
0000
0000
0000
0000
0000
0000
0000
0000
0000
0001
0000
0000
0000
0000
0000
0010
0000
0000
0000
0000
0000
0001
0000
0000
0000
0000
0000
0010
0000
0000
0000
0000
0000
0001
0000
0000
0000
0000
0000
0010
0000
0000
0000
0000
0000
0000
0000
0000
0000
0000
0000
0000
0000
0000
0000
0000
0000
0001
0000
0000
0000
0000
0000
0000
0000
0000
0000
0000
0000
0000
0000
0000
0000
1000
0000
0000
0000
0000
0000
0000
0000
0000
0000
0000
0000
0000
0000
0000
0000
0000
0000
0000
0000
0000
0000
0000
0000
1000
0000
0000
0000
0000
0000
0000
0000
0001
0000
0000
0000
0000
0000
0000
0000
0000
0000
0000
0000
0000
0000
0000
0000
1000
0000
0000
0000
0000
0000
0000
0000
,  // measure 110
0001
0010
0001
2002
3003
1000
0001
0010
,  // measure 111
0100
0000
1000
0000
0001
0000
0010
0000
0001
0010
0001
0010
0001
0000
1000
0000
,  // measure 112
0100
0010
0100
0010
0100
0000
1000
0000
0001
0100
0001
0100
0001
0000
1000
0000
,  // measure 113
0010
0000
1000
0000
0001
0000
0001
0000
1000
0001
1000
0001
1000
0000
0010
0000
,  // measure 114
0100
0000
0000
0010
0100
0000
0001
0000
1000
0000
0010
0000
1000
0000
0000
0000
,  // measure 115
0100
0000
1000
0010
1000
0000
0100
0010
0000
0001
0000
0001
1000
0000
1000
0000
,  // measure 116
0100
0000
0010
0100
0010
0100
0010
0100
0010
0100
0010
0100
0010
0000
0001
1000
,  // measure 117
0001
0000
1000
0010
0100
0000
0100
0001
0000
1000
0000
0100
0010
0000
0100
0000
,  // measure 118
1000
0000
0100
0010
0001
0100
0001
0100
0001
0100
0001
0100
0001
0000
1000
0000
,  // measure 119
1000
0000
0100
0000
0010
0000
0100
0000
1000
0000
0000
0100
0000
1000
0000
0001
,  // measure 120
0100
0000
0001
0000
0010
0000
0001
0000
0100
0000
0000
0000
0001
0100
0010
0100
,  // measure 121
0001
0000
0010
0000
0001
0000
1000
0000
0010
0000
0000
0000
0010
1000
0001
1000
,  // measure 122
0020
0000
0000
0030
0020
0000
0000
0030
0020
0000
0000
0030
1000
0000
0001
0100
,  // measure 123
0000
0000
0100
0000
0001
0000
1000
0100
0000
0000
0010
0000
0100
0000
1000
0000
,  // measure 124
0010
0010
1000
0010
1000
0010
0100
0010
,  // measure 125
0200
0302
2003
3200
,  // measure 126
0310
0001
0000
0100
0001
1000
0100
0010
,  // measure 127
0100
0000
0000
0000
1000
0100
0000
0000
1000
0000
0010
0000
1000
0000
0100
0000
,  // measure 128
0010
0100
1000
0100
0001
0100
1000
0010
,  // measure 129
1000
0000
0000
0000
1100
0000
0000
0000
0000
0000
1100
0000
0000
0000
0010
1000
,  // measure 130
0000
1000
0010
0000
0010
0000
1000
0000
0100
0000
1000
0000
0000
0000
0010
0000
,  // measure 131
1000
0100
1000
0010
1000
0100
2000
0000
,  // measure 132
0000
0001
0000
0002
0000
0000
3003
0000
,  // measure 133
0001
1000
0100
0010
0100
1000
1100
0000
,  // measure 134
1001
0000
0000
0000
0100
1000
0010
1000
,  // measure 135
0100
0010
0100
1000
0200
0000
0000
1000
,  // measure 136
0000
2000
0000
3300
0000
1000
0100
0010
,  // measure 137
0100
1000
0010
1000
1100
0000
0101
0000
,  // measure 138
0000
0000
0000
0000
1000
0100
0000
0010
,  // measure 139
0000
0100
1000
0010
1000
0100
0000
0010
,  // measure 140
0001
1000
0001
0000
0010
0100
0000
0100
,  // measure 141
0000
1000
0010
1000
0100
0100
0000
0010
,  // measure 142
0001
0100
0001
0000
0010
0001
0000
0100
,  // measure 143
0000
0100
0010
1000
0100
0010
0000
0100
,  // measure 144
1000
0010
1000
0000
1000
0100
0000
0100
,  // measure 145
0010
0000
0100
0000
1000
0000
0001
0100
,  // measure 146
0010
0010
2000
0000
0000
0000
0000
0000
,  // measure 147
0000
3002
0000
0000
,  // measure 148
0000
0023
0000
0000
,  // measure 149
0000
0230
0000
2000
,  // measure 150
3300
0000
0000
0000
0000
0000
1000
0000
0000
0010
0000
0000
0100
0000
0000
0001
,  // measure 151
0000
0000
1000
0000
1000
0000
0100
0000
0000
0100
0000
0000
1000
0000
0000
0001
,  // measure 152
0000
0000
0001
0000
0100
0000
0010
0000
0000
0010
0000
0000
0100
0000
0000
0100
,  // measure 153
0000
0000
0000
0000
0001
0000
0010
0100
0010
0000
0100
0000
0000
0000
1000
0000
,  // measure 154
0100
0000
0000
0000
1000
0001
1000
0001
0010
0001
0010
0001
1000
0100
1000
0100
,  // measure 155
0010
0100
0010
0100
1000
0010
0000
0000
0100
0000
0000
0010
1000
0000
0000
0100
,  // measure 156
0000
0000
0000
2002
0000
0000
0000
0000
,  // measure 157
0000
0000
0000
0000
,  // measure 158
0000
0000
3113
0000
;
