#TITLE:oops!...I did it again;
#SUBTITLE:(long version);
#ARTIST:Britney Spears;
#TITLE:oops!...I did it again;
#SUBTITLE:(long version);
#ARTIST:Britney Spears;
#BANNER:oops!...I did it again (long version).PNG;
#BACKGROUND:oops!...I did it again (long version)-bg.png;
#LYRICSPATH:oops!...I did it again (long version).lrc;
#CDTITLE:.\CDTITLES\Hellrazor.png;
#MUSIC:Britney Spears - Oops I Did It Again - CD Version.mp3;
#OFFSET:-0.274;
#SAMPLESTART:39.42;
#SAMPLELENGTH:15.7;
#BPMS:0=95.06,188.5=85.02,189=75.02,189.5=65.02,190=55.02,190.5=45.02,191=35.02,191.5=23.76,198=95.06;
#STOPS:2=3.160,5=2.56,23=1.9,100=2.53,198=0.48,198.25=0.48,198.5=0.48,198.75=0.48;
#BGCHANGES:-0.175=Oops I Did It Again.avi=1=1=1=0;

//---------------dance-single - ----------------
#NOTES:
     dance-single:
     :
     Hard:
     8:
     0.394,0.446,0.698,0.057,0.028:
0000
0000
0000
0220
,
0330
0220
0330
0000
1000
0000
0010
0010
,
1000
1000
0100
0100
1000
0001
0010
0001
,
0100
0001
1000
0000
0010
0000
0010
0010
,
1000
1000
0010
0010
0100
1000
0100
0001
,
0100
1000
0100
0000
0100
0000
2200
0000
,
3000
1000
0010
0010
0300
0100
0010
0010
,
1000
1000
0100
0100
0001
0001
1000
0010
,
0100
0001
0010
0100
1000
0001
1000
0010
,
0110
0000
0101
0000
0001
0001
0010
0010
,
0100
0100
1000
1000
0001
0010
0100
1000
,
0010
0100
0001
0001
0010
0100
0010
0001
,
0100
0010
1000
0010
0100
0001
0001
1000
,
1000
0000
0000
1000
0000
0000
0001
0000
,
0001
0000
0000
0001
0000
0000
0001
1000
,
0010
0100
0010
1000
0010
0010
0010
1000
,
0000
0000
0000
0010
0010
0010
0010
0010
,
1010
0000
0100
0000
1010
1010
0010
0110
,
0000
1000
1010
0000
1000
1000
0010
0110
,
0000
0010
1010
0000
0010
1000
0010
0100
,
0000
0110
0010
0110
0110
0010
1010
0010
,
0110
0000
0001
0000
0010
1000
0010
0110
,
0000
0001
0101
0000
0010
0010
1000
1010
,
0000
1100
0000
0101
0000
0011
0000
0000
,
0010
0000
0110
0000
0010
0010
0110
0000
,
2020
3030
1010
0000
1010
0000
0000
0000
0010
0000
0010
0000
0100
0000
0001
0000
,
0110
0000
0001
0000
1000
1000
0010
0110
,
0000
0001
0010
0100
0110
0010
1000
0110
,
0000
1000
0110
0000
1000
1010
0010
0110
,
0000
0001
0010
0000
0001
0001
0100
0110
,
0100
0010
1000
0110
1000
0010
0100
0101
,
0100
0010
1000
0110
1000
0010
0110
0001
,
0101
0000
0000
1000
0000
0000
0010
0000
,
1010
0000
0000
0010
0000
0000
0001
0100
,
0010
1000
0010
0000
0100
0100
0001
0101
,
0000
0000
0010
1010
0000
0010
1000
0010
,
1010
0000
1010
0000
1000
1000
0010
0110
,
0000
0001
0101
0000
0010
0010
1000
0110
,
0000
1000
0110
0000
1000
1000
0010
0220
,
0330
0000
0000
0001
0101
0010
0110
0100
,
1010
0000
1010
0000
1000
1000
0010
1010
,
0000
1000
1010
0000
1000
1000
0010
0011
,
0000
0101
0000
1100
0000
1010
0000
1010
,
1010
0000
0110
0000
1000
1010
1010
0000
,
0110
0000
0000
0110
0000
0000
0000
1000
,
0010
0010
1000
1000
1010
0000
0110
0000
,
0101
0000
0000
0110
0000
0000
0000
1000
,
2000
0000
0000
0000
0000
0000
0000
3000
,
0000
0000
0000
0000
0000
0000
0000
0000
0000
0000
0000
0000
0000
0000
0000
0000
0000
0000
0000
0000
0000
0000
0000
0000
0000
0000
1000
0000
0010
0100
0100
0000
,
0001
0000
0001
1000
1000
0100
0100
0000
0100
0000
0100
0000
0010
0010
0010
0000
1001
0000
1001
0000
1001
0000
1001
0000
1001
0000
0000
0000
0000
0000
0000
0000
,
1000
1000
0010
0110
0000
0100
0010
0110
,
0000
1000
0010
0001
,
0001
0001
0010
0010
0100
0000
1000
0000
,
0110
0101
0110
1000
,
0010
0010
0100
0001
0000
1000
0010
0100
,
0001
1000
0010
0100
0001
0010
0100
1000
,
1010
0000
0110
0000
0101
0101
0110
0000
,
1000
0000
0020
0030
0100
0001
0001
0100
,
0000
0010
1010
0000
0010
0010
0100
0001
,
0000
0010
0110
0000
1000
1000
0010
0110
,
0000
0001
0101
0001
0001
0101
0001
0101
,
0101
0000
0110
0000
1000
1000
0010
0110
,
0000
0001
0101
0000
0010
0010
1000
0110
,
0000
1001
0000
0110
0000
1001
0000
1000
,
1010
0000
0110
0000
0001
0001
0101
0000
,
0110
0000
1010
0000
0110
0110
0101
0101
,
0000
0110
0110
0000
1010
1010
0110
0101
,
0000
0110
1010
0000
1010
1010
0110
0101
,
0000
0101
0101
0101
0011
0011
0110
0110
,
1100
0000
1100
0000
0110
0110
0011
0011
,
0000
0110
0110
0000
1100
1100
0110
0110
,
0000
1001
0000
0110
0000
1001
0000
0101
,
0101
0000
0110
0000
1000
0010
0110
0000
;

//---------------dance-single - ----------------
#NOTES:
     dance-single:
     :
     Medium:
     5:
     0.309,0.326,0.250,0.184,0.000:
0000
0000
0000
0220
,
0330
0220
0330
0000
1000
0000
0010
0010
,
1000
1000
0100
0100
1000
0000
0010
0001
,
0100
0001
1000
0000
0010
0000
0010
0010
,
1000
1000
0010
0010
0100
0000
0100
0001
,
0100
1000
0100
0000
0100
0000
2000
0000
,
3000
0010
0010
0000
0000
0100
0010
0010
,
1000
0000
0100
0100
0001
0001
1000
0010
,
0000
0000
1000
0010
0100
0001
1000
0010
,
0010
0000
0001
0000
0001
0001
0010
0020
,
0000
0030
1000
0000
0001
0010
0100
1000
,
0000
0000
0001
0000
0010
0100
0010
0002
,
0003
0020
0030
0010
0100
0001
0001
1000
,
1000
0000
0000
1000
0000
0000
0001
0000
,
0001
0000
0000
0001
0000
0000
0001
1000
,
0020
0030
0010
0000
0010
0010
0010
2000
,
3000
0000
0000
0010
1000
0010
1000
0010
,
1010
0000
0100
0000
0010
0100
0010
0110
,
0000
1000
1010
0000
1000
1000
0010
0110
,
0000
0010
1010
0000
0010
1000
0010
0100
,
0000
0100
0010
0100
0010
1000
1010
0010
,
0110
0000
0001
0000
0010
1000
0010
0110
,
0000
0001
0101
0000
0010
0010
1000
0020
,
0030
2000
3000
0002
0003
0200
0300
0000
,
0010
0000
1010
0000
0010
0010
1010
0000
,
2020
3030
1010
0000
1010
0000
0000
0000
0010
0000
0010
0000
0100
0000
0001
0000
,
0000
0000
0001
0000
1000
1000
0010
0100
,
0000
0001
0010
0100
0010
0000
1000
0010
,
0000
1000
0010
0000
1000
1000
0010
0010
,
0000
0001
0010
0000
0001
0001
0100
0020
,
0000
0000
0030
0000
1000
0010
0100
0002
,
0203
0320
0000
0000
0000
0030
0100
0001
,
0100
0000
0000
1000
0000
0000
0010
0000
,
1010
0000
0000
0010
0000
0000
0001
0100
,
0010
0000
0010
0000
0100
0000
0001
0101
,
0000
0000
0010
1010
0000
0010
1000
0000
,
1010
0000
1010
0000
1000
1000
0010
0010
,
0000
0001
0100
0000
0010
0010
1000
0010
,
0000
1000
0010
0000
1000
1000
0010
0100
,
0000
0000
0000
0001
0100
0010
0010
0100
,
1010
0000
1010
0000
1000
1000
0010
1000
,
0000
1000
0010
0000
1000
1000
0010
0020
,
0030
2000
3000
0002
0003
0200
0300
0000
,
1010
0000
0110
0000
1000
0010
1000
0000
,
1010
0000
0000
1010
0000
0000
0000
1000
,
0010
0010
1000
1000
0010
0000
1010
0000
,
1010
0000
0000
0110
0000
0000
0000
1000
,
2000
0000
0000
0000
0000
0000
0000
3000
,
0000
0000
0000
0000
,
0000
0000
0000
0000
,
1000
1000
0010
0010
0000
0100
0010
0100
,
0000
1000
0010
0001
,
0001
0001
0010
0010
0100
0000
2000
0000
,
3000
0101
0110
1000
,
0010
0010
0100
0001
0000
1000
0010
0200
,
0300
2000
3000
0002
0003
0020
0030
0000
,
1010
0000
0110
0000
0100
0010
0110
0000
,
1000
0000
0020
0030
0100
0001
0001
0100
,
0000
0010
1010
0000
0010
0010
0100
0001
,
0000
0010
0110
0000
1000
1000
0010
0110
,
0000
0001
0101
0000
0001
0100
0001
0100
,
0101
0000
0110
0000
1000
1000
0010
0110
,
0000
0001
0101
0000
0010
0010
1000
0002
,
0003
0200
0300
2000
3000
0020
0030
0000
,
0011
0000
0110
0000
0001
0001
0101
0000
,
0110
0000
1010
0000
0010
0100
0001
0100
,
0000
0010
0100
0000
0010
1000
0010
0100
,
0000
0100
0010
0000
1000
0010
0100
0001
,
0000
0100
0001
0100
0001
0010
0100
0010
,
1100
0000
1100
0000
0010
0100
0010
0001
,
0000
0100
0010
0000
0100
1000
0100
0020
,
0030
2000
3000
0200
0300
0002
0003
0000
,
0011
0000
0110
0000
1000
0010
0110
0000
;

//---------------dance-single - ----------------
#NOTES:
     dance-single:
     :
     Easy:
     3:
     0.159,0.172,0.038,0.009,0.000:
0000
0000
0000
0110
,
0000
0110
0000
0000
1000
0000
0010
0000
,
1000
0100
1000
0010
,
0100
1000
0010
0010
,
1000
0010
0100
0001
,
0100
1000
0100
2000
,
3000
0010
0000
0010
,
1000
0100
0001
1000
,
0000
1000
0100
1000
,
0010
0001
0000
0010
,
0000
1000
0001
0100
,
0000
0001
0010
0010
,
0001
0100
0100
0001
,
1000
0000
0000
1000
0000
0000
0001
0000
,
0001
0000
0000
0001
0000
0000
0001
0000
,
0010
0010
0010
0010
,
0000
0000
1000
1000
,
0010
0100
0010
0010
,
0000
1010
1000
0010
,
0000
1010
0010
0010
,
0000
0010
0010
0010
,
0110
0001
0010
0010
,
0000
0000
0101
0000
0010
0000
0000
0010
,
0000
1000
0000
0001
0000
0100
0000
0000
,
0010
1000
0010
1010
,
1010
0010
0010
0100
,
0000
0001
1000
0010
,
0000
0010
0100
1000
,
0000
0010
1000
0010
,
0000
0010
0001
0100
,
0000
0000
1000
0100
,
0100
0010
0000
0100
,
0001
0000
0000
0001
0000
0000
0010
0000
,
1000
0000
0000
0010
0000
0000
0001
0000
,
0010
0001
0100
0001
,
0000
0010
0000
1000
,
0010
1000
1000
0010
,
0000
0100
0010
1000
,
0000
0010
1000
0010
,
0000
0000
0100
0010
,
1000
0010
1000
0010
,
0000
0000
0010
0000
1000
0000
0000
0010
,
0000
1000
0000
0001
0000
0100
0000
0000
,
1000
0010
1000
0010
,
1000
0000
0000
1000
0000
0000
0000
0000
,
0010
1000
0010
1000
,
0010
0000
0000
0100
0000
0000
0000
0000
,
2000
0000
0000
0000
0000
0000
0000
3000
,
0000
0000
0000
0000
,
0000
0000
0000
0000
,
1000
0010
0000
0010
,
0000
1000
0010
0001
,
0001
0010
0100
1000
,
0000
0001
0100
1000
,
0010
0000
0100
0000
0000
0000
0000
0100
,
0000
1000
0000
0001
0000
0010
0000
0000
,
1000
0010
0100
0010
,
1000
0010
0100
0001
,
0000
1000
0010
0100
,
0000
0010
1000
0010
,
0000
0100
0001
0100
,
0001
0100
1000
0010
,
0000
0000
0100
0000
0010
0000
0000
0001
,
0000
0100
0000
1000
0000
0010
0000
0000
,
0010
0100
0001
0100
,
0010
1000
0010
0001
,
0000
0100
0010
0010
,
0000
0010
1000
0100
,
0000
0001
0001
0100
,
1000
0100
0010
0010
,
0000
0000
0010
0000
0100
0000
0000
0010
,
0000
1000
0000
0100
0000
0001
0000
0000
,
0001
0100
1000
0010
;
