#TITLE:Maxwell's Silver Hammer;
#ARTIST:The Beatles;
#BANNER:Maxwell's Silver Hammer-bn.png;
#BACKGROUND:Maxwell's Silver Hammer-bg.png;
#CDTITLE:.\CDTITLES\HellRazoR.PNG;
#MUSIC:Maxwell's Silver Hammer.mp3;
#OFFSET:-0.515;
#SAMPLESTART:34.1;
#SAMPLELENGTH:14.5;
#DISPLAYBPM:132;
#BPMS:0=130.66,64=131,76=132.28,111=126,112=129.3,120=132,127=126,128=130.7,172=130.9,183=131.8,204=133.5,221=133.8,236=134.3,252=137.1,256=135.8,264=134.8,270=131.2,272=126.1,280=135;
#BGCHANGES:0=Maxwells Silver Hammer1.AVI=1=0=0=1,110=Maxwells Silver Hammer2.AVI=1=0=0=1,999=-=1=0=0=0;

//---------------dance-single - ----------------
#NOTES:
     dance-single:
     :
     Easy:
     2:
     0.239,0.257,0.024,0.096,0.000:
0000
0000
0000
0000
,
0000
0000
0000
0000
,
1000
0010
0100
0000
,
0100
0001
1000
0000
,
0001
0010
0100
0000
,
0100
0010
0100
0000
,
1000
0000
0001
0000
,
1000
0000
0010
0000
,
0100
0001
1000
0100
,
1000
1000
0010
0010
,
1000
0001
0100
0010
,
0100
0000
0001
0000
,
1000
0100
1000
0010
,
0100
0010
1000
0001
,
0200
0300
0001
0000
,
0002
0003
1000
0000
,
1000
0010
0000
1000
,
0000
0001
0000
0001
,
0000
1000
0000
0100
,
0000
0100
0010
0001
,
1000
1000
0000
0001
,
0000
0100
0000
0001
,
1000
0000
0010
0000
,
0100
0000
0010
0000
,
1000
1000
0001
0000
,
0100
0000
0001
0000
,
0010
0000
0100
0000
,
0010
0000
0001
0000
,
2000
3000
0002
0003
,
0020
0030
0200
0300
,
0020
0030
0002
0003
,
0001
1000
0100
0000
,
0100
1000
0001
1000
,
0010
1000
0010
1000
,
0010
0000
0100
0000
,
0001
0001
1000
1000
,
0001
0000
0010
0000
,
0100
0000
0010
0000
,
0001
0000
0001
1000
,
1000
0000
0100
0000
,
1000
0010
1000
0010
,
0100
0001
0100
0001
,
1000
0000
0100
0000
,
0010
0001
0010
0001
,
0010
0000
0100
0000
,
1000
0000
0100
0000
,
0010
0100
1000
0100
,
0010
0100
0010
0001
,
0000
0010
0000
0100
,
0000
1000
0000
0100
,
0000
0010
0000
0001
,
0000
0001
1000
1000
,
0001
0001
0010
0010
,
0100
0000
0100
0000
,
0010
0000
0010
0001
,
1000
0100
1000
0010
,
1000
1000
0010
1000
,
0100
0000
1000
0000
,
0010
0000
0100
0010
,
0100
0000
0100
0000
,
0010
0010
0000
0010
,
0000
1000
0001
0100
,
0010
0010
0000
0100
,
0000
0001
1000
0100
,
0010
0010
0000
0100
,
0000
1000
0001
0100
,
0010
0010
0000
0100
,
0010
0000
1001
0000
,
2000
0000
3200
0000
,
0320
0000
0032
0000
,
1003
0100
1000
0010
,
0100
0110
0110
0000
;

//---------------dance-single - ----------------
#NOTES:
     dance-single:
     :
     Beginner:
     1:
     0.092,0.143,0.000,0.000,0.000:
0000
0000
0000
0000
,
0000
0000
0000
0000
,
0000
0000
0000
0000
,
0000
0000
0000
0000
,
1000
0000
0000
0000
,
0010
0000
0000
0000
,
0100
0000
0000
0000
,
0010
0000
0000
0000
,
1000
0000
0000
0000
,
0001
0000
0000
0000
,
0010
0000
0000
0000
,
0001
0000
0000
0000
,
1000
0000
0000
0000
,
0100
0000
0000
0000
,
0010
0000
0000
0000
,
0010
0000
0000
0000
,
0100
0000
0100
0000
,
0100
0000
0100
0000
,
0010
0000
0010
0000
,
0010
0000
0010
0000
,
0001
0001
0000
0000
,
1000
0000
0000
0000
,
0001
0000
0000
0000
,
1000
0000
0000
0000
,
1000
1000
0000
0000
,
0010
0000
0000
0000
,
0100
0000
0000
0000
,
0010
0000
0000
0000
,
0010
0000
0000
0000
,
0100
0000
0000
0000
,
0010
0000
0000
0000
,
0010
0000
0000
0000
,
0100
0000
0000
0000
,
1000
0000
0000
0000
,
0001
0000
0000
0000
,
0100
0000
0000
0000
,
0010
0000
0000
0000
,
0100
0000
0000
0000
,
0001
0000
0000
0000
,
1000
0000
0000
0000
,
0100
0000
0000
0000
,
0010
0000
0000
0000
,
0010
0000
0000
0000
,
0100
0000
0000
0000
,
1000
0000
0000
0000
,
0001
0000
0000
0000
,
0100
0000
0000
0000
,
0010
0000
0000
0000
,
0100
0000
0001
0000
,
1000
0000
0100
0000
,
1000
0000
0010
0000
,
0100
0000
0001
0000
,
0010
0010
0000
0000
,
0100
0000
0000
0000
,
1000
0000
0000
0000
,
0100
0000
0000
0000
,
1000
1000
0000
0000
,
0001
0000
0000
0000
,
0100
0000
0000
0000
,
0001
0000
0000
0000
,
0100
0100
0000
0000
,
0010
0000
0000
0000
,
0100
0000
0000
0000
,
0010
0000
0000
0000
,
0100
0100
0000
0000
,
0001
0000
0000
0000
,
1000
0000
0000
0000
,
0001
0000
1000
0000
,
0000
0000
0000
0000
,
0000
0000
0000
0000
,
0000
0000
0000
0000
,
0000
0100
0100
0000
;

//---------------dance-single - ----------------
#NOTES:
     dance-single:
     :
     Medium:
     4:
     0.339,0.342,0.159,0.128,0.112:
0000
0000
0000
0000
,
1000
0001
0100
0001
,
1000
0010
0100
0010
,
1000
1000
0001
0001
,
0010
0010
0001
1000
,
0100
1000
0100
0010
,
0100
0000
0000
0000
0000
0000
1000
0000
1000
0000
0000
0001
,
0000
0010
0001
1000
,
0100
0010
0100
0010
,
0001
1000
0001
0100
,
0010
0100
0001
0001
,
1000
0010
0100
0010
,
1000
0001
0001
1000
,
0100
1000
0010
0100
,
0010
0000
0000
0000
0000
0000
0100
0000
0100
0000
0000
0001
,
0000
0001
1000
0000
,
0200
0010
0000
0001
,
0000
0010
0000
0001
,
0320
0001
0000
1000
,
0030
0000
0001
0010
0000
0000
0100
0000
0000
0110
0000
0000
,
0110
0110
0100
1000
,
0001
0000
0000
1000
0000
0100
0000
0000
0100
0010
0000
0000
,
0100
1000
0001
0100
,
0010
0000
0100
0010
0000
0000
0100
0000
0000
0001
0000
0000
,
0010
0010
0100
0010
,
0100
0000
0000
1000
0000
0100
0000
0000
0100
1000
0000
0000
,
0100
0000
0000
1000
0000
0000
0010
0000
0100
0000
0000
0100
,
0000
0100
0001
0000
,
2000
0000
0000
0000
0000
0000
0020
0000
3000
0000
0000
0000
,
0200
0000
0030
0000
0000
0000
0002
0000
0300
0000
0000
0000
,
0200
0000
0003
0010
0000
0000
0010
0000
0000
0010
0000
0000
,
0310
0000
0010
1000
0000
0000
1000
0000
0000
0000
0000
0000
,
1000
0000
0000
0001
0000
0000
0100
0000
0010
0100
0000
0000
,
0100
0000
0000
0001
0000
0000
1000
0000
0001
1000
0000
0000
,
0100
1000
0010
0100
,
0010
0010
1000
1000
,
0010
0100
0001
1000
,
0001
0100
0010
0100
,
0001
0000
0000
0000
0000
0000
1000
0000
0001
0000
0000
0010
,
0000
0010
0001
0001
,
1000
0100
1000
0100
,
0010
0000
0000
0100
0000
0010
0100
0000
0000
1000
0000
0000
,
0010
0100
0010
0100
,
0001
0001
0001
0001
,
0100
0010
0100
0010
,
1000
0010
0100
0010
,
0200
0000
0000
0000
0300
0000
0010
0000
1000
0000
0000
0001
,
0000
0010
0010
0000
,
0002
1000
0000
1000
,
0000
0000
0000
1000
0000
0000
0000
0000
0000
1000
0003
0000
,
2000
0010
0000
0010
,
0000
0000
0000
0010
3000
0000
0010
0000
0000
0100
0000
0000
,
0110
0110
0100
0001
,
1000
0000
0000
0001
0000
0100
0000
0000
0100
0010
0000
0000
,
1000
0001
1000
0100
,
0010
0100
1000
0001
,
1001
1001
1000
0010
,
0100
0000
0000
0100
0000
0001
0000
0000
0001
1000
0000
0000
,
0100
0000
0000
0010
0000
0000
0100
0000
1000
0000
0000
0010
,
0000
0100
0110
0100
,
0101
0101
0000
0110
,
0000
0100
0001
1000
,
1100
1100
0000
0110
,
0000
0100
1000
0001
,
1010
1010
0000
0110
,
0000
0100
0001
1000
,
0001
0000
0000
0100
0000
0000
0010
0000
0100
0010
0000
0000
,
0100
0010
1010
0000
,
0220
0000
0000
0000
0030
0000
0002
0000
0000
0300
0000
0000
,
2000
0000
0000
0003
0000
0000
0200
0000
3000
0000
0000
0000
,
2300
3010
0100
0010
,
0100
0000
0010
0100
0000
0000
0110
0000
0000
0000
0000
0000
;

//---------------dance-single - ----------------
#NOTES:
     dance-single:
     :
     Hard:
     6:
     0.421,0.513,0.247,0.263,0.219:
1000
0000
0000
0001
0000
0000
1000
0000
0010
1000
0000
0000
,
0100
0000
0000
1000
0000
0000
0010
0000
1000
0010
0000
0000
,
0100
0010
0100
0001
,
1000
1000
0001
0001
,
0010
0000
0000
0001
0000
0000
1000
0000
0000
0001
0000
0100
,
0000
0000
0100
0010
0000
0100
0000
0000
0001
0000
0000
0000
,
1000
0000
0000
0000
0000
0000
0100
0000
0010
0000
0000
0100
,
0000
0100
1000
0010
,
0100
0000
0000
0010
0000
0000
0100
0000
0001
0100
0000
0000
,
0001
0000
0100
0010
0000
0010
0100
0000
0100
0001
0000
0000
,
1000
0100
0010
0100
,
1000
1000
0010
0010
,
1000
0000
0000
0010
0000
0000
0100
0000
0000
0010
0000
0100
,
0000
0000
0100
0001
0000
1000
0000
0000
0100
0000
0000
0000
,
0010
0000
0000
0000
0000
0000
0100
0000
1000
0000
0000
0100
,
0000
0100
0100
1000
,
2000
3010
2000
3001
,
0200
0310
0200
0301
,
2000
3100
0020
0031
,
1000
0000
0100
0010
0000
0000
0100
0000
0000
1000
0000
0000
,
0101
0110
0100
0001
,
1000
0000
0000
0100
0000
1000
0000
0000
1000
0100
0000
0000
,
1000
0000
0000
0010
0000
0000
0100
0000
0001
0000
0000
1000
,
0000
0100
0010
0100
,
0110
1100
0001
1000
,
0100
0000
0000
0100
0000
1000
0000
0000
1000
0010
0000
0000
,
0100
0000
0000
0010
0000
0000
1000
0000
0001
0000
0000
0100
,
0000
0000
0010
0100
0000
0000
0010
0000
0000
0000
0000
0000
,
2000
3002
2003
3002
,
2003
0000
0000
3002
0000
0000
2003
0000
0000
3002
0000
0003
,
1001
1000
0010
0100
,
0010
0000
0100
0010
0000
0000
0100
0000
0000
0001
0000
0000
,
1000
0000
0000
1000
0000
0000
0100
0000
1000
0100
0000
0000
,
1000
0000
0000
0100
0000
0000
0010
0000
0010
0100
0000
0000
,
1000
0001
0100
0010
,
0100
0100
0001
0001
,
0100
0000
0000
0001
0000
0000
0010
0000
0000
0100
0000
0010
,
0000
0000
0010
0001
0000
0000
0001
0000
0000
0100
0000
0000
,
0010
0000
0000
0100
0000
0000
0001
0000
1000
0000
0000
0100
,
0000
0100
1000
0100
,
0100
0000
0000
1000
0000
0000
0010
0000
1000
0010
0000
0000
,
0100
0000
0000
0001
0000
0000
0100
0000
0001
0100
0000
0000
,
0100
0010
0100
0001
,
2000
3002
0023
0032
,
2003
0000
0000
3001
0000
0000
0010
0000
0000
0010
0000
0100
,
0000
0000
0100
0010
0000
0000
0100
0000
0000
0001
0000
0000
,
0100
0000
0000
0100
0000
0000
0010
0000
0100
0000
0000
0100
,
0000
1001
1000
0100
,
2000
3010
0020
0130
,
0200
0301
0002
1003
,
2000
3001
0002
1003
,
0010
0000
1000
0010
0000
0000
1000
0000
0000
0001
0000
0000
,
0110
0110
0100
0001
,
1000
0000
0000
0001
0000
0100
0000
0000
0100
0010
0000
0000
,
0100
0000
0000
0001
0000
1000
0100
0000
1000
0000
0000
0100
,
0000
0100
0010
0010
,
0110
1100
1000
0010
,
0100
0000
0000
0010
0000
1000
0000
0000
1000
0001
0000
0000
,
0100
0000
0000
0010
0000
0000
0100
0000
0001
0000
0000
1000
,
0000
0000
0000
1000
0000
0000
0100
0000
0100
1000
0000
0000
,
1100
1100
0010
0010
,
0110
0110
1000
1000
,
1001
1001
0100
0100
,
0110
0000
0000
0110
0000
0100
0010
0000
0000
0010
0000
0000
,
0110
0110
0001
0001
,
1001
1001
0010
0010
,
0110
0000
0000
0110
0000
0000
0010
0000
0010
1000
0000
0000
,
0100
0000
0100
0010
0000
0000
0110
0000
0000
0000
0000
0000
,
0220
0330
2002
3003
,
0220
0330
2002
3003
,
0010
0100
0010
0100
,
0001
0110
0110
0000
;

//---------------dance-single - ----------------
#NOTES:
     dance-single:
     :
     Challenge:
     8:
     0.516,0.713,0.542,0.279,0.399:
1000
0000
0000
0001
0000
0000
1000
0000
0010
1000
0000
0000
,
0100
0000
1000
0001
0000
0001
1000
0000
1000
0010
0000
0000
,
0100
0000
0000
0010
0000
0000
0100
0000
0000
0001
0000
1000
,
0001
1000
0001
0001
,
0010
0000
0000
0001
0000
0000
1000
0000
0000
0001
0000
0100
,
0000
0000
0100
0010
0000
0100
0000
0000
0001
0000
0000
0000
,
2020
0000
0000
0000
0000
3030
0001
0000
0010
0000
0000
0100
,
0000
1100
1000
0010
,
0100
0000
0000
0010
0000
0000
0100
0000
0001
0100
0000
0000
,
0001
0000
0100
0010
0000
0010
0100
0000
0100
0001
0000
0000
,
1000
0000
0000
0100
0000
0000
0010
0000
0000
0100
0000
0010
,
0001
0000
0001
0010
0000
0010
0100
0000
0100
0010
0000
0000
,
0100
0000
0010
0000
0000
0000
0100
0000
0000
0010
0000
0100
,
0000
0000
0100
1000
0000
0001
0000
0000
0100
0000
0000
0000
,
0020
0000
0000
0000
0000
0030
0100
0000
0001
0000
0000
0100
,
0000
0000
0010
0100
0000
0000
0100
0000
0000
0010
0000
0000
,
2200
0000
3300
0001
0000
0000
2020
0000
3030
0001
0000
0000
,
0220
0000
0330
1000
0000
0000
0202
0000
0303
0010
0000
0000
,
2002
0000
3003
0010
0000
0000
2200
0000
3300
0010
0000
0000
,
1000
0000
0100
0010
0000
0000
0010
0000
0000
0010
0000
0000
,
1100
0110
0100
1000
,
0001
0000
0000
0100
0000
0001
0000
0000
0001
0100
0000
0000
,
0001
0000
0000
0010
0000
0001
0100
0000
0010
0000
0000
1000
,
0000
0000
0001
0100
0000
0100
0010
0000
0000
0100
0000
0000
,
0110
0101
0001
1000
,
0100
0000
0000
0100
0000
1000
0000
0000
1000
0010
0000
0000
,
0100
0000
0000
0010
0000
0000
1000
0000
0001
0000
0000
0100
,
0000
0000
0010
0100
0000
0000
0110
0000
0000
0000
0000
0000
,
1000
0001
1000
0001
1000
0001
1000
0010
1000
0010
1000
0010
,
0100
0010
0100
0010
0100
0010
0100
0001
0100
0001
0100
0001
,
0100
1001
0010
0100
,
0010
0000
0100
0010
0000
0000
0110
0000
0000
1001
0000
0000
,
1000
0000
0000
1000
0000
0000
0100
0000
1000
0100
0000
0000
,
1000
0000
0010
0100
0000
0100
0010
0000
0010
0100
0000
0000
,
0001
0000
0000
1000
0000
0000
0100
0000
0000
0010
0000
0001
,
0100
0000
0100
0001
0000
0001
1000
0000
1000
0001
0000
0000
,
0100
0000
0000
0010
0000
0000
0010
0000
0000
0100
0000
0010
,
0000
0000
0010
1000
0000
0000
0001
0000
0000
0100
0000
0000
,
0010
0000
0000
0100
0000
0000
0001
0000
1000
0000
0000
0100
,
0000
0000
1000
0100
0000
0100
1000
0000
0000
0110
0000
0000
,
0100
0000
0000
1000
0000
0000
0010
0000
1000
0010
0000
0000
,
0100
0000
0010
0100
0000
0001
0100
0000
0100
0001
0000
0000
,
0100
0000
0000
0010
0000
0000
0100
0000
0000
0001
0000
1000
,
1001
1001
1100
1100
,
1001
0000
0000
1000
0000
0000
0010
0000
0000
0010
0000
0100
,
0000
0000
0100
0010
0000
0000
0100
0000
0000
0001
0000
0000
,
0101
0000
0000
0100
0000
0000
0010
0000
0100
0000
0000
0100
,
0000
0001
1000
0100
,
2200
0000
3000
1300
0000
0000
2020
0000
0030
3010
0000
0000
,
0220
0000
0300
0130
0000
0000
0202
0000
0003
0301
0000
0000
,
2002
0000
3000
1003
0000
0000
2200
0000
3000
1300
0000
0000
,
1010
0000
1000
0010
0000
0000
1000
0000
0000
0001
0000
0000
,
0110
0110
0100
0001
,
1000
0000
0000
0001
0000
0100
0000
0000
0100
0010
0000
0000
,
0100
0000
0000
0001
0000
1000
0100
0000
1000
0000
0000
0100
,
0000
0000
0010
0100
0000
0100
0010
0000
0000
0010
0000
0000
,
0110
1100
1000
0010
,
0100
0000
0000
0010
0000
1000
0000
0000
1000
0001
0000
0000
,
0100
0000
0000
0010
0000
0000
0100
0000
0001
0000
0000
1000
,
0000
0000
0100
1000
0000
1000
0100
0000
0100
1000
0000
0000
,
1100
1100
1010
1010
,
0110
0110
1010
1010
,
1001
1001
0101
0101
,
0110
0000
0010
0100
0000
0100
0010
0000
0000
0010
0000
0000
,
0110
0110
0101
0101
,
1001
1001
0011
0011
,
0110
0000
0000
0110
0000
0000
0010
0000
0010
0001
0000
0000
,
0100
0000
0100
0010
0000
0000
0110
0000
0000
0000
0000
0000
,
0220
0000
0000
0000
0000
0330
2002
0000
0000
0000
0000
3003
,
0220
0000
0000
0000
0000
0330
0202
0000
0000
0000
0000
0303
,
1100
1100
1010
1010
,
0100
0000
0010
0110
0000
0000
0110
0000
0000
0000
0000
0000
;
