#TITLE:Let's Stay Together;
#ARTIST:Al Green;
#TITLE:Lets Stay Together;
#ARTIST:Al Green;
#BANNER:Let's Stay Togehter-BN.png;
#BACKGROUND:Let's Stay Together-BG.png;
#LYRICSPATH:Lets Stay Together.lrc;
#CDTITLE:.\CDTITLES\HellRazoR.png;
#MUSIC:Lets Stay Together.mp3;
#OFFSET:-0.616;
#SAMPLESTART:165.0;
#SAMPLELENGTH:12;
#DISPLAYBPM:50;
#BPMS:0=48.5,4=49,7.25=46.7,8=50,16=50,24=50.3,32=50.5,40=50.7,48=51,56=51.1,63.500=50.5,67.5=51.6,72=50.65,76=51.1,80=51.4,88=51.2,92=51,103.5=50.7,108=51,116=50.8,128=50.96,132=51.1,140=51.3,144=51,152=51.6;

//---------------dance-single - ----------------
#NOTES:
     dance-single:
     :
     Medium:
     3:
     0.199,0.191,0.091,0,0.005:
0000
0000
0000
0000
,
1000
0001
0100
0100
0001
1000
0100
0000
,
1000
0001
1000
0100
1000
0000
0001
0000
,
0100
0001
1000
0010
0100
0000
0010
0000
,
1000
0001
1000
0001
0100
0000
0001
0000
,
1000
0100
0010
0100
0010
0001
0010
0001
,
1000
1000
0001
0001
,
0100
0001
1000
0100
1000
0001
0010
0001
,
1000
1000
0001
0001
,
1000
0010
1000
0010
0100
0001
0100
0001
,
1000
1000
0100
0100
1000
0010
0100
0010
,
1000
0001
1001
0000
0001
0010
0011
0000
,
0001
1000
0100
0010
0001
0010
0001
1000
,
1100
1001
0110
0101
,
1001
1001
1000
1000
0010
0010
0100
0100
,
0001
0001
0001
0001
1000
1000
1000
1000
,
0001
0100
0001
1000
0001
0010
0001
1000
,
0001
0001
0010
0010
0100
0100
0010
0010
,
0001
0001
0001
0001
1000
1000
1000
1000
,
1001
1001
0110
0110
,
1000
0010
0000
0000
0100
0001
0000
1000
,
1000
0010
0010
1000
1000
0001
0001
1000
,
0100
0000
0100
0000
0010
0000
0010
0001
,
0001
1000
0001
0100
,
0001
0001
1000
0000
0100
0100
1000
0001
,
0010
0010
0001
0001
1000
1000
0100
0100
,
0010
0001
0010
0001
0100
0001
0100
0001
,
1000
0100
1000
0100
1000
0010
1000
0010
,
0100
0010
0100
0010
1000
0001
1000
0001
,
0100
0100
0001
0001
,
1000
1000
0010
0000
0100
0100
0010
0000
,
1000
0001
0001
0000
0010
0001
0001
0000
,
0100
0001
1000
0001
1000
0100
1000
0100
,
0010
0100
0010
0100
0010
0001
1000
0001
,
0010
0010
0010
0010
0010
0000
0110
0000
,
0100
0100
0100
0100
0100
0000
0110
0000
,
0010
0000
1000
0000
0000
0000
0000
1000
0000
0001
0000
0000
0000
0000
0001
0000
,
0100
0100
0001
0001
1000
1000
0010
0010
,
0110
0000
0100
0100
0110
0000
0001
0001
,
1001
0000
1000
1000
1100
0000
1000
1000
,
0010
0000
0000
0000
;

//---------------dance-single - ----------------
#NOTES:
     dance-single:
     :
     Beginner:
     1:
     0.076,0.098,0.045,0,0:
0000
0000
0000
0000
,
1000
0000
0000
0000
,
0001
0000
0001
0000
,
0010
0000
0001
0000
,
1000
0000
1000
0000
,
0100
0100
0100
0000
,
1000
0000
0010
0000
,
0010
0000
1000
0000
,
0001
0000
0010
0000
,
0001
0001
0001
0000
,
1001
0000
0000
0000
,
0010
0100
0000
0010
,
0001
0000
1000
0000
,
0001
0001
0001
0000
,
1000
0000
0100
0000
,
1000
0000
0010
0000
,
1000
1000
1000
0000
,
1000
0000
0010
0000
,
0100
0100
0100
0000
,
0001
0001
0001
0000
,
1000
0010
1000
0000
,
0001
0100
0001
1000
,
0001
0000
0010
0000
,
0001
0000
1001
0000
,
1000
0000
1001
0000
,
0010
0100
0010
0010
,
0100
0000
0100
0000
,
0010
0001
1000
0000
,
0010
0000
1000
0000
,
0010
1000
0001
0000
,
1001
0000
1001
0000
,
1001
0010
0010
0000
,
1001
0000
1001
0000
,
1001
0100
0100
0000
,
1000
0001
1000
0000
,
0010
0001
0010
0000
,
1000
1000
0100
0100
,
1000
0001
1000
0001
,
1000
0000
0000
0000
,
0001
0000
0000
0000
;

//---------------dance-single - Copied from----------------
#NOTES:
     dance-single:
     :
     Easy:
     1:
     0.094,0.130,0.081,0.020,0:
0000
0000
0000
0000
,
1000
0001
1000
0100
,
1001
0000
1001
0000
,
0010
1000
0001
0000
,
1000
0001
0100
0000
,
0001
1000
0001
1000
,
0011
0000
1100
0000
,
1000
0001
0001
1000
,
0100
0000
0100
0000
,
0100
1000
0001
0010
,
0010
0000
0010
0001
,
0001
1000
0100
1000
,
0010
0000
0100
0000
,
0010
0010
1000
1000
,
0001
0000
1000
0000
,
1010
0000
0101
0000
,
0001
1000
0010
1000
,
0100
0000
0100
0000
,
1001
0010
0010
0000
,
1001
0100
0100
0000
,
0110
0000
0101
0000
,
0010
0010
1000
1000
,
0100
0000
0100
1000
,
1000
0000
0001
0000
,
0010
0000
0001
1000
,
0001
0001
0010
0001
,
1000
0000
1000
0000
,
0001
0010
0100
0010
,
0001
0000
1000
0000
,
0100
0100
1000
0010
,
1001
0000
0110
0000
,
0100
0100
0010
0010
,
1000
0000
0001
0000
,
1000
1000
0001
0001
,
0200
0000
0000
0300
,
0020
0000
0000
0030
,
1000
1000
0001
0001
,
1001
1001
0110
0110
,
0002
0000
0000
0003
,
2000
0000
0000
3000
;

//---------------dance-single - Copied from----------------
#NOTES:
     dance-single:
     :
     Hard:
     7:
     0.380,0.342,0.227,0,0.461: // measure 1
0000
0000
0000
0000
,  // measure 2
1001
0000
0001
0000
1000
1000
0010
0000
0100
0000
0101
0000
0001
1000
0000
0000
,  // measure 3
1000
1000
0010
0000
0100
0010
0100
0000
0001
1000
0001
0000
0001
0000
1000
0000
,  // measure 4
0001
0100
0001
0000
1000
0100
1000
0000
0010
0100
0010
0000
1000
0001
1000
0000
,  // measure 5
0001
0100
0010
0000
0100
0010
1000
0000
0010
1000
0010
0000
0100
0010
1000
0010
,  // measure 6
0100
0010
0100
0010
0100
0001
0100
0001
0010
0001
0010
0001
0010
0100
0010
0100
,  // measure 7
0010
0010
0010
0000
0001
0001
0001
0000
1000
1000
1000
0000
0010
0010
0010
0000
,  // measure 8
1000
0100
1000
0010
0100
0010
0100
0010
1000
0100
0010
0100
1000
0010
0100
0010
,  // measure 9
1000
1000
1000
0000
0010
0010
0010
0000
0100
0100
0100
0000
0001
0001
0001
0000
,  // measure 10
0001
0001
1000
1000
0001
0001
0100
0100
0001
1000
0100
0010
0100
1000
0010
0100
,  // measure 11
0010
0010
1000
1000
0001
0001
1000
0010
0100
0000
0010
0000
1000
1000
0001
0001
,  // measure 12
0100
0100
0010
0010
1000
0001
0010
0100
0010
0000
1001
0000
0001
0001
1000
1000
,  // measure 13
0100
0010
0100
1000
0010
0100
0010
1000
1000
0000
0011
0000
0010
0010
0000
0100
,  // measure 14
0100
0000
1000
1000
0000
0001
0001
0000
0100
0100
0000
0010
0010
0000
0100
0100
,  // measure 15
0001
0001
1000
0000
0110
0000
0100
0000
0001
0001
1000
0000
0100
0000
0110
0000
,  // measure 16
0100
0100
1000
0000
0001
0001
0100
0000
0010
0010
1000
0000
1000
1000
0100
0100
,  // measure 17
0010
0010
0100
0000
1000
1000
0001
0000
0100
0100
0010
0000
0100
0100
0001
0000
,  // measure 18
1000
1000
0100
0100
1000
0010
0100
0010
1000
0001
0010
0100
0010
0001
0001
0001
,  // measure 19
0010
0010
0010
0000
0001
0001
0001
0000
1000
1000
1000
0000
0100
0000
1000
0010
,  // measure 20
0100
0000
0010
0000
0100
0100
0010
0000
0010
0010
0100
0000
0100
0100
0010
0010
,  // measure 21
1000
1000
0001
0000
0100
0100
0001
0000
0010
0010
0100
0000
0100
0100
0010
0010
,  // measure 22
0001
0001
1000
1000
0100
0010
0001
0100
0010
0100
0001
0010
0100
0010
0100
0010
,  // measure 23
0010
0001
0001
0000
0001
0001
1000
0000
0010
0000
0100
0000
0010
0000
1000
0000
,  // measure 24
0001
0001
0010
0000
0100
0100
0010
0000
0001
0001
1000
0000
0100
0000
0010
0000
,  // measure 25
0001
0001
1000
0000
0100
0100
0010
0000
0100
0100
1000
0000
0001
1000
0100
1000
,  // measure 26
0010
0100
0010
1000
0001
0001
1000
1000
0100
0010
0100
1000
0010
0010
0100
0100
,  // measure 27
0001
0001
1000
0000
0001
0001
0010
0000
0001
0001
1001
0000
0100
0000
1000
0000
,  // measure 28
0010
0010
0100
0000
0100
0100
0001
0000
0001
0001
1001
0000
1000
0000
0100
0000
,  // measure 29
0010
0010
0100
0000
0100
0100
1000
0000
1000
1000
0001
0000
1000
0000
1001
0000
,  // measure 30
0010
0010
0110
0000
0100
0100
0101
0000
0001
0001
1001
0000
1000
1000
1010
0000
,  // measure 31
0010
0010
0100
0100
0001
0001
1000
0000
0100
0100
0010
0010
0100
0100
1000
0000
,  // measure 32
0001
0001
0010
0000
0010
0010
0100
0000
0001
1000
0100
1000
0010
0010
0100
0100
,  // measure 33
0010
0010
1001
0000
0010
0010
0001
0000
0001
0001
1000
0000
0100
0100
1000
0000
,  // measure 34
0010
0010
0100
0100
0010
1000
0001
0010
0010
0100
0010
0001
0001
1000
1000
0100
,  // measure 35
1100
0000
1100
0000
0010
0010
0110
0000
0100
0100
0101
0000
0101
0000
0011
0000
,  // measure 36
0010
0010
0110
0000
0100
0100
1100
0000
1000
1000
1010
0000
0010
0010
0110
0000
,  // measure 37
0110
0000
0110
0000
0000
0000
0000
0101
0000
0101
0000
0000
0000
0000
0010
0010
,  // measure 38
0011
0000
0011
0011
0000
1000
0100
1000
0000
0010
1000
0010
0000
0110
0110
0000
,  // measure 39
0100
0000
0100
0000
0110
0110
0110
0000
0001
0000
0001
0000
0011
0011
0011
0000
,  // measure 40
0100
0000
0100
0000
1100
1100
1100
0000
1010
0000
1010
0000
0100
0100
0110
0000
;
