#TITLE:La Cumparsita;
#SUBTITLE:(Tango Remix);
#ARTIST:Aaron Zigman;
#BANNER:La Cumparsita-bn.png;
#BACKGROUND:La Cumparsita-bg.PNG;
#CDTITLE:.\CDTITLES\hellrazor.png;
#MUSIC:La Cumparsita (Tango Remix).mp3;
#OFFSET:-0.009;
#SAMPLESTART:65;
#SAMPLELENGTH:16.2;
#DISPLAYBPM:100:130;
#BPMS:0=114.5,11=116,22=130.3,55=128,71=129.2,80=110.5,84=106.9,88=102.5,96=111.6,99=120.11;
#BGCHANGES:0=La Cumparsita.avi=1=1=1=0,999=-=1=0=0=0;

//---------------dance-single - ----------------
#NOTES:
     dance-single:
     :
     Easy:
     3:
     0.236,0.274,0.091,0.091,0:
0000
0000
0000
0000
,
0000
0000
0000
0000
,
0000
0000
0000
0001
,
0001
1000
0100
0000
,
0100
1000
0010
0010
,
0000
0100
0001
0000
,
0001
1000
0100
1000
,
0001
0000
0010
0001
,
0010
0001
1000
0100
,
1000
0010
1000
0010
,
0100
0001
0100
0002
,
0003
2000
3000
0020
,
0000
0030
0200
0000
0000
0300
0001
0000
,
0000
0001
1000
0010
,
0010
0000
0100
0001
,
0001
0000
1000
0010
,
0100
0000
0001
0100
,
0010
0000
0010
0010
,
1000
0001
0001
1000
,
0001
0100
0000
0000
,
0020
0000
0000
0030
,
2000
3002
2003
3020
,
0230
0000
0000
0300
,
2002
0000
0000
0000
,
3003
0000
0000
1000
,
0000
0010
0010
1000
,
0000
0001
0001
0010
,
0000
0010
0100
0100
,
0000
0010
0001
1000
,
1000
0001
0010
0001
,
0000
1000
1000
0010
,
0010
1000
0001
0100
,
0000
0100
0001
0010
,
0010
0100
0100
0010
,
0000
0001
1000
0001
,
0001
0010
0100
0010
,
0000
0010
0001
0001
,
1000
0001
0100
0100
,
0000
0010
0000
0000
0010
0000
1000
0000
,
0100
0100
1000
0100
,
0000
0100
0000
0000
1000
0000
1000
0000
,
0001
0100
0001
1000
,
0000
1000
0000
0000
1000
0000
0001
0000
,
0100
0001
1000
0010
,
0010
1000
0001
1001
,
0000
0010
0100
1001
,
0000
0001
1000
1001
,
0000
0010
0001
1001
,
0000
1000
0100
1001
,
0000
0010
0010
1001
,
0000
1000
0010
1001
,
0000
0010
0010
1001
,
0000
0001
1000
1001
,
0001
1001
0000
0010
,
1001
0010
0000
0100
,
0000
0010
0010
1000
,
0000
0001
0010
0001
,
0000
1000
0100
1000
,
0000
0001
0100
0001
,
0000
0001
0010
0001
,
0000
1000
0010
1000
,
0000
1000
0010
0010
,
0000
0100
0010
0010
,
0000
1000
0100
0100
,
0000
0010
0100
0100
,
0000
0010
0001
0001
,
0000
0001
1000
1000
,
0000
1000
0010
0010
,
0000
0100
0001
1001
,
0000
0010
0100
0010
,
0001
0010
0100
0010
,
1000
0010
0100
0010
,
0001
0010
0100
0010
,
0001
0010
1000
0010
,
0001
0010
0100
0220
,
0000
0000
0000
0000
,
0000
0000
0000
0330
;

//---------------dance-single - ----------------
#NOTES:
     dance-single:
     :
     Medium:
     6:
     0.389,0.424,0.149,0.071,0.010:
0000
0000
0000
0000
,
0000
0000
0000
0000
,
0000
0000
0000
0001
,
1000
0001
0100
0010
,
1000
0010
0100
0001
,
1000
0000
1000
0000
0001
0000
0000
0010
,
0001
0010
0000
0001
0000
1000
0001
0000
,
0010
0000
0000
0000
0001
1000
0000
0001
,
0001
0000
0100
0000
0001
1000
0010
0000
,
1000
0001
0000
1000
0001
0000
0100
0001
,
0010
0001
0100
0001
1000
0001
0010
0000
,
0001
1000
0000
0001
0100
0000
0001
0010
,
0001
1000
0000
0000
1000
0000
0010
0000
,
0000
1000
0100
1000
0000
0010
1000
0010
,
1000
0000
0010
0000
0010
1000
0001
1000
,
0010
0000
1000
0000
0100
0000
1000
0010
,
0000
1000
0001
0000
1000
0010
1000
0000
,
0100
0001
0100
1000
,
0000
0001
0010
0000
0100
0000
0010
0001
,
0010
0000
0000
0000
0001
0000
0100
0000
0000
0000
0000
0000
0000
0000
0000
0010
,
2000
0000
0000
0000
0000
3000
0000
0000
,
0002
0000
2003
0000
3020
0000
0230
0300
,
0220
0000
0000
0330
,
2002
0000
0000
0000
0000
0000
0000
3003
,
0000
0010
1000
0000
0001
0000
1000
1000
,
0000
0010
0000
0000
0010
0000
1000
1000
,
0001
0000
0100
0000
0001
0001
0010
0000
,
0001
1000
0000
1000
0010
1000
0001
0000
,
0100
0000
0100
0100
0010
0100
0001
0000
,
1000
0000
0001
0000
0010
0001
1000
0000
,
0001
1000
0010
0000
1000
0001
0100
0000
,
0100
0000
0001
0000
0010
0001
1000
1000
,
0000
0010
1000
1000
1000
1000
1000
0000
,
0001
0000
0010
0000
0001
1000
0001
0000
,
0100
0000
0001
0010
0001
0001
1000
0000
,
0100
1000
0010
1000
,
0010
0000
1000
0100
1000
1000
0001
0000
,
1000
0010
0100
0010
,
1000
0001
0001
1000
0010
1000
0001
0000
,
0001
0100
0010
0110
,
0001
0000
1000
1000
0010
1000
0001
0000
,
0010
0001
1000
1010
,
0001
1000
0100
1000
0100
1000
0001
0000
,
0010
0001
0100
1100
,
0010
0000
0100
0010
1000
1000
0010
1010
,
0000
0010
1000
0000
0001
0100
0001
0000
,
0010
0000
0001
0000
1000
0000
0010
1000
,
1000
0010
1000
1000
0010
1000
0001
0100
,
0001
0000
1000
0000
1000
0000
0001
0001
,
1000
1000
0010
1000
0010
0100
0001
0100
,
0001
1000
0100
1000
0100
0010
0001
0010
,
0001
1000
0001
1000
0001
0010
0100
0010
,
0100
1000
0100
1000
0001
1000
0010
0000
,
0010
0100
0001
1000
,
0010
1000
0001
0011
,
1000
0100
1100
0010
,
0001
0100
0011
1100
,
1000
1010
0101
0001
,
0011
1100
1000
1010
,
0101
0001
1000
1100
,
0011
0001
0100
1010
,
0101
0000
0001
0000
0010
0000
0001
0100
,
0010
1000
0001
0100
0010
0100
0001
0000
,
0100
0001
0000
0010
0001
0001
1000
0010
,
1000
1000
0010
0010
0100
0001
0010
0000
,
0001
1000
0000
0010
0100
0010
0100
0001
,
0001
1000
0010
1000
0001
0100
0100
0000
,
0001
1000
0000
0010
0100
0100
0001
0000
,
0001
0000
0001
0010
0001
0000
1000
0000
,
1000
0100
0000
0100
1000
0010
0010
0000
,
0100
0100
0100
0100
0100
0001
0001
0000
,
0010
0000
0010
0010
0010
0000
0100
0000
,
1000
1000
1000
0001
0001
1000
0010
0000
,
1000
1000
0000
0001
0001
0001
1000
0000
,
1000
0000
0000
0000
0010
0000
0000
0010
0000
0000
0220
0000
0000
0000
0330
0000
,
0100
0001
0001
1000
,
0001
0000
0000
0000
1000
0000
0000
0000
1001
0000
0000
1001
0000
0000
0000
0000
;

//---------------dance-single - ----------------
#NOTES:
     dance-single:
     :
     Hard:
     8:
     0.497,0.573,0.175,0.104,0.471:
0000
0000
0000
0000
,
0000
0000
0000
1000
,
0001
0010
0010
0001
,
1000
0010
1000
0001
,
0001
0001
1000
0000
0010
0000
0100
0000
,
0100
0000
0010
0000
0100
0000
0000
0001
,
1000
0000
0001
0000
0000
0000
0010
0000
0000
0000
0001
0000
0000
0000
0001
1000
,
0001
0000
0000
0000
0001
0000
0000
0000
1000
0100
1000
0100
1000
0000
0000
0000
,
0001
1000
0001
0000
0001
1000
0010
1000
,
1000
0010
1000
1000
0001
0000
0001
1000
,
0010
1000
0001
0001
0010
0010
0001
0000
,
0001
1000
0001
1000
0001
0000
1000
0010
,
1000
0001
0010
0000
0010
0000
0001
0010
,
0001
1000
0010
0000
0100
0000
0001
0001
,
1000
0000
0010
1000
0001
1000
0100
0000
,
0100
1000
0010
0000
1000
0000
0010
1000
,
0000
0010
1000
0000
0001
0000
0001
0000
0000
0001
0010
0000
0001
0000
1000
0000
,
0001
1000
0001
0000
0001
0010
0010
0000
,
0001
0000
0000
1000
0001
1000
0000
0000
1000
0000
0000
0010
1000
0010
0000
0000
,
0100
0000
0000
0000
0000
0000
0000
0000
0000
0000
0000
0000
0100
0000
0000
0000
0001
0000
0000
0000
0100
0000
0000
0000
0001
0000
0000
0000
0100
0000
0000
0000
0000
0000
0000
0000
0000
0000
0000
0000
0000
0000
0000
0000
0000
0200
0000
0000
,
0020
0000
0000
0000
0000
0000
0000
0330
,
0022
0000
0000
0033
2002
0000
0000
3003
2200
0000
0000
3300
0220
0000
0000
0330
,
2002
0000
0000
0000
0000
0000
0000
3003
,
2020
0000
0000
0000
0000
0000
0000
3030
,
0001
0000
0000
0000
0000
0000
1000
0000
0000
0000
0000
0000
0001
0000
0000
0000
0000
0000
1000
0000
0000
0000
0000
0000
0010
0000
0000
0000
1000
0000
0000
0000
0010
0000
0000
0000
1010
0000
0000
0000
0000
0000
0000
0000
0000
0001
0000
0000
,
0000
0010
0000
0010
0000
0001
0000
0001
0010
0000
0010
0000
1001
0000
0000
0100
,
0000
1000
0000
1000
0000
0100
0000
1000
0100
0000
1000
0000
1010
0000
0000
0010
,
0000
0010
0000
1000
0000
0010
0000
0010
1000
0000
0010
0000
0110
0000
0000
0010
,
0000
0010
0000
1000
0000
1000
0000
0010
1000
0000
0010
0000
1010
0000
0000
0000
,
0001
0000
0100
0000
0001
0100
1000
0000
,
0010
1000
0100
1000
0010
1000
0100
0000
,
0001
0000
0000
0000
0110
0000
0000
0000
0001
0000
0000
0000
1000
0010
0000
1000
,
0001
0000
1000
0000
0001
1000
0000
0001
1000
0000
0100
0000
1100
0000
0000
0000
,
0100
0000
1000
0000
0010
1000
0010
0000
,
1000
0010
0100
0010
0010
0010
0010
0000
,
0100
0000
0010
0000
1000
0010
0100
0000
,
0100
0000
0001
0001
1000
0010
0010
0000
,
0100
0000
0000
0000
0010
0000
0000
0000
0010
0000
1000
0000
0010
0000
0000
0010
,
0000
0100
0000
0010
0000
0010
0000
0010
0100
0000
0010
0000
0010
0000
0000
0000
,
1000
0000
0001
0000
0001
0100
0010
0000
,
0100
0000
0000
0010
0000
0010
0000
0010
1000
0000
1000
0000
0001
0000
0000
0000
,
0001
0011
0001
1000
,
0000
1000
0000
1000
0000
0010
0000
0010
0000
0000
1010
0000
1010
0000
0000
0000
,
0100
0000
0000
0000
0001
0000
0000
0000
0010
0000
0000
0000
0001
0000
0010
0001
,
0000
0010
0100
0000
0010
0000
0010
0000
0010
0000
0010
0000
0100
1000
0100
0000
,
0010
0000
0000
0010
0001
0000
0010
0000
1001
0000
0000
0000
0010
0100
0010
0000
,
0010
0000
1000
0000
0010
0000
0100
0000
0110
0000
0000
0000
0010
0000
0010
1000
,
0010
0000
0100
0010
0100
0000
0001
1000
0001
0000
1000
0000
0001
1000
0001
0000
,
0010
0000
0000
0001
0010
0000
0001
0000
1001
0000
0000
0000
0010
0000
1000
0010
,
1000
0000
0010
0100
0010
0000
0100
0001
0100
0000
0001
0000
0001
0000
0001
0010
,
0001
0000
0010
0100
0010
0000
0100
1000
0100
0000
1000
0000
1000
0000
0010
1000
,
0010
0000
0100
0010
0100
0000
0001
0100
0001
0000
0010
0000
0010
0000
0010
0100
,
0010
0000
0100
0000
1000
0000
1000
0000
1000
0001
1000
0000
0000
0010
0000
0010
,
0100
0000
0100
0000
0001
0000
0001
0000
0001
1000
0010
0000
0000
0010
0000
0010
,
0100
0000
0100
0000
0001
0000
0001
0000
0001
0100
0010
0000
0000
0010
0000
0010
,
1000
0000
1000
0000
0001
0000
0001
0000
0001
1000
0010
0000
0000
0010
0000
0100
,
0010
0000
0100
0000
0010
0000
1000
0000
1000
0001
0010
0000
0010
0000
0000
0000
,
0100
0000
0000
0000
0010
0000
0010
0000
0001
0000
0000
1000
0001
0000
0000
0000
,
0010
0000
0000
0000
0100
0000
0100
0000
1000
0000
0000
0001
1000
0000
0000
0000
,
0100
0000
0000
0000
1000
0000
1000
0000
0001
0000
0000
1000
0010
0000
0000
0000
,
1000
0000
0000
0000
0001
0000
0001
0000
1000
0000
0000
0010
0100
0000
0000
0000
,
0100
0000
0010
0000
0000
0000
1000
0000
0001
0000
1000
0001
0000
1000
0000
0010
,
0000
0010
0000
0100
0000
0100
0000
0100
0000
0000
0001
0000
0001
0000
0000
0001
,
0000
0000
1000
0000
0000
1000
0000
0000
0001
0000
0001
0100
0000
0010
0000
0010
,
0000
0100
0000
0100
0000
0100
0000
0100
0000
0000
0010
0000
1000
0000
0000
1000
,
0000
0000
0001
0000
0000
1000
0000
0000
0010
0000
1000
0100
0000
1000
0000
0001
,
0000
0001
0000
0001
0000
0001
0000
0001
0000
0000
0001
0000
0100
0000
0000
0100
,
0000
0000
0000
0000
0000
0000
0001
0000
0000
0000
0000
0000
0000
0000
0000
0001
0000
0000
0000
0000
0000
0000
0000
0000
1000
0000
0000
0000
0000
0000
1000
0000
0000
0000
0000
0000
1000
0000
0000
0000
0010
0000
0000
0000
1000
0000
0000
0000
,
0001
0000
0000
0000
0100
0000
0000
0000
0001
0000
0000
0000
1000
0000
0000
0000
0000
0000
0100
0000
0000
0000
0000
0000
0100
0000
0000
0000
0000
0000
0000
0000
0000
0000
0000
0000
1000
0000
0000
0000
0000
0000
0000
0000
0000
1000
0000
0000
,
0000
0000
1000
0000
0000
0001
0000
0000
0001
0000
0001
1000
0000
1000
0000
0001
,
0000
0001
0000
0010
0000
0010
0000
0010
0000
0000
0000
0000
1001
0000
0000
1001
,
0000
0000
1001
0000
0000
1000
0000
0000
1000
0000
1000
0010
0000
0010
0000
0010
,
0000
0010
0000
0100
0000
0100
0000
0100
0000
0000
0100
0000
0001
0000
0000
0001
,
0000
0000
1000
0000
0000
1000
0000
0000
0001
0000
0001
0010
0000
0010
0000
0001
,
0000
0001
0000
0000
1001
0000
0000
0110
0000
0000
4000
0004
0000
0000
0000
0000
,
0000
0000
0000
0000
,
0000
0000
0000
0000
0000
0000
3003
0000
0110
0000
0000
0110
0000
0000
0000
0000
;
