#TITLE:I Love Christmas;
#ARTIST:Lazy Town;
#BANNER:I Love Christmas-BN.png;
#BACKGROUND:I Love Christmas-BG.png;
#CDTITLE:.\CDTITLES\HellRazoR.png;
#MUSIC:23 - I Love Christmas.mp3;
#OFFSET:-0.165;
#SAMPLESTART:40.0;
#SAMPLELENGTH:12.0;
#BPMS:0=84;
#BGCHANGES:3.99=I Love Christmas.avi=1=0=0=1,999=-=1=0=0=0;

//---------------dance-single - ----------------
#NOTES:
     dance-single:
     :
     Beginner:
     1:
     0.124,0.135,0.192,0,0:
0000
0000
0000
0000
,
0001
0000
1000
0000
,
0010
0000
0100
0000
,
0010
0000
1000
0000
,
1001
0000
0001
0000
,
1000
0000
0100
0000
,
0010
0000
0001
0000
,
1000
0000
0001
0000
,
1001
0000
0110
0000
,
0010
0000
0010
0000
,
1001
0000
0010
0000
,
1001
0000
0100
0000
,
1001
0000
0010
0000
,
1001
0000
0100
0000
,
1001
0000
0010
0000
,
1001
0000
0100
0000
,
1001
0000
0010
0000
,
0001
1000
0001
0000
;

//---------------dance-single - ----------------
#NOTES:
     dance-single:
     :
     Easy:
     2:
     0.206,0.187,0.135,0,0: // measure 1
0000
0000
0000
0000
,  // measure 2
1000
0001
1000
0010
,  // measure 3
0001
1000
0100
1000
,  // measure 4
0010
0100
0010
1000
,  // measure 5
0001
0001
1001
0000
,  // measure 6
1000
0001
0010
0001
,  // measure 7
1000
0100
1000
0100
,  // measure 8
0010
0100
1000
0001
,  // measure 9
1001
0010
0110
0000
,  // measure 10
0001
1000
0001
1000
,  // measure 11
0001
0001
0001
0000
0010
0000
0100
0000
,  // measure 12
1000
1000
0001
1000
,  // measure 13
0100
0100
0100
0000
0010
0000
0001
0000
,  // measure 14
1001
0000
0110
0000
,  // measure 15
1000
1000
1000
0000
0001
0000
0010
0000
,  // measure 16
0001
1000
0100
1001
,  // measure 17
1000
1000
1000
0000
0010
0000
0100
0000
,  // measure 18
0110
0000
0001
0000
1000
0001
0000
0000
;

//---------------dance-single - ----------------
#NOTES:
     dance-single:
     :
     Medium:
     4:
     0.286,0.254,0.077,0,0:
0000
0000
0000
0000
,
1000
0001
1000
0001
1000
0010
0010
0000
,
1000
0001
1000
0001
0100
0010
0010
0000
,
0100
0001
1000
0100
1000
0100
0100
0000
,
1000
0001
0010
0000
,
0001
1000
0001
0100
0010
0100
0100
0000
,
0001
1000
0100
0010
0100
1000
1000
0000
,
0010
0100
0010
1000
0010
0100
0010
0000
,
1000
0000
0001
0000
1001
1001
0000
0000
,
1000
0010
0100
0010
,
1000
1000
1000
0000
0001
0010
0001
0000
,
1000
1000
0001
1000
0001
1000
0001
0000
,
0001
0001
0001
0000
0010
0010
0001
0000
,
1000
0001
0010
0001
0011
0000
0000
0000
,
1000
1000
0100
0000
1000
0010
0100
0000
,
0010
0010
0100
0100
0001
1000
0001
0000
,
0100
0100
0010
0000
0100
0100
0001
0000
,
1001
0000
1000
0000
0010
0100
0000
0000
;

//---------------dance-single - ----------------
#NOTES:
     dance-single:
     :
     Hard:
     7:
     0.432,0.356,0.597,0,0.289:
1001
0110
1001
0110
,
1000
0000
0000
0001
0000
0000
1000
0000
0000
0010
0000
0000
0100
0000
0001
0010
0000
0001
0010
0000
0000
0000
0000
0000
,
0001
0000
0000
0010
0000
0000
0001
0000
0000
1000
0000
0000
0001
0000
0100
0001
0000
0100
0001
0000
0000
0000
0000
0000
,
0100
0000
0000
0010
0000
0000
1000
0000
0000
0001
0000
0000
1000
0000
0100
1000
0000
0100
1000
0000
0000
0000
0000
0000
,
0010
0100
0010
1000
1001
0000
0101
0000
,
0010
0000
0000
0100
0000
0000
0010
0000
0000
1000
0000
0000
0100
0000
1000
0100
0000
1000
0100
0000
0000
0000
0000
0000
,
0010
0000
0000
0100
0000
0000
0010
0000
0000
0001
0000
0000
0100
0000
0010
0100
0000
0010
0100
0000
0000
0000
0000
0000
,
0001
1000
0100
0010
0100
1000
1001
0000
,
0110
0000
0101
0000
1001
1100
0000
0000
,
1100
0000
0000
0000
0000
1000
0001
0000
0000
0000
0000
0001
1000
0000
0000
0000
0000
0010
1000
0000
0000
1000
0000
0000
,
0011
0000
0000
1100
0000
0000
0110
0000
0000
0000
0000
0100
0010
0000
0100
0000
0000
1001
0000
0000
0000
0000
0000
0000
,
0010
0000
1000
0010
0000
0000
0100
0000
0000
0001
0000
0000
0010
0000
0100
0000
0000
0010
0000
0000
0000
0000
0000
0000
,
0011
0000
0000
1001
0000
0000
1100
0000
0000
0000
0000
1000
0010
0000
0100
0000
0000
0010
0000
0000
0000
0000
0000
0010
,
1000
0001
0100
0001
0110
0000
0001
0000
,
1010
0000
0000
1001
0000
0000
0101
0000
0000
0000
0000
0001
0010
0000
0010
0000
0000
0100
0000
0000
0000
0000
0000
0000
,
0100
0000
0000
0100
0000
0000
0010
0000
0000
0000
0000
0000
0010
0000
0001
0000
0000
1001
0000
0000
0000
0000
0000
0000
,
0110
0000
0000
1001
0000
0000
1010
0000
0000
0000
0000
0000
0100
0000
0100
0000
0000
0010
0000
0000
0000
0000
0000
0000
,
1001
0000
0110
0000
0101
0110
0000
0000
;
