#TITLE:Headless Cross;
#ARTIST:Black Sabbath;
#BANNER:Headless Cross-bn.png;
#BACKGROUND:Headless Cross-bg.png;
#CDTITLE:.\Cdtitles\hellrazor.png;
#MUSIC:Headless Cross.mp3;
#OFFSET:-0.426;
#SAMPLESTART:84.5;
#SAMPLELENGTH:8.0;
#BPMS:0=88.346;
#BGCHANGES:-0.55=Headless Cross.AVI=0.966=1=1=0,999=-=1=0=0=0;

//---------------dance-single - ----------------
#NOTES:
     dance-single:
     :
     Hard:
     7:
     0.506,0.484,0.400,0.220,0.260:
0000
0000
0000
0000
0001
1000
0000
0000
,
0100
0010
0100
1000
0000
0000
1001
0000
,
0110
0000
0010
0000
0100
0001
1000
0000
,
0100
0000
0010
0000
0100
0000
1000
0000
0001
0000
0100
0010
0100
0000
0001
0000
,
1000
0000
0110
0000
1000
0010
1000
0000
,
0001
0000
0001
0100
0010
0000
0010
0100
,
0001
0000
1000
0100
0010
0000
0100
0000
1000
0000
0010
0000
0100
0000
0010
0000
,
1000
0000
0100
0000
0010
0000
0010
0001
0000
0000
0001
0000
0001
0000
1000
0000
,
0100
0000
0010
0000
0100
0000
1000
0001
0100
0000
0010
0000
0100
0000
0001
1000
,
0100
0010
0100
1000
0001
0100
0010
0100
,
0010
0000
1000
0100
0010
0000
0100
0000
1000
0000
0010
0000
0100
0000
0010
0000
,
1000
0000
0001
0000
0100
0000
0010
0100
0000
0000
0001
0000
0010
0000
0100
0000
,
0010
0001
0100
0001
1000
0001
0100
0010
,
0100
0000
0001
0010
0100
0000
0010
0001
0100
0000
0010
0100
0001
0010
0100
0010
,
0100
0000
0010
0100
1000
0000
0010
0000
0100
0000
0010
0000
1000
0000
0100
0000
,
1000
0000
0010
0000
0100
0000
0010
0100
0000
0000
0001
0000
1000
0000
0001
0100
,
0010
0000
0000
0110
0000
0000
0010
0100
0010
0000
0000
1001
0000
0000
1000
0001
,
1000
0000
0100
0000
0010
0000
0100
0000
1000
0010
0100
0010
1000
0100
0010
0100
,
0010
0000
0001
1000
0001
0000
0001
0000
0100
0000
0010
0100
0010
0000
0100
0000
,
0001
0000
1000
0000
0001
0000
0001
0100
0000
0100
0010
0000
0100
0000
0010
0000
,
1000
0000
0000
0110
0000
0000
0100
0010
0100
0000
0000
0101
0000
0000
1000
0001
,
0100
0000
0010
0000
0100
0000
0001
0000
1000
0100
0010
0100
1000
0100
1000
0010
,
0100
0010
0000
0000
1000
0000
0100
0010
0000
0000
0100
1000
0010
0000
0100
0010
,
0000
0000
0010
1000
0001
0000
0100
0000
0010
0000
0100
0000
0001
0000
1000
0000
,
1001
0102
0100
0103
0000
1020
1000
1000
,
1030
0102
0100
0103
0000
1001
0001
0001
,
0010
0000
0100
0010
0001
0000
0100
0000
0010
0000
0100
0010
0000
0000
0010
1000
,
0100
0000
0010
0000
0100
0000
1001
0000
0101
0000
0000
1001
0000
0000
0110
0000
,
0010
0010
0100
0100
0001
0001
1000
1000
,
0001
0000
1000
0010
0100
0010
1000
0010
2020
0000
0000
3030
0022
0000
0000
0033
,
2002
0000
0000
3003
2200
0000
0000
3300
1002
0000
1000
0000
2000
0000
0000
3003
,
2001
0000
0001
0000
0001
0000
0020
0000
0000
3030
0010
0000
0100
0000
0100
0000
,
0120
0000
0000
0000
0100
0000
0000
0030
0201
0000
0001
0000
0001
0000
0000
0300
,
1002
0000
1000
0000
1000
0000
1000
0000
0003
1000
1000
0000
0010
0000
0010
0000
,
0100
0000
0100
0010
0100
0000
0010
0000
1000
0000
0100
0000
0010
0000
0100
0000
,
1000
0000
0001
0000
0001
0000
0100
0010
0000
0010
0100
0000
0001
0000
1000
0100
,
0010
0000
0100
0000
1000
0000
1001
0000
0101
0000
0000
0110
0000
0000
1001
0000
,
1000
0000
0100
0000
0010
0000
0100
0000
1010
0000
0010
0100
0001
0000
0001
0100
,
0010
0100
0010
1000
0100
0000
0100
0000
1000
0000
0001
0000
0110
0000
0100
0000
,
0001
0010
0001
0001
0100
0010
0110
0010
,
1001
0000
0000
0101
0000
0000
1010
0000
0101
0000
0000
1100
0000
0000
1010
0000
,
0000
0000
0100
0010
1000
0100
0010
0100
1000
0010
0100
0010
1000
0010
0100
0001
,
1000
0001
0000
0000
1000
0000
0010
1000
0000
0000
0010
1000
0010
0000
0100
0000
,
0010
0000
0010
1000
0001
0000
1000
0000
0001
0000
0001
0000
0100
0000
0010
0000
,
0110
0110
0100
0100
0101
0101
1000
1000
,
1001
1001
1000
1000
1010
1010
0010
0010
,
0100
0000
0010
1000
0100
0000
0010
0000
0100
0000
1000
0001
0000
0000
1000
0100
,
0010
0000
0001
0000
1000
0000
0101
0000
1001
0000
0000
1001
0000
0000
0011
0000
,
0100
0100
0010
0010
0100
0100
1000
1000
,
1000
0000
0001
0100
0010
0100
0001
0100
0202
0000
0000
0303
2200
0000
0000
3300
,
2002
0000
0000
3003
0022
0000
0000
0033
2001
0000
0001
0000
0002
0000
0000
3003
,
1002
0000
1000
0000
1000
0000
0200
0000
0000
0303
0100
0000
0010
0000
0010
0000
,
0210
0000
0000
0000
0010
0000
0000
0300
1020
0000
1000
0000
1000
0000
0000
0030
,
2001
0000
0001
0000
0001
0000
0001
0000
3000
0010
0100
0000
0110
0000
0000
0000
;

//---------------dance-single - ----------------
#NOTES:
     dance-single:
     :
     Beginner:
     1:
     0.082,0.124,0,0,0:
0000
0000
0000
0000
,
0000
0000
0000
0000
,
0001
0000
0000
0000
,
1000
0000
0000
0000
,
0001
0000
0000
0000
,
0010
0000
0000
0000
,
0001
0000
1000
0000
,
0001
0000
0000
0000
,
1000
0000
0100
0000
,
1000
0000
0000
0000
,
0010
0000
0100
0000
,
0010
0000
0000
0000
,
1000
0000
0001
0000
,
1000
0000
0000
0000
,
0001
0000
0000
0000
,
0010
0000
0000
0000
,
0001
0000
0000
0000
,
1000
0000
0100
0000
,
1000
0000
0000
0000
,
0010
0000
0000
0000
,
0100
0000
0010
0000
,
0100
0000
0001
0000
,
1000
0000
1000
0000
,
1000
0000
1000
0000
,
0001
0001
0000
0000
,
0001
0001
0000
0000
,
1000
0000
1000
0000
,
1000
0000
1000
0000
,
0010
0000
0010
0000
,
0010
0000
0010
0000
,
0100
0000
0000
0000
,
0100
0000
0001
0000
,
0100
0000
0000
0000
,
0010
0000
1000
0000
,
0010
0000
0000
0000
,
1000
0000
0100
0000
,
0000
0000
1000
0000
,
0010
0000
1000
0000
,
0100
0000
0000
0000
,
0010
0000
0100
0000
,
1000
0000
0001
0000
,
1000
0000
0000
0000
,
0100
0000
0010
0000
,
0001
0000
1000
0000
,
0001
0100
0001
0000
,
1000
0100
1000
0000
,
0010
0000
0100
0000
,
0010
0000
1000
0000
,
0000
0001
0000
0001
,
0000
1000
0000
0010
,
0100
0000
0100
0000
,
0100
0000
0001
0000
,
1000
0000
0001
0000
,
1000
0000
0000
0000
;

//---------------dance-single - ----------------
#NOTES:
     dance-single:
     :
     Easy:
     2:
     0.164,0.198,0.127,0.013,0:
0000
0000
0000
0000
,
1000
0000
0000
0000
,
1000
0000
0001
0000
,
1000
0000
0001
0000
,
0010
0000
0001
0000
,
1000
0000
1000
0000
,
0001
0000
0100
0000
,
0010
0100
0001
0000
,
1000
0000
0100
0000
,
0010
0100
1000
0000
,
0001
0000
0100
0000
,
0001
1000
0100
0000
,
1000
0000
0010
0000
,
1000
0001
0100
0000
,
0010
1000
0100
0000
,
1000
0001
0100
0000
,
0001
1000
0001
1000
,
0010
1000
0010
0000
,
0100
0001
0100
0001
,
1000
0100
1000
0000
,
0010
1000
0100
0010
,
0001
0010
0100
0010
,
0001
0001
0001
0001
,
1001
0000
1001
0000
,
1000
0100
0010
0100
,
1001
0000
1001
0000
,
1000
0010
0100
0010
,
1010
0000
1010
0000
,
0101
0000
1001
0000
,
1100
0000
0110
0011
,
0100
0010
0100
0000
,
0010
0001
0010
0000
,
0100
1000
0001
0000
,
0100
0010
0100
0000
,
0001
0000
1000
0000
,
0100
0010
0100
1000
,
0001
0000
0100
0000
,
0001
1000
0010
0100
,
0010
0000
1000
0000
,
0001
1000
0100
0010
,
0100
0000
1000
0000
,
0001
2000
0002
3003
,
1001
0000
0101
0000
,
0110
0000
1010
0000
,
0100
0001
1000
0001
,
1000
0010
1000
0000
,
1010
0000
0110
0000
,
0101
0000
0110
0000
,
1000
0001
0010
0001
,
1000
0100
0010
0100
,
0010
0000
0100
0000
,
1000
0001
0100
0010
,
0100
0000
0001
0000
,
1000
0100
0010
0100
,
1000
0000
0000
0000
;

//---------------dance-single - ----------------
#NOTES:
     dance-single:
     :
     Medium:
     5:
     0.367,0.396,0.113,0.080,0.020:
0000
0000
0000
0000
0001
0001
0000
0000
,
1000
1000
0001
0100
0000
0000
0001
0000
,
1000
0000
0010
0000
0100
0100
0000
0000
,
0010
0010
1000
1000
0000
0001
0100
0000
,
0001
0000
1000
0000
0001
0100
0001
0000
,
1000
0100
0100
1000
0010
0010
1000
0001
,
0100
0010
0100
0000
0001
1000
0001
0000
,
0100
0010
0100
0001
1000
0001
1000
0100
,
0010
0010
0100
1000
0010
0010
1000
0001
,
0100
0010
0100
0001
1000
0100
1000
0001
,
1001
0000
1000
0010
1000
0000
1000
0001
,
0100
0000
0001
1000
0001
0000
0010
0001
,
0100
0000
0100
0010
0100
0000
0001
1000
,
0010
1000
0010
0100
0010
0100
0010
1000
,
1001
0000
0001
1000
0100
0000
0100
1000
,
0001
0000
1000
0010
0100
0000
0010
1000
,
0001
0000
0000
0001
0000
0000
0001
0000
0100
0000
0000
0100
0000
0000
0100
0000
,
0010
1000
0001
0100
0010
0010
1000
0001
,
0100
0100
0010
0000
1000
0001
0100
0000
,
0001
1000
0100
0000
0010
0100
1000
0000
,
0001
0000
0000
0100
0000
0000
0010
0000
0100
0000
0000
0001
0000
0000
0001
0000
,
1000
0100
0010
0100
1000
0010
1000
0010
,
0100
0100
0001
0001
0100
0100
0010
0010
,
1000
1000
0010
1000
0001
1000
0010
1000
,
1010
0000
1000
0001
0011
0000
0001
0100
,
0101
0000
0100
0010
1010
0000
0010
1000
,
1001
1000
0010
1000
0010
1000
0010
0100
,
0010
0100
0001
0100
0001
1000
0001
1000
,
0100
0010
0100
0010
0001
0010
0001
0010
,
0100
1000
0100
1000
2020
3030
2002
3003
,
0202
0303
0100
0000
0010
0010
1000
0000
,
0001
0001
0100
0001
0000
1000
0100
1000
,
0010
0000
0100
0000
0010
0010
1000
0000
,
0001
0001
0100
0010
0000
0100
0001
1000
,
0100
0100
1000
0000
0001
0001
0100
0000
,
0010
0010
1000
0000
0001
0001
0010
0000
,
0001
0010
0100
0000
1000
0001
0100
0000
,
0001
0010
0100
0100
0010
0001
0001
1000
,
0100
0010
0100
0000
1000
0001
1000
0000
,
0100
0010
0001
0000
0100
0001
1000
0000
,
0100
0000
0000
1000
0000
0000
0010
0000
0100
0000
0000
0010
0000
0000
1000
0000
,
0001
0100
0010
0100
0001
1000
0001
1000
,
0010
0100
0010
1000
0001
0001
1000
0010
,
0100
0100
0010
1000
0001
0100
0001
1000
,
0100
1000
0100
0010
0001
0010
0001
1000
,
0100
1000
0100
0010
0001
0010
0001
1001
,
1000
0001
1000
1000
0010
0100
0010
0010
,
1000
0001
0100
0100
0001
1000
0010
0100
,
0001
0100
0001
0100
0010
1000
0010
1000
,
0001
0100
0001
0100
0022
0033
2002
3003
,
2200
3300
1000
0000
0001
0001
1001
0000
,
1000
1000
0001
0001
0000
0001
1000
0100
,
1000
0000
1001
0000
0001
0001
0011
0000
,
0001
0001
1000
1000
0000
0000
0010
0000
,
0100
0000
0000
0000
;
