#TITLE:Enjoy the Silence;
#ARTIST:Y Front;
#BANNER:Y Front - Enjoy the Silence.png;
#BACKGROUND:Y Front - Enjoy the Silence-bg.png;
#CDTITLE:.\CDTITLES\Electric Love-CD.png;
#MUSIC:Y Front - Enjoy the Silence.MP3;
#OFFSET:-0.842;
#SAMPLESTART:86.9;
#SAMPLELENGTH:19.1;
#BPMS:0=119.96;
#BGCHANGES:0=Y Front - Enjoy the Silence.AVI=0=1=0=0,38.25=Y Front - Enjoy the Silence.AVI=1=0=0=1,999=-=1=0=0=0;

//---------------dance-single - ----------------
#NOTES:
     dance-single:
     :
     Beginner:
     2:
     0.152,0.219,0.064,0,0:
0000
0000
0000
0000
,
0000
0000
0000
0000
,
1000
0000
0000
0000
,
0001
0000
0000
0000
,
1000
0000
0001
0000
,
1000
0000
0001
0000
,
0010
0000
0100
0000
,
0010
0000
0100
0000
,
0001
0000
1000
0000
,
0001
0000
1000
0000
,
0100
0000
0010
0000
,
0100
0000
0010
0000
,
0001
0000
0010
0000
,
0001
0100
0001
0000
,
1000
0000
0100
0000
,
0010
0100
0010
0000
,
0001
0000
0100
0000
,
0010
1000
0010
0000
,
1000
0000
0100
0000
,
0010
0100
1000
0000
,
0001
1000
0001
1000
,
0001
1000
0001
1000
,
0001
0000
0100
0000
,
0001
0000
0100
0000
,
0010
0100
0010
0100
,
0010
0100
0010
0100
,
0010
0000
0100
0000
,
0001
0000
1000
0000
,
0100
0000
1000
0000
,
1001
0000
0000
0000
,
1001
0000
0000
0000
,
1001
0000
0000
0000
,
1001
0000
0000
0000
,
1001
0000
0000
0000
,
1001
0000
0000
0000
,
1001
0000
0000
0000
,
1001
0000
0000
0000
,
0001
0000
0010
0000
,
0001
0000
1000
0000
,
0100
0000
0010
0000
,
0100
0000
0010
0000
,
0100
0000
1000
0000
,
0001
0000
0100
0000
,
0010
0000
0100
0000
,
0010
0000
1000
0000
,
0001
1000
0001
1000
,
0001
1000
0000
0000
,
1000
0100
1000
0100
,
1000
0100
1000
0000
,
0010
0100
0010
0100
,
0010
0100
0010
0000
,
0100
0001
0100
0001
,
0100
0001
0100
0000
,
0010
0000
0100
0000
,
0001
0000
0000
0000
,
1000
0000
0000
0000
,
0100
0000
0000
0000
,
0010
0000
0000
0000
,
0100
0000
0000
0000
,
1000
0000
0000
0000
,
0001
0000
0000
0000
,
0100
0000
0000
0000
;

//---------------dance-single - ----------------
#NOTES:
     dance-single:
     :
     Easy:
     3:
     0.235,0.246,0.064,0.064,0:
0000
0000
0000
0000
,
0000
0000
0000
0000
,
1000
0000
0001
0000
,
0010
0000
0001
0000
,
1000
0100
1000
0001
,
1000
0000
0010
0000
,
0100
0010
1000
0001
,
0010
0000
0001
0000
,
1000
0100
1000
0001
,
0010
0000
0001
0000
,
1000
0001
0100
0010
,
0100
0000
0001
0000
,
0100
0000
0010
0000
,
0100
0001
0100
0000
,
0010
0000
1000
0000
,
0100
0010
0100
0000
,
0010
0000
0001
0000
,
0100
0010
0100
0000
,
0010
0000
1000
0000
,
0001
1000
0100
0000
,
0010
0100
0010
0100
,
0010
0001
0010
0001
,
1000
0001
1000
0001
,
1000
0100
1000
0100
,
1000
0001
1000
0001
,
0100
0010
0100
0010
,
1000
0010
1000
0010
,
1000
0001
1000
0001
,
1000
0001
1000
0001
,
1001
0000
0100
1000
,
1001
0000
0001
0010
,
0011
0000
0001
1000
,
1100
0000
0100
0010
,
0110
0000
0010
0001
,
0011
0000
0001
0100
,
0110
0000
0100
0001
,
1001
0000
0001
1000
,
0100
0000
1000
0000
,
0001
0010
0001
0000
,
1000
0000
0100
0000
,
0010
0100
0010
0001
,
0010
0000
0001
0000
,
0100
0010
1000
1000
,
0010
0000
0100
0000
,
0001
1000
0100
0000
,
1000
0001
1000
1000
,
0100
1000
0001
0001
,
0010
0001
0100
0010
,
0100
0010
1000
0010
,
1000
1000
0001
1000
,
0100
0100
0010
0001
,
0010
0100
0010
0001
,
0100
0010
0100
0010
,
0100
0010
0100
0010
,
0100
0001
2000
3000
,
0001
1000
0200
0300
,
1000
0001
0020
0030
,
0001
1000
0002
0003
,
0100
0010
2000
3000
,
0001
1000
0002
0003
,
0010
0001
2000
3000
,
0100
0010
0002
0003
;

//---------------dance-single - ----------------
#NOTES:
     dance-single:
     :
     Medium:
     5:
     0.335,0.295,0,0.064,0.092:
0000
0000
0000
0000
,
0000
0000
0000
0000
,
0001
0000
1000
0000
0100
0010
0100
0000
,
1000
0000
0001
0000
0100
0010
0100
0000
,
0001
0000
1000
0001
0000
0001
1000
0000
,
0100
0000
0010
0100
0000
0100
0010
0000
,
0001
0000
0100
0010
0000
0010
0100
0000
,
0001
0000
1000
0001
0000
0001
1000
0000
,
0100
0000
0010
0100
0000
0100
1000
0000
,
0100
0000
0010
0100
0000
0100
0010
0000
,
0001
0000
0100
0010
0000
0010
0100
0000
,
0001
0000
0010
0100
0000
0100
0010
0000
,
0001
0100
0000
0010
0100
0000
0010
0000
,
1000
0001
0000
0001
1000
0000
0100
0000
,
0010
0000
0000
0000
0000
0000
0100
0000
1000
0000
1000
0100
0000
0000
0000
0000
,
1000
0000
0000
1000
0000
0000
0010
0000
0100
0000
0100
0010
0000
0000
0000
0000
,
0100
0000
0001
0000
0000
0001
0000
0000
0100
0000
0000
0000
0010
0000
0000
0000
,
0100
0000
0001
0000
0000
0001
0000
0000
1000
0000
0000
0000
0001
0000
0000
0000
,
0010
0000
0001
0000
0000
0001
0000
0000
0100
0000
0000
0100
0000
0000
0000
0000
,
0010
0000
0010
0000
0000
1000
0000
0000
0001
0000
0000
0001
0000
0000
0000
0000
,
1000
0000
0100
1000
0100
0000
1000
0000
,
0010
0000
0100
0010
0100
0000
0001
0001
,
0100
0000
0001
0100
0000
0100
0000
0010
,
0000
0010
0000
1000
0001
0000
1000
0000
,
0001
0001
0000
0100
0100
0000
0010
0000
,
0100
0000
0000
0100
0000
0000
0001
0000
0001
0000
0000
0000
1000
0000
0000
0000
,
0100
0000
0100
0010
0100
0000
0100
1000
,
1000
0001
0001
0100
,
0001
0100
0001
0000
0100
0010
0100
0000
,
0100
0000
0000
0001
0000
0001
1000
0000
,
0001
0000
0000
1000
0000
1000
0100
0000
,
1000
0000
0000
0010
0000
0010
1000
0000
,
0001
0000
0000
0010
0000
0010
0001
0000
,
1000
0000
0001
0100
0000
0100
0001
0000
,
1000
0000
0100
0010
0000
0010
0100
0000
,
0010
0000
0100
0100
0000
1000
1000
0000
,
0100
0000
1000
1000
0000
0001
0001
0000
,
0100
0000
0010
0000
0000
0010
0000
0000
0100
0000
0000
0000
0001
0000
0000
0000
,
1000
0000
1000
0000
0000
0100
0000
0000
0100
0000
0000
0000
1000
0000
0000
0000
,
0010
0000
0010
0000
0000
0000
0100
0000
0010
0000
0010
0100
0000
0000
0000
0000
,
0100
0000
0100
0000
0000
0100
0000
0000
0001
0000
0001
0100
0000
0000
0000
0000
,
0001
0000
1000
0000
0000
0001
0000
0000
1000
0000
0000
0000
0100
0000
0000
0000
,
1000
0000
1000
0000
0000
1000
0000
0000
0100
0000
0000
0000
1000
0000
0000
0000
,
0010
0000
0100
0000
0000
0100
0000
0000
0010
0000
0100
0010
0000
0000
0000
0000
,
0100
0000
0100
0000
0000
0001
0000
0000
0100
0000
0001
0100
0000
0000
0000
0000
,
0001
0000
1000
0100
1000
0000
0100
0000
,
1000
0000
0010
1000
0010
0000
1000
1000
,
0001
0000
0001
1000
0000
0100
0000
0100
,
0000
1000
0000
1000
0010
0000
0100
0000
,
0010
0000
0010
0000
0000
0010
0000
0000
1000
0000
0000
0000
1000
0000
0000
0000
,
0001
0000
0000
0001
0000
0000
0001
0000
1000
0000
0000
0000
0100
0000
0000
0000
,
0010
0000
0010
0100
0010
0000
0010
0001
,
0001
0100
0010
0100
,
0001
0100
0001
0000
1000
0100
1000
0000
,
2000
0000
0010
3100
,
0020
0000
1000
0130
,
2000
0000
0001
3010
,
0002
0000
0010
1003
,
0020
0000
1000
0031
,
0200
0000
0001
0310
,
0002
0000
1000
1003
,
2000
0000
3001
0000
;

//---------------dance-single - ----------------
#NOTES:
     dance-single:
     :
     Hard:
     7:
     0.453,0.591,0.471,0.064,0.160:
1000
0000
0001
0000
1000
0001
1000
0000
,
0100
0000
0010
0000
0100
0010
0001
0000
,
0010
0000
0100
0000
0010
0001
0100
0000
,
0010
0000
0100
0000
0010
1000
0001
0000
,
1001
0000
0001
0100
0000
0100
0010
0000
,
0101
0000
0001
1000
0000
1000
0100
0000
,
0110
0000
0100
0010
0000
0010
0001
0000
,
1010
0000
0001
0100
0000
0100
0001
0000
,
1001
0000
0100
0010
0000
0100
0010
0000
,
0101
0000
0100
0010
0000
0100
0010
0000
,
0110
0000
0001
1000
0000
0001
1000
0000
,
0110
0000
1000
0001
0000
1000
0001
0000
,
0100
0000
0010
0000
0000
0100
0000
0000
0001
0000
0000
0000
0001
0000
0000
0000
,
0100
0000
0010
0000
0000
0100
0000
0000
0001
0000
0000
0000
1000
0000
0000
0000
,
0100
0000
0000
0000
0000
0000
0100
0000
1001
0000
1000
0001
0000
0000
0000
0000
,
0100
0000
0000
0100
0000
0000
0010
0000
0010
1000
0000
0010
0000
0000
0000
0000
,
0100
0000
0010
0000
0000
0010
0000
0000
1000
0000
0000
0000
0001
0000
0000
0000
,
1100
0000
1000
0000
0000
0100
0000
0000
1000
0000
0000
0000
0001
0000
0000
0000
,
0011
0000
1000
0000
0000
0001
0000
0000
0100
0001
0000
0100
0000
0000
0000
0000
,
0100
0000
0010
0000
0000
0010
0000
0000
0100
0010
0000
0100
0000
0000
0000
0000
,
0110
0000
0000
0000
0100
0010
0100
0010
0100
0000
0000
0000
0100
0000
0000
0000
,
1001
0000
0000
0000
0001
1000
0001
1000
0001
0000
0000
0000
1001
0000
0001
0000
,
1000
0000
1000
0010
0000
2000
0000
3020
,
0000
0230
0000
0300
0101
0000
0001
0000
,
1000
0001
0000
0001
0010
0000
0011
0000
,
0001
0000
0000
0100
0000
0000
0100
0000
0001
0000
0000
0000
0101
0000
0000
0000
,
0001
0000
0000
0000
0001
0000
1000
0000
0100
0000
0000
0200
0000
0000
1000
0000
,
2000
0300
0001
0000
0001
0000
3001
0000
,
0100
0010
0100
0000
0001
0100
0001
0000
,
1001
0000
0001
0010
0000
0010
0001
0000
,
0011
0000
0001
1000
0000
1000
0001
0000
,
1001
0000
1000
0010
0000
0010
0100
0000
,
0110
0000
0100
0010
0000
0010
0100
0000
,
0110
0000
0100
0001
0000
0001
1000
0000
,
1001
0000
1000
0100
0000
0100
1000
0000
,
0110
0000
0010
0100
0000
0010
0100
0000
,
0011
0000
0001
0001
0000
0010
0010
0000
,
0011
0000
0001
0000
0000
0100
0000
0000
0001
0000
0000
0000
0101
0000
0000
0000
,
0001
0000
1000
0000
0000
1000
0000
0000
0100
0000
0000
0000
1100
0000
0000
0000
,
1100
0000
1000
0000
0000
0010
0000
0000
0010
0000
0100
0010
0000
0000
0000
0000
,
0110
0000
0010
0000
0000
1000
0000
0000
0001
0000
1000
0001
0000
0000
0000
0000
,
1100
0000
0100
0000
0000
0100
0000
0000
1000
0000
0000
0000
1010
0000
0000
0000
,
0010
0000
0100
0000
0000
0100
0000
0000
0010
0000
0000
0000
1010
0000
0000
0000
,
1000
0000
0001
0000
0000
0001
0000
0000
0010
0000
0001
0010
0000
0000
0000
0000
,
1001
0000
0100
0000
0000
0100
0000
0000
0100
0000
0100
0010
0000
0000
0000
0000
,
0110
0000
0000
0000
0010
0100
0010
0100
0010
0000
0000
0000
0101
0000
0000
0000
,
1001
0000
0000
0000
1000
0001
1000
0001
1000
0000
0000
0000
1001
0000
0001
0000
,
1000
0000
1000
0100
0000
0200
0000
0320
,
0000
0032
0000
0003
0001
0100
0001
0000
,
0101
0000
0001
0000
1000
0001
1000
0001
1000
0000
0000
0000
0100
0000
0000
0000
,
1000
0000
0000
1000
0000
0000
0010
0000
0010
0000
0000
0000
0110
0000
0000
0000
,
0100
0000
0000
0000
0100
0000
0001
0000
0001
0000
0000
0100
0000
0000
0001
0000
,
1001
0000
1001
0000
1001
1001
1001
0000
,
0110
0110
0110
0000
0101
0101
0101
0000
,
1001
0000
0001
0100
0000
0100
0010
0000
,
0110
0000
0100
0010
0000
0010
0100
0000
,
0110
0000
0001
0100
0000
0100
0001
0000
,
1001
0000
0001
1000
0000
1000
0100
0000
,
1100
0000
1000
0010
0000
0010
0100
0000
,
0101
0000
0001
1000
0000
0001
1000
0000
,
1001
0000
1000
0100
0000
0100
0010
0000
,
0110
0000
0010
0001
0000
0010
0001
0000
;
