#TITLE:Earth On Hell;
#ARTIST:Anthrax;
#BANNER:Earth On Hell-bn.png;
#BACKGROUND:Earth On Hell-bg.png;
#LYRICSPATH:Earth On Hell.lrc;
#CDTITLE:.\CDTITLES\HellRazoR.png;
#MUSIC:Earth On Hell.mp3;
#OFFSET:-0.047;
#SAMPLESTART:6.0;
#SAMPLELENGTH:10.0;
#BPMS:0=91.1,42=90.8,56=176,60=182.36,156=172.8,160=168,180=169.36;
#BGCHANGES:-0.5=Earth On Hell.AVI=0.982=1=1=0,999=-=1=0=0=0;

//---------------dance-single - ----------------
#NOTES:
     dance-single:
     :
     Hard:
     9:
     0.751,0.930,0.509,0.022,0.829:
0000
0000
0000
0000
0000
0000
0000
0000
1000
0001
1000
0001
1000
0001
0000
0000
,
0000
0000
0000
0000
0000
0000
0000
0000
0001
0100
0001
0100
0001
0100
0000
0000
,
1000
0000
0001
0000
1000
0000
0001
0000
1001
0000
0000
1001
0000
0000
1001
0000
0100
0000
1000
0000
0100
0000
1000
0000
0100
0000
1000
0000
0100
0000
0000
0000
,
0010
0000
0100
0000
0010
0000
0001
0000
1000
0001
1000
0001
1000
0001
1000
0000
,
0010
0000
1000
0000
0010
0000
1000
0000
0001
1000
0001
1000
0001
1000
0000
0000
,
0001
0000
0001
0000
0100
0000
0100
0000
0100
0010
0100
0010
0100
0010
0000
0000
,
0100
0000
0001
0000
0001
1000
1100
0000
0100
1000
0100
1000
0100
1000
0100
0000
,
1000
0000
0100
0000
1000
0000
0010
0000
1000
0010
1000
0010
1000
0010
1000
0000
,
0010
0000
0100
0000
0010
0000
1000
0000
0001
1000
0001
1000
0001
1000
0100
0000
,
0010
0000
0100
0000
1000
0000
0001
0000
0010
0001
0010
0001
0010
0001
0000
0000
,
0010
0000
0001
0000
0000
0000
0001
0100
0010
0000
0010
0000
0100
0000
0000
0000
0001
0000
0100
0000
0001
0000
0100
0000
0001
0000
0100
0000
0000
0000
0000
0000
,
0100
0010
0100
0010
1000
0010
1000
0010
1000
0001
1000
0001
1000
0001
0000
0000
,
0010
0100
0010
0100
1000
0100
1000
0100
1000
0001
1000
0001
1000
0001
0000
0000
,
0001
1000
0001
1000
0100
1000
0100
1000
0100
0010
0100
0010
0100
0010
0000
0000
,
1001
0000
0001
0000
1000
0000
0100
0000
1000
0000
0010
0000
,
0110
0000
1000
0000
0010
0000
1000
0000
0010
0000
0100
0000
,
0001
0001
1000
0001
0100
0001
0100
0001
,
0100
0010
0100
0010
1000
0010
1000
0000
,
0001
1000
0001
1000
0010
1000
0010
1000
,
0010
0100
0010
0100
0001
0100
0001
0000
,
0100
0010
0100
0010
1000
0001
1000
0001
,
0100
0001
0100
0001
1000
0100
1000
0000
,
1000
0010
1000
0010
1000
0100
1000
0100
,
1100
0000
1000
0000
0010
0000
0100
0000
0001
0000
1000
0000
,
1001
0000
1000
0100
1100
0000
0010
0001
,
0011
0000
0100
0010
0100
0010
0100
0010
,
0110
0000
0100
0001
0101
0000
1000
0100
,
1100
0000
0001
1000
0001
1000
0001
1000
,
0110
0000
0010
1000
1010
0000
0010
0100
,
0110
0000
1000
0001
1000
0001
1000
0001
,
1100
0000
0010
0100
0110
0000
0001
0100
,
0110
0000
0001
0000
1000
0000
0001
0000
0100
0000
0100
0000
,
1001
0000
1000
0010
1010
0000
0100
0001
,
0101
0000
0010
0100
0010
0100
0010
0100
,
0110
0000
0010
1000
1010
0000
1000
0010
,
1010
0000
1000
0001
1000
0001
1000
0001
,
0110
0000
0100
0001
0101
0000
1000
0100
,
1100
0000
1000
0001
1000
0001
1000
0001
,
1010
0000
0100
0010
0110
0000
0010
1000
,
1010
0000
0010
0000
1000
0000
0001
0000
0100
0000
0010
0000
,
0110
0000
0001
0000
1000
0000
0010
0000
1000
0000
0010
0000
,
0110
0000
0001
0000
1000
0000
0001
0000
1001
0000
1000
0000
,
0101
0000
0001
0000
1000
0000
0100
0000
0110
0000
0010
0000
,
0011
0000
0100
0000
1000
0000
0001
0000
1001
0000
0001
0000
,
0101
0000
0100
0010
0100
0010
0100
0000
0010
0100
0010
0100
,
0010
0000
1000
0000
0100
0000
0010
0000
0100
0000
1000
0000
,
0001
0000
0100
0000
0010
0000
0100
0000
0001
0000
0010
0000
,
0100
0000
0010
0000
0001
0000
0100
0000
0001
0000
0100
0000
,
0010
0000
1000
0000
0100
0000
1000
0000
0100
0000
0010
0000
,
0100
0000
0010
0000
0001
0000
0100
0000
0010
0000
1000
0000
,
0001
0000
1000
0000
0100
0000
0010
0000
0100
0000
1000
0000
,
0001
0000
0100
0000
0010
0000
0100
0000
0001
0000
1000
0000
,
0100
0000
0010
0000
0001
0000
0100
0000
0010
0000
0100
0000
,
1001
0000
1000
0000
0001
0000
1000
0000
1001
0000
0010
0000
,
1010
0000
0010
0000
0100
0000
0010
0000
0110
0000
0010
0000
,
0101
0000
0100
0000
0010
0000
1000
0000
1001
0000
0010
0000
,
0101
0000
0010
0000
0100
0000
0001
0000
1000
0000
0001
0000
,
0220
0330
0000
0000
;

//---------------dance-single - ----------------
#NOTES:
     dance-single:
     :
     Medium:
     7:
     0.546,0.558,0.228,0.022,0.433:
0000
0000
0000
0000
1000
0001
1000
0000
,
0000
0000
0000
0000
0001
1000
0001
0000
,
1000
0000
0000
0000
0000
0000
0000
0000
0001
0000
0000
1000
0000
0000
0001
0000
0100
0000
0000
0000
0001
0000
0000
0000
0100
0000
0000
0000
0010
0000
0000
0000
,
0100
0100
0001
1000
0001
0001
1000
0100
,
0010
0010
0100
0010
0001
0001
0100
0001
,
0100
0010
0100
0001
0100
0001
1000
0001
,
0001
0001
0001
0001
1000
0001
1000
0100
,
1000
1000
0010
0010
1000
0001
1000
0100
,
0010
0010
0100
0100
0010
0001
0100
0010
,
0100
0100
0001
0001
1000
1000
1000
1000
,
0100
0100
0100
0100
1000
0001
1001
0000
,
1000
0010
0100
0010
1000
0001
1001
0000
,
1000
0100
0010
0100
0010
0001
0011
0000
,
0001
0100
0010
0100
0001
1000
1001
0000
,
1001
0000
0001
0000
1000
0000
0001
0000
1000
0000
0001
0000
,
1000
0000
0001
0000
1000
0000
0001
0000
1000
0000
0001
0000
,
1000
0010
0100
0100
,
0010
0010
1000
0001
,
1000
1000
0001
0001
,
0100
0010
0100
0001
,
1000
1000
0001
1000
,
0100
1000
0001
0010
,
0001
1000
0100
0010
,
0100
0000
0010
0000
0100
0000
0010
0000
0100
0000
0010
0000
,
1001
0000
1000
0010
0100
0000
0010
1000
,
0010
0000
0100
0010
1000
0010
0100
0000
,
0010
0000
1000
0001
1000
0000
0001
1000
,
0001
0000
0100
0010
0100
0100
0001
0000
,
0100
0000
0010
0100
0010
0000
1000
0010
,
1000
0000
0010
0100
0010
1000
1000
0000
,
0001
0000
1000
0001
1000
0000
0100
1000
,
0100
0000
0010
0000
0100
0000
0010
0000
0100
0000
0010
0000
,
1001
0000
0100
0010
1000
0000
0010
0100
,
0010
0000
0100
0001
0100
0001
0001
0000
,
0010
0000
0100
0010
0100
0000
0010
0001
,
0100
0000
0010
0100
0010
0100
0100
0000
,
0010
0000
1000
0010
0100
0000
0100
0010
,
0100
0000
0001
0100
0001
0100
0100
0000
,
0100
0000
0100
0010
0100
0000
0010
0100
,
0010
0000
0100
0000
0010
0000
0100
0000
0010
0000
0100
0000
,
0110
0000
0001
0000
1000
0000
0001
0000
1000
0000
0001
0000
,
1001
0000
1000
0000
0100
0000
1000
0000
0100
0000
1000
0000
,
0110
0000
0010
0000
0001
0000
0010
0000
0001
0000
0010
0000
,
1001
0000
0100
0000
0010
0000
0100
0000
0010
0000
0100
0000
,
1010
0000
1000
0000
0100
0000
1000
0000
0100
0000
1000
0000
,
1100
0000
1000
0000
0001
0000
1000
0000
0001
0000
1000
0000
,
0001
0000
0100
0000
0010
0000
0100
0000
0010
0000
0100
0000
,
0010
0000
0100
0000
0001
0000
0100
0000
0001
0000
0100
0000
,
0001
0000
1000
0000
0100
0000
1000
0000
0100
0000
1000
0000
,
0100
0000
0010
0000
0100
0000
0010
0000
0100
0000
0010
0000
,
0100
0000
0010
0000
0001
0000
0010
0000
0001
0000
0010
0000
,
0001
0000
0100
0000
0010
0000
0100
0000
0010
0000
0100
0000
,
0010
0000
1000
0000
0010
0000
1000
0000
0010
0000
1000
0000
,
1001
0000
0000
0000
0000
0000
0000
0000
1001
0000
0000
0000
,
0110
0000
0000
0000
0000
0000
0000
0000
0110
0000
0000
0000
,
0101
0000
0000
0000
0000
0000
0000
0000
1010
0000
0000
0000
,
1100
0000
0000
0000
1000
0000
0001
0000
1000
0000
0001
0000
,
0220
0330
0000
0000
;

//---------------dance-single - ----------------
#NOTES:
     dance-single:
     :
     Easy:
     4:
     0.348,0.403,0.163,0.228,0.179:
0000
0000
2000
3001
,
0000
0000
2000
3010
,
0100
0100
0020
1030
,
0001
1000
0002
0013
,
0001
0010
0200
0310
,
0100
0010
0200
1300
,
0100
0000
1000
0000
0001
0001
1000
0000
,
0100
0000
1000
0000
0010
0010
0100
0000
,
0010
0000
0100
0000
0010
0010
1000
0000
,
0001
0000
1000
0000
0001
0001
0100
0000
,
0001
0100
0002
0203
,
0320
0000
0000
0030
0020
0000
0230
0000
,
0302
0000
0000
0003
2000
0000
3200
0000
,
2300
0000
0000
3000
0020
0000
0230
0000
,
0320
0000
0000
0000
0000
0000
0000
0030
,
2000
0000
0000
0000
0000
0000
0000
3000
,
0001
1000
0100
0100
,
1000
0001
1000
0000
,
0010
0100
0010
0010
,
0100
0001
1000
0000
,
0100
0010
0100
0100
,
1000
0001
0100
0000
,
0010
0100
0001
0001
,
0100
0000
0010
0000
0100
0000
0010
0000
0000
0000
0000
0000
,
0100
0001
1000
0001
,
1000
0000
0100
0000
,
1000
0010
1000
0100
,
0010
0000
0100
0000
,
0010
0001
0010
0001
,
0100
0010
0100
0000
,
0001
0000
1000
0000
,
0001
0000
0100
0000
0001
0000
0100
0000
0000
0000
0000
0000
,
0010
0100
0010
0100
,
0010
0000
1000
0000
,
0001
1000
0100
1000
,
0100
0000
0010
0000
,
0100
0010
0001
0100
,
0001
0000
0010
0000
,
0100
0010
0001
0010
,
0100
0000
0010
0000
0100
0000
0010
0000
0000
0000
0000
0000
,
0100
0000
1000
0000
0100
0000
1000
0000
0000
0000
0000
0000
,
1001
0000
0000
0000
0000
0000
0000
0000
1100
0000
0000
0000
,
0110
0000
0000
0000
0000
0000
0000
0000
1001
0000
0000
0000
,
1010
0000
0000
0000
0000
0000
0000
0000
0110
0000
0000
0000
,
1010
0000
1000
0000
0100
0000
1000
0000
0100
0000
0000
0000
,
0100
0000
1000
0000
0001
0000
1000
0000
0000
0000
0000
0000
,
1000
0000
0100
0000
0010
0000
0100
0000
0000
0000
0000
0000
,
0010
0000
0100
0000
1000
0000
0100
0000
0000
0000
0000
0000
,
1000
0000
0001
0000
0100
0000
0001
0000
0000
0000
0000
0000
,
0100
0000
0010
0000
0100
0000
0010
0000
0000
0000
0000
0000
,
0100
0000
0010
0000
1000
0000
0010
0000
0000
0000
0000
0000
,
1000
0000
0100
0000
0010
0000
0100
0000
0000
0000
0000
0000
,
0010
0000
0100
0000
1000
0000
0000
0000
0000
0000
0000
0000
,
1001
0000
0000
0000
0000
0000
0000
0000
1001
0000
0000
0000
,
0110
0000
0000
0000
0000
0000
0000
0000
0110
0000
0000
0000
,
0101
0000
0000
0000
0000
0000
0000
0000
1010
0000
0000
0000
,
1100
0000
0000
0000
,
0220
0330
0000
0000
;

//---------------dance-single - ----------------
#NOTES:
     dance-single:
     :
     Challenge:
     12:
     1,1,0.672,0.022,1:
0000
0000
0000
0000
0000
0000
0000
0000
0000
0000
0000
0000
0000
0000
0000
0000
1000
0001
1000
0001
1000
0001
1000
0001
1000
0001
1000
0000
0000
0000
0000
0000
,
0000
0000
0000
0000
0000
0000
0000
0000
0000
0000
0000
0000
0000
0000
0000
0000
0001
0100
0001
0100
0001
0100
0001
0100
0001
0100
0001
0000
0000
0000
0000
0000
,
1000
0001
1000
0001
1000
0001
1000
0000
1001
0000
0000
1001
0000
0000
1001
0000
0100
1000
0100
1000
0100
1000
0100
1000
0100
1000
0100
0000
1000
0000
0000
0000
,
0010
0000
0000
0000
0100
0000
0000
0000
0010
0000
0000
0000
1000
0000
0000
0000
0001
1000
0001
1000
0001
1000
0001
1000
0001
1000
0001
0000
1000
0000
0000
0000
,
0010
0000
0000
0000
1000
0000
0000
0000
0010
0000
0000
0000
1000
0000
0000
0000
0001
1000
0001
1000
0001
1000
0001
1000
0001
1000
0001
0000
0000
0000
0000
0000
,
0001
0000
0000
0000
0001
0000
0000
0000
0100
0000
0000
0000
0100
0000
0000
0000
0100
0010
0100
0010
0100
0010
0100
0010
0100
0010
0100
0000
0000
0000
0000
0000
,
0100
0000
0000
0000
0001
0000
0000
0000
0001
1000
0001
0000
1000
0001
1000
0000
0100
1000
0100
1000
0100
1000
0100
1000
0100
1000
0100
0000
1000
0000
0000
0000
,
1000
0000
0000
0000
0100
0000
0000
0000
1000
0000
0000
0000
0010
0000
0000
0000
1000
0010
1000
0010
1000
0010
1000
0010
1000
0010
1000
0000
1000
0000
0000
0000
,
0010
0000
0000
0000
0100
0000
0000
0000
0010
0000
0000
0000
1000
0000
0000
0000
0001
1000
0001
1000
0001
1000
0001
1000
0001
1000
0001
0000
0100
0000
0000
0000
,
0010
0000
0000
0000
0100
0000
0000
0000
0001
0000
0000
0000
0001
0000
0000
0000
0010
0001
0010
0001
0010
0001
0010
0001
0010
0001
0010
0000
0000
0000
0000
0000
,
0010
0000
0001
0000
0000
0000
0001
0100
0010
0000
0010
0000
0100
0000
0000
0000
0001
0100
0001
0100
0001
0100
0001
0100
0001
0100
0001
0000
0000
0000
0000
0000
,
0100
0010
0100
0010
0100
0010
0100
0010
1000
0010
1000
0010
1000
0010
1000
0010
1000
0001
1000
0001
1000
0001
1000
0001
1000
0001
1000
0000
0000
0000
0000
0000
,
0010
0100
0010
0100
0010
0100
0010
0100
0001
0100
0001
0100
0001
0100
0001
0100
0001
1000
0001
1000
0001
1000
0001
1000
0001
1000
0001
0000
0000
0000
0000
0000
,
0001
1000
0001
1000
0001
1000
0001
1000
0100
1000
0100
1000
0100
1000
0100
1000
0100
0010
0100
0010
0100
0010
0100
0010
0100
0010
0100
0000
0000
0000
0000
0000
,
1010
0000
1001
0000
1010
0000
0101
0000
0110
0000
1010
0000
,
0110
0000
1001
0000
1010
0000
0101
0000
1010
0000
0110
0000
,
1000
0001
1000
0001
1000
0001
1000
0001
0100
0001
0100
0001
0100
0001
0100
0001
,
0100
0010
0100
0010
0100
0010
0100
0010
1000
0010
1000
0010
1000
0000
0000
0000
,
0001
1000
0001
1000
0001
1000
0001
1000
0010
1000
0010
1000
0010
1000
0010
1000
,
0010
0100
0010
0100
0010
0100
0010
0100
0001
0100
0001
0100
0001
0000
0000
0000
,
0100
0010
0100
0010
0100
0010
0100
0010
1000
0001
1000
0001
1000
0001
1000
0001
,
0100
0001
0100
0001
0100
0001
0100
0001
1000
0100
1000
0100
1000
0000
0000
0000
,
1000
0010
1000
0010
1000
0010
1000
0010
1000
0100
1000
0100
1000
0100
1000
0100
,
1100
0000
0110
0000
1001
0000
1010
0000
0101
0000
1001
0000
,
1001
0000
0000
0000
1000
0100
1000
0100
1000
0000
0000
0000
0010
1000
0010
1000
,
0010
0000
0000
0000
0100
0010
0100
0010
0100
0010
0100
0010
0100
0010
0000
0000
,
0110
0000
0000
0000
0100
0001
0100
0001
0100
0000
0000
0000
1000
0100
1000
0100
,
1000
0000
0000
0000
0001
1000
0001
1000
0001
1000
0001
1000
0001
1000
0000
0000
,
0110
0000
0000
0000
0010
1000
0010
1000
0010
0000
0000
0000
0010
0100
0010
0100
,
0010
0000
0000
0000
1000
0001
1000
0001
1000
0001
1000
0001
1000
0001
1000
0000
,
1100
0000
0000
0000
0010
0100
0010
0100
0010
0000
0000
0000
0001
0100
0001
0100
,
0110
0000
0011
0000
1010
0000
1001
0000
0101
0000
0110
0000
,
1001
0000
0000
0000
0001
0010
0001
0010
0001
0000
0000
0000
0100
0001
0100
0001
,
0100
0000
0000
0000
0010
0100
0010
0100
0010
0100
0010
0100
0010
0100
0000
0000
,
0110
0000
0000
0000
0010
1000
0010
1000
0010
0000
0000
0000
1000
0010
1000
0010
,
1000
0000
0000
0000
1000
0001
1000
0001
1000
0001
1000
0001
1000
0001
0000
0000
,
0110
0000
0000
0000
0100
0001
0100
0001
0100
0000
0000
0000
1000
0100
1000
0100
,
1000
0000
0000
0000
0001
1000
0001
1000
0001
1000
0001
1000
0001
1000
0000
0000
,
1010
0000
0000
0000
0100
0010
0100
0010
0100
0000
0000
0000
0010
1000
0010
1000
,
1010
0000
1010
0000
1001
0000
0101
0000
0110
0000
1010
0000
,
1100
0000
0101
0000
1001
0000
1010
0000
1100
0000
1010
0000
,
0110
0000
0001
0000
1000
0000
0001
0000
1001
0000
1000
0000
,
0101
0000
0001
0000
1000
0000
0100
0000
0110
0000
0010
0000
,
0011
0000
0100
0000
1000
0000
0001
0000
1001
0000
0001
0000
,
0101
0000
0010
0100
0010
0100
0001
0000
0001
0100
0010
0100
,
0001
0000
1000
0000
0100
0000
0010
0000
0100
0000
1000
0000
,
0001
0000
0100
0000
0010
0000
0100
0000
0001
0000
0010
0000
,
0100
0000
0010
0000
0001
0000
0100
0000
0001
0000
0100
0000
,
0010
0000
1000
0000
0100
0000
1000
0000
0100
0000
0010
0000
,
0100
0000
0010
0000
0001
0000
0100
0000
0010
0000
1000
0000
,
0001
0000
1000
0000
0100
0000
0010
0000
0100
0000
1000
0000
,
0001
0000
0100
0000
0010
0000
0100
0000
0001
0000
1000
0000
,
0100
0000
0010
0000
0001
0000
0100
0000
0010
0000
0100
0000
,
1001
0000
1000
0000
0001
0000
1000
0000
1001
0000
0010
0000
,
0110
0000
0010
0000
0100
0000
0010
0000
0110
0000
0010
0000
,
0101
0000
0100
0000
0010
0000
0100
0000
1010
0000
0010
0000
,
1100
0000
0001
0000
0100
0000
0001
0000
1000
0000
0001
0000
,
0220
0330
0000
0000
;
