#TITLE:EXISTENCE VIP;
#ARTIST:Excision & Downlink;
#BANNER:EXISTENCE VIP.png;
#BACKGROUND:EXISTENCE VIP-bg.png;
#CDTITLE:.\CDTitles\Hellrazor.png;
#MUSIC:EXISTENCE VIP.MP3;
#OFFSET:0.549;
#SAMPLESTART:60.5;
#SAMPLELENGTH:14.0;
#BPMS:0=140,148=142,150=144,152=146,154=148,156=150,158=152,160=154,162=156,164=158,165=159,166=160,167=161,168=162,169=163,170=164,171=165,172=166,173=167,174=168,175=169,180=174;

//---------------dance-single - ----------------
#NOTES:
     dance-single:
     :
     Medium:
     5:
     0.308,0.417,0.089,0.275,0:
0000
0000
0000
0000
,
1000
0000
0001
0000
,
0010
0001
0001
0000
,
1000
0000
0000
0000
0100
0000
0000
0010
,
0000
0000
0100
0000
0000
1000
0000
0000
,
0001
0000
0000
0000
0100
0010
0100
0000
,
0001
1000
0001
0000
1000
0001
1000
0000
,
0100
0000
0000
0000
0010
0000
0000
0100
,
0000
0000
1000
0000
0000
0001
0000
0000
,
1000
0000
0100
0000
,
0010
0100
0010
0000
,
0001
0000
0000
0000
0100
0000
0000
0100
,
0000
0000
0010
0000
0000
0010
0000
0000
,
1000
0000
0000
0000
0001
1000
0100
0000
,
0100
1000
0001
0000
0001
1000
0100
0000
,
1000
0000
0000
0000
0010
0000
0000
0100
,
0000
0000
0100
0000
0000
0010
0000
0000
,
2000
0000
0002
0000
,
0000
0000
0000
3003
,
1000
0000
0100
0100
,
1000
1000
0010
0010
,
0220
0330
0100
0001
,
1000
0100
0100
1000
,
2020
3030
0010
0100
,
0001
1000
0001
0100
,
0220
0330
0100
0000
,
0001
1000
0001
0000
,
0220
0330
0010
0100
,
0001
1000
0001
0100
,
2002
3003
1000
0100
,
1000
0010
1000
0010
,
0220
0000
0000
0000
,
0000
0000
0000
0330
,
0001
0000
0000
0000
,
0000
0000
0000
0000
,
0100
0000
0001
0000
,
2000
0000
0000
0000
0000
0000
0000
3000
,
0001
0000
1000
0000
,
0100
0000
1000
0000
,
0001
0000
0010
0000
,
0001
0000
0010
0000
,
0001
1000
0100
1000
,
0001
0100
0001
1000
,
0001
1000
0001
1000
0001
1000
0001
1000
,
0001
1000
0001
1000
0002
0000
0000
0000
,
1003
0000
0100
0000
,
1000
0010
0100
0000
,
0010
0000
0000
1000
0000
0000
0001
0000
,
0000
1000
0000
0000
0001
0000
0000
0000
,
0100
0000
0001
0000
1000
0001
1000
0000
,
0100
1000
0100
0000
1000
0001
1000
0000
,
1000
0000
0000
0001
0000
0000
0010
0000
,
0000
0001
0000
0000
0010
0000
0000
0000
,
0001
1000
0001
0000
,
0100
0100
0010
0000
,
0100
0000
0000
0001
0000
0000
1000
0000
,
0000
1000
0000
0000
0010
0000
0000
0000
,
0100
0000
0000
0000
0010
1000
0010
0000
,
0100
0010
0100
0000
0010
0100
0010
0000
,
0100
0000
0000
0001
0000
0000
1000
0000
,
0000
0001
0000
0000
1000
0000
0000
0000
,
0200
0000
0000
0000
0000
2000
0000
0000
,
0000
0000
0300
3000
,
0001
0000
0010
0001
,
0001
0100
0100
0001
,
2020
0030
3001
1000
,
1000
0010
0010
0100
,
0220
0300
1030
0001
,
0001
0100
0100
0001
,
2002
0003
3010
0000
,
1000
0001
1000
0000
,
0100
0000
0010
0100
,
0100
0010
0010
0001
,
0202
0003
0301
0100
,
0100
0010
0010
0100
,
0202
0300
1003
0001
,
0001
1000
1000
0100
,
2020
0030
3020
0000
,
0000
0000
0000
0000
,
0230
0300
0002
0000
,
0000
0000
1000
0000
,
1003
0000
2000
0000
,
0000
0000
0010
0000
,
3010
0000
0100
0010
,
0100
0010
0100
0010
,
0100
0000
0002
0000
,
1000
1000
1000
0003
,
2000
0000
0020
0000
,
0000
3000
0100
0000
,
0130
0000
0020
0000
,
0000
0000
0100
0000
,
0130
0000
0001
1000
,
0001
1000
0100
1000
,
0022
0000
0033
0000
;

//---------------dance-single - ----------------
#NOTES:
     dance-single:
     :
     Easy:
     3:
     0.229,0.257,0,0.089,0:
0000
0000
0000
0000
,
1000
0000
0001
0000
,
0010
0001
0010
0000
,
0001
0000
0000
0000
1000
0000
0000
0100
,
0000
0000
1000
0000
0000
0100
0000
0000
,
1000
0000
0001
0000
,
0010
0010
0001
0000
,
1000
0000
0000
0000
0100
0000
0000
1000
,
0000
0000
0001
0000
0000
0010
0000
0000
,
0001
0000
0010
0000
,
0001
1000
0100
0000
,
1000
0000
0000
0000
0001
0000
0000
0010
,
0000
0000
0001
0000
0000
1000
0000
0000
,
0100
0000
1000
0000
,
0001
0001
0100
0000
,
0001
0000
0000
0000
1000
0000
0000
0100
,
0000
0000
0010
0000
0000
0100
0000
0000
,
0010
0000
0002
0000
,
0000
0000
0000
0003
,
0100
0000
0010
0000
,
0100
0100
0001
0000
,
1000
0000
0100
0000
,
0010
0010
0100
0000
,
1000
0000
0001
0000
,
0100
0100
0010
0000
,
0200
0000
0002
0000
,
0000
0000
0000
0303
,
1000
0000
0100
0000
,
0010
0100
0010
0000
,
0001
0000
0100
0000
,
0001
1000
0001
0000
,
1000
0000
0000
0000
,
0000
0000
0000
0000
,
0100
0000
0000
0000
,
0000
0000
0000
0000
,
1000
0000
0000
0000
,
0001
0000
0000
0000
,
1000
0000
0001
0000
,
1000
0000
0001
0000
,
1000
0000
0001
0000
,
1000
0000
0001
0000
,
1000
0000
0001
0000
,
1000
0000
0001
0000
,
1000
0001
1000
0001
,
1000
0001
1000
0000
,
0001
0000
0010
0000
,
0001
1000
0100
0000
,
1000
0000
0000
0001
0000
0000
0001
0000
,
0000
1000
0000
0000
1000
0000
0000
0000
,
0100
0000
0010
0000
,
0100
0010
0001
0000
,
0100
0000
0000
0001
0000
0000
1000
0000
,
0000
1000
0000
0000
0100
0000
0000
0000
,
1000
0000
0100
0000
,
1000
0001
0100
0000
,
0001
0000
0000
0100
0000
0000
0010
0000
,
0000
0010
0000
0000
0100
0000
0000
0000
,
0001
0000
1000
0000
,
0100
1000
0001
0000
,
0100
0000
0000
0010
0000
0000
0100
0000
,
0000
0010
0000
0000
0100
0000
0000
0000
,
0001
0000
0000
0000
0000
2000
0000
0000
,
0000
0000
0000
0000
,
3001
0000
0100
0010
,
0010
0100
0100
0001
,
0001
0000
1000
0001
,
0001
1000
1000
0100
,
0100
0000
0010
0001
,
0001
0010
0010
0001
,
0001
0000
0100
0000
,
0010
0100
0010
0000
,
1000
0000
0001
1000
,
1000
0001
0001
0100
,
0100
0000
0100
0001
,
0001
1000
1000
0001
,
0010
0000
0001
1000
,
1000
0100
0100
1000
,
0010
0000
0200
0000
,
0000
0000
0000
0000
,
0302
0000
1000
0000
,
1000
1000
1003
0000
,
0200
0000
1000
0000
,
1000
1000
1300
0000
,
2000
0000
0010
0000
,
0010
0010
3010
0000
,
0200
0000
0001
0000
,
0001
0001
0301
0000
,
0002
0000
0010
0000
,
0010
0010
0013
0000
,
2000
0000
0001
0000
,
0001
0001
3001
0000
,
0020
0030
0100
0010
,
0100
0010
0100
0000
,
0002
0000
0003
0000
;

//---------------dance-single - ----------------
#NOTES:
     dance-single:
     :
     Challenge:
     9:
     0.495,0.803,0.302,0.824,0.161:
0000
0000
0000
0000
,
2000
0000
0002
0000
,
0010
0010
3013
0000
,
2002
0000
0000
0000
0100
0000
0000
0010
,
0000
0000
0010
0000
0000
0100
3003
0000
,
0202
0000
0303
0000
0010
0100
0010
0100
,
0010
0000
0100
0001
0100
0000
0001
0000
0100
0000
0001
0000
1000
0000
1000
0000
,
2002
0000
0000
0000
0100
0000
0000
0010
,
0000
0000
0010
0000
0000
0100
3003
0000
,
2000
0000
0020
0000
,
0100
0100
3130
0000
,
2200
0000
0000
0000
0001
0000
0000
0001
,
0000
0000
0010
0000
0000
0010
3300
0000
,
0202
0000
0303
0000
1000
0001
1000
0100
,
1000
0000
0010
0100
0010
0000
1000
0000
0010
0000
0100
0000
0001
0000
1000
0000
,
0202
0000
0000
0000
0010
0000
0000
1000
,
0000
0000
1000
0000
0000
0010
0303
0000
,
0220
0000
0002
0000
,
0000
0000
0000
0000
,
1333
0000
0000
0000
0000
0000
0010
1000
0010
1000
0000
0000
,
0010
0100
0010
0100
0000
0000
0010
1000
0010
1000
0000
0000
,
0220
0000
0000
0330
0000
0000
1000
0010
1000
0010
0000
0000
,
0100
0010
0100
0010
1000
0001
1000
0001
0100
0001
0100
0001
,
0202
0000
0000
0303
0000
0000
0001
0010
0001
0010
0000
0000
,
0100
0010
0100
0010
0000
0000
0001
1000
0001
1000
0000
0000
,
0022
0000
2000
0000
,
0100
0100
0200
3333
,
2002
0000
0000
3003
0000
0000
0010
0001
0010
0001
0000
0000
,
1000
0001
1000
0001
0000
0000
1000
0010
1000
0010
0000
0000
,
0220
0000
0000
0330
0000
0000
0010
1000
0010
1000
0000
0000
,
0010
0100
0010
0100
0001
0100
0001
0100
0001
1000
0001
1000
,
1001
0000
0000
0000
,
0000
0000
0000
0000
,
1001
0000
0000
0000
,
0000
0000
0000
0000
,
1000
0000
0000
0000
,
0000
0000
0000
0000
,
0002
0000
2000
0003
,
0002
3000
2000
0003
,
0020
3000
0200
0030
,
0020
0300
0200
0030
,
0020
0300
2000
0030
0002
3000
2000
0003
,
0200
3000
0020
0300
0200
0030
0020
0300
,
0002
0030
2000
0003
0002
3000
2000
0003
0200
3000
2000
0300
0020
3000
0200
0030
,
0310
1000
0010
1000
0010
1000
0010
1000
0020
0000
0000
0000
0000
0000
0000
0000
,
2030
0000
0002
0000
,
0010
0010
3013
0000
,
1001
0000
0000
0101
0000
0000
1010
0000
,
0000
0110
0000
0000
2002
0000
3003
0000
,
0220
0000
0330
0000
0100
0010
0100
0010
,
1000
0001
1000
0001
0100
0001
0100
0001
,
0101
0000
0000
1010
0000
0000
0110
0000
,
0000
0101
0000
0000
2020
0000
3030
0000
,
2000
0000
0000
0000
3001
0000
0000
0010
0002
0000
0000
0000
0000
0000
0000
0000
,
0010
0000
0010
0000
0020
0000
0000
0033
,
1001
0000
0000
1010
0000
0000
1100
0000
,
0000
0011
0000
0000
0202
0000
0303
0000
,
0001
0000
1000
0000
0010
1000
0010
0100
,
0010
0001
0010
1000
0001
0010
0001
1000
,
2002
0000
3003
0220
0000
0330
0202
0000
,
0303
2002
0000
3003
2020
0000
3030
0000
,
0200
0000
0000
0000
0000
0020
0000
0000
,
0000
0000
0300
0000
,
2030
0000
0000
0000
3100
0000
0100
1000
,
0000
0000
0010
0100
0000
0000
0010
1000
,
0020
0000
0000
0000
0130
0000
0001
1000
,
0000
0000
0100
1000
0000
0000
0010
0000
,
0020
0000
0000
0000
1030
0000
0100
1000
,
0000
0000
0001
1000
0000
0000
0100
0010
,
0200
1000
1300
0001
,
1000
0001
1000
0000
0000
0000
0000
0000
0020
0000
0000
0000
0000
0000
0000
0000
,
1030
0000
0010
0000
0100
0000
0001
0010
,
0000
0000
0001
0100
0000
0000
0010
1000
,
2000
0000
0000
0000
3001
0000
0010
0001
,
0000
0000
0001
1000
0000
0000
1000
0000
,
2000
0000
0000
0000
3010
0000
0100
0010
,
0000
0000
0010
0100
0000
0000
0100
0001
,
2000
0000
3002
0000
,
0000
0000
0000
0000
,
2000
0000
3003
0000
4400
0000
0000
0000
,
0000
0000
0000
3300
0002
0000
0000
0003
,
2000
0000
0000
3000
0044
0000
0000
0000
,
0000
0000
0000
0033
2000
0000
0000
3000
,
2000
0000
0000
3000
1000
0001
1000
0001
,
0100
0010
0100
0010
0100
0001
0100
0000
,
0002
0100
0103
0000
,
0100
0010
0100
0000
0000
0000
0000
0000
0200
0000
0000
0000
0000
0000
0300
0000
,
0002
0000
0000
0003
0044
0000
0000
0000
,
0000
0000
0000
0033
2000
0000
0000
3000
,
0002
0000
0000
0003
4400
0000
0000
0000
,
0000
0000
0000
3300
0002
0000
0000
0003
,
0002
0000
0000
0003
0001
1000
0001
1000
,
0010
0100
0010
0100
0010
1000
0010
0000
,
2020
0000
3030
0000
;

//---------------dance-single - ----------------
#NOTES:
     dance-single:
     :
     Hard:
     8:
     0.465,0.803,0.261,0.687,0.161:
0000
0000
0000
0000
,
2000
0000
3002
0000
,
0013
0010
0010
0000
,
1001
0000
0000
0000
0100
0000
0000
0010
,
0000
0000
0010
0000
0000
0100
0000
0000
,
1001
0000
0000
0000
0010
0100
0010
0100
,
0010
0000
0100
0001
0100
0000
0001
0000
0100
0000
0001
0000
1000
0000
1000
0000
,
1001
0000
0000
0000
0100
0000
0000
0010
,
0000
0000
0010
0000
0000
0100
0000
0000
,
1010
0000
0010
0000
,
0100
0100
0100
0000
,
2200
0000
3300
0000
0001
0000
0000
0001
,
0000
0000
0010
0000
0000
0010
0000
0000
,
0202
0000
0303
0000
1000
0001
1000
0100
,
1000
0000
0010
0100
0010
0000
1000
0000
0010
0000
0100
0000
0001
0000
1000
0000
,
0101
0000
0000
0000
0010
0000
0000
1000
,
0000
0000
1000
0000
0000
0010
0000
0000
,
0220
0030
0002
0000
,
0000
0000
0300
0003
,
1000
0000
0000
0000
0000
0000
0010
1000
0010
1000
0000
0000
,
0010
0100
0010
0100
0000
0000
0010
1000
0010
1000
0000
0000
,
0020
0000
0000
0030
0000
0000
1000
0010
1000
0010
0000
0000
,
0100
0010
0100
0010
1000
0001
1000
0001
0100
0001
0100
0001
,
0200
0000
0000
0300
0000
0000
0001
0010
0001
0010
0000
0000
,
0100
0010
0100
0010
0000
0000
0001
1000
0001
1000
0000
0000
,
0022
0030
2000
0003
,
3100
0100
0200
0300
,
2002
0000
0000
3003
0000
0000
0010
0001
0010
0001
0000
0000
,
1000
0001
1000
0001
0000
0000
1000
0010
1000
0010
0000
0000
,
0220
0000
0000
0330
0000
0000
0010
1000
0010
1000
0000
0000
,
0010
0100
0010
0100
0001
0100
0001
0100
0001
1000
0001
1000
,
0001
0000
0000
0000
,
0000
0000
0000
0000
,
1001
0000
0000
0000
,
0000
0000
0000
0000
,
1000
0000
0000
0000
,
0000
0000
0000
0000
,
0002
0000
2003
0000
,
3002
0000
2003
0000
,
3020
0000
0230
0000
,
0320
0000
0230
0000
,
0320
2030
3002
2003
,
3200
0320
0230
0320
,
0032
2003
3002
2003
3200
2300
3020
0230
,
0310
1000
0010
1000
0010
1000
0010
1000
0020
0000
0000
0000
0000
0000
0000
0000
,
2030
0000
3002
0000
,
0013
0010
0010
0000
,
1001
0000
0000
0101
0000
0000
1010
0000
,
0000
0110
0000
0000
2002
0000
3003
0000
,
0220
0000
0330
0000
0100
0010
0100
0010
,
1000
0001
1000
0001
0100
0001
0100
0001
,
0101
0000
0000
1010
0000
0000
0110
0000
,
0000
0101
0000
0000
2020
0000
3030
0000
,
2000
0000
0000
0000
3001
0000
0000
0010
0002
0000
0000
0000
0000
0000
0000
0000
,
0013
0010
0020
0030
,
1001
0000
0000
1010
0000
0000
1100
0000
,
0000
0011
0000
0000
0202
0000
0303
0000
,
0001
0000
1000
0000
0010
1000
0010
0100
,
0010
0001
0010
1000
0001
0010
0001
1000
,
2002
0000
3003
0220
0000
0330
0202
0000
,
0303
2002
0000
3003
2020
0000
3030
0000
,
0200
0000
0000
0000
0000
0020
0000
0000
,
0000
0300
0000
0030
,
2000
0000
0000
0000
3100
0000
0100
1000
,
0000
0000
0010
0100
0000
0000
0010
1000
,
0020
0000
0000
0000
0130
0000
0001
1000
,
0000
0000
0100
1000
0000
0000
0010
0000
,
0020
0000
0000
0000
1030
0000
0100
1000
,
0000
0000
0001
1000
0000
0000
0100
0010
,
0200
1000
1300
0001
,
1000
0001
1000
0000
0000
0000
0000
0000
0020
0000
0000
0000
0000
0000
0000
0000
,
1030
0000
0010
0000
0100
0000
0001
0010
,
0000
0000
0001
0100
0000
0000
0010
1000
,
2000
0000
0000
0000
3001
0000
0010
0001
,
0000
0000
0001
1000
0000
0000
1000
0000
,
2000
0000
0000
0000
3010
0000
0100
0010
,
0000
0000
0010
0100
0000
0000
0100
0001
,
2000
0000
3002
0000
,
0000
0000
0000
0000
,
2000
3003
2200
0000
,
0000
0000
0300
0000
3002
0000
0000
0003
,
2000
0000
0000
3000
0022
0000
0000
0000
,
0000
0000
0030
0000
2003
0000
0000
3000
,
2000
0000
0000
3000
1000
0001
1000
0001
,
0100
0010
0100
0010
0100
0001
0100
0000
,
0002
0100
0103
0000
,
0100
0010
0100
0000
0000
0000
0000
0000
0200
0000
0000
0000
0000
0000
0300
0000
,
0002
0000
0000
0003
0022
0000
0000
0000
,
0000
0000
0030
0000
2003
0000
0000
3000
,
0002
0000
0000
0003
2200
0000
0000
0000
,
0000
0000
0300
0000
3002
0000
0000
0003
,
0002
0000
0000
0003
0001
1000
0001
1000
,
0010
0100
0010
0100
0010
1000
0010
0000
,
2020
0000
3030
0000
;
