#TITLE:Barrel Of A Gun;
#ARTIST:X-Act;
#BANNER:X-Act - Barrel Of A Gun.png;
#BACKGROUND:X-Act - Barrel Of A Gun-bg.png;
#CDTITLE:.\CDTITLES\Electric Love-CD.png;
#MUSIC:X-Act - Barrel Of A Gun.MP3;
#OFFSET:-0.557;
#SAMPLESTART:137.6;
#SAMPLELENGTH:18.0;
#BPMS:0=97.92;
#BGCHANGES:0=X-Act - Barrel Of A Gun.AVI=1.33=0=0=1,121=X-Act - Barrel Of A Gun.AVI=1.28=0=0=1,999=-=1=0=0=0;

//---------------dance-single - ----------------
#NOTES:
     dance-single:
     :
     Beginner:
     1:
     0.105,0.119,0,0,0:
0000
0000
0000
0000
,
1000
0000
0000
0000
,
0001
0000
0000
0000
,
0010
0000
0000
0000
,
0001
0000
0000
0000
,
1000
0000
0100
0000
,
1000
0000
0000
0000
,
0001
0000
0010
0000
,
0001
0000
0000
0000
,
0100
0000
0010
0000
,
0100
0000
0000
0000
,
0001
0000
1000
0000
,
0010
0000
0000
0000
,
0001
0000
1000
0000
,
0010
0000
0000
0000
,
1000
0000
0000
0000
,
0001
0000
0000
0000
,
0100
0000
0010
0000
,
0100
0000
0000
0000
,
0001
0000
1000
0000
,
0100
0000
1000
0000
,
0001
0000
0010
0000
,
0001
0000
1000
0000
,
0001
0000
1000
0000
,
0001
0000
0010
0000
,
0001
0000
0100
0000
,
0001
0000
0000
0000
,
1000
0000
0100
0000
,
0010
0000
0100
0000
,
1000
0000
0001
0000
,
1000
0000
0010
0000
,
1000
0000
0000
0000
,
0001
0000
0010
0000
,
0001
0000
1000
0000
,
0100
0000
1000
0000
,
0001
0000
0100
0000
,
0010
0000
0010
0000
,
0010
0000
0001
0000
,
1000
0000
0001
0000
,
0100
0000
1000
0000
,
0010
0000
1000
0000
,
0001
0000
1000
0000
,
0100
0000
0010
0000
,
0100
0000
0100
0100
,
0100
0000
1000
0000
,
0001
0000
1000
0000
,
0010
0000
1000
0000
,
0001
0000
0100
0100
,
0100
0000
0010
0000
,
0010
0000
0010
0000
,
1000
0000
0001
0000
,
1000
0000
0100
0100
,
0100
0000
0010
0000
,
0100
0000
0010
0000
,
1000
0000
0001
0000
,
0001
0000
0000
0000
,
0001
0000
1000
0000
,
0100
0000
0000
0000
,
0100
0000
1000
0000
,
0000
0010
0000
1000
0000
0100
0000
1000
,
0000
0100
0000
0001
,
0000
1000
0000
0100
,
0000
1000
0000
0010
,
0000
1000
0000
0010
0000
1000
0000
0001
,
0000
1000
0000
0100
,
0000
1000
0000
1000
,
0000
0010
0000
0100
,
0000
0001
0000
1000
,
0000
1000
0000
0010
,
0000
0100
0000
0000
;

//---------------dance-single - ----------------
#NOTES:
     dance-single:
     :
     Easy:
     3:
     0.214,0.276,0.103,0,0:
0000
0000
0000
0000
,
1000
0000
0001
0000
,
0010
0000
0001
0000
,
1000
0000
0100
0000
,
0010
0000
0100
0000
,
1000
0001
1000
0000
,
0010
1000
0001
0000
,
1000
0100
1000
0000
,
0010
0100
0010
0000
,
0100
0000
0001
0000
,
1000
0001
1000
0000
,
0100
0000
1000
0000
,
0010
0100
0010
0000
,
1000
0001
1000
0001
,
1000
0001
1000
0000
,
0100
0010
0100
0000
,
1000
0100
1000
0000
,
0001
1000
0010
0010
,
1000
0001
0100
0000
,
0010
0100
0001
0100
,
0010
0100
0001
1000
,
0100
0010
0100
1000
,
0100
0010
0100
1000
,
0010
0100
0001
0100
,
0010
0100
0001
1000
,
0100
0000
1000
0100
0000
0100
1000
0000
,
0010
0000
0100
0000
,
0001
0001
0100
0001
,
1000
1000
0001
0001
,
0010
0001
1000
1000
,
0001
0100
0010
0100
,
0001
0001
1000
0001
,
1000
1000
0001
0010
,
0001
0001
1000
0100
,
0010
0010
0100
1000
,
0001
0001
0100
0001
,
0100
0000
0100
0000
0010
0010
0000
0000
,
0100
0001
0100
0100
,
0001
0000
0001
0000
1000
1000
0000
0000
,
0100
1000
0001
0001
,
0010
0001
0001
1000
,
0001
0001
0010
0000
,
0001
0000
1000
0100
,
1000
1000
1001
1001
,
0010
0001
1001
1000
,
1001
0001
1001
1000
,
1001
0001
1001
1000
,
1001
0001
1001
1001
,
1000
0000
0001
0010
,
0011
0000
0001
1000
,
1001
0001
0001
0100
,
0110
0100
1001
1001
,
1000
1000
0001
1000
,
1001
1000
0010
0100
,
0110
0100
0001
1000
,
1001
0001
1000
0001
,
1000
0000
1000
0010
0000
1000
0010
0000
,
0100
0000
0100
0001
,
0100
0100
0001
1000
,
0000
0010
0000
1000
0000
0100
0000
1000
,
0000
0000
0010
0010
0000
0100
0100
0000
,
0000
0001
1000
0001
,
0100
0010
0100
0001
,
0000
1000
0000
0001
0000
1000
0000
0100
,
0000
0000
1000
1000
0000
0001
0001
0010
,
0000
0001
1000
0001
,
0001
0100
0010
0100
,
0000
0000
0001
1000
0000
0000
1000
0100
,
0000
1000
0010
1000
,
0001
0000
0000
0000
;

//---------------dance-single - ----------------
#NOTES:
     dance-single:
     :
     Medium:
     5:
     0.362,0.381,0.166,0.080,0:
0000
0000
0000
0000
,
1000
0000
0001
0000
0100
0001
0100
0000
,
0010
0000
1000
0000
0100
1000
0010
0000
,
1000
0000
0001
0000
1000
0100
0010
0000
,
0100
0000
0010
0000
0001
0010
0001
0000
,
0100
0000
0101
0000
0001
1000
0100
0000
,
1000
0000
1010
0000
0010
1000
0100
0000
,
0010
0000
0110
0000
0010
0001
0010
0000
,
0001
0000
0101
0000
0001
1000
0100
0000
,
0010
0100
0010
0000
0001
0010
0001
0000
,
0100
0001
0100
0000
0010
0100
0010
0000
,
1000
0010
1000
0000
0001
1000
0001
0000
,
1000
0100
1000
0100
1000
0100
0010
0000
,
0100
0010
0001
0010
0001
0100
0001
0000
,
0100
0010
0100
0010
1000
0010
1000
0000
,
0100
1000
0100
1000
0100
0010
0100
0000
,
0010
0001
0010
0001
0100
0001
0100
0000
,
0010
0100
0010
0100
0001
0100
0101
0000
,
0001
1000
1100
0000
0100
1000
1010
0000
,
0010
0100
0010
0100
0010
0100
0010
0100
,
0001
0100
0001
0100
0001
0100
0001
0000
,
1000
0100
1000
0100
1000
0100
0010
0100
,
0010
0100
0010
0100
0010
0100
0010
0000
,
0100
1000
0001
1000
0001
0100
0001
0100
,
0010
0100
0010
0100
0010
1000
0010
0000
,
1000
0100
1000
0100
0010
0001
0010
0001
,
1000
0010
1000
0010
0100
0010
0100
0000
,
0010
0100
0010
0000
0100
0100
0001
0000
,
0100
0100
0010
0000
0100
0100
0001
0000
,
1000
0100
0100
0000
1000
1000
0010
0000
,
1000
1000
0100
0000
0010
0010
0100
0000
,
1000
0100
1100
0000
0100
1000
1010
0000
,
0010
0010
0110
0000
0100
0001
0101
0000
,
0001
1000
1001
0000
0100
0100
1100
0000
,
1000
0010
1010
0000
0010
0010
0110
0000
,
0100
0001
0100
0001
0001
0100
0101
0000
,
0100
0100
0010
0100
0001
1000
1001
0000
,
0001
0001
0010
0001
0100
0100
0101
0000
,
0001
1000
1000
0100
0010
0010
0110
0000
,
0010
0001
0010
0000
0001
0100
0001
0000
,
1000
0001
1000
0000
0100
0010
0100
0000
,
0010
0001
0010
0000
0100
0010
0100
0000
,
1000
0100
1000
0000
0010
1000
0010
0000
,
0100
0010
0100
0010
0100
0001
0101
0000
,
0001
1000
0001
0000
1000
0100
1000
0000
,
0010
1000
0010
0000
0100
0010
0100
0000
,
0100
0100
0010
0000
1000
1000
0010
0000
,
1000
1000
0001
0000
1001
1001
1001
1001
,
0001
0000
1000
0000
0010
1000
0001
0001
,
0000
0100
0100
0000
0110
0000
0100
0000
,
0001
0001
1000
1000
0100
0100
0010
0002
,
0000
0000
1003
0000
1100
1100
1100
1100
,
1000
0000
1000
0000
0010
0010
1000
0010
,
0000
0010
0100
0000
0001
0001
0100
0000
,
0010
0000
0100
0001
0000
0001
2000
0000
,
0100
0000
0000
0000
,
3000
0000
1000
1000
0000
0001
0001
0100
,
0000
0000
0000
0000
,
0001
1000
0001
1000
0001
1000
0100
0000
,
0000
2000
3000
0020
0030
0200
0300
0020
,
0030
0000
1000
1000
0000
0001
0010
0002
,
0003
0000
0000
0000
,
0100
0100
0010
1000
0001
1000
0001
0000
,
0000
0200
0300
0020
0030
2000
3000
0020
,
0030
0000
1000
0001
0000
0100
0001
0100
,
0000
0000
0100
0010
0000
0010
1000
1000
,
0000
0100
0010
0001
0010
0001
1000
0000
,
0000
0000
0001
0200
0300
0000
0010
2000
,
3000
0000
0001
0001
0000
1000
0100
0010
,
0000
0000
0100
1000
0000
0001
0100
0020
,
0000
0030
0000
0000
0000
0000
0000
0000
;

//---------------dance-single - ----------------
#NOTES:
     dance-single:
     :
     Hard:
     8:
     0.539,0.650,0.435,0.166,0.309:
0000
0000
0000
0000
,
1000
0000
0001
0000
1000
0100
0000
0000
0100
0000
0010
0000
0100
0010
0000
0000
,
0010
0000
0010
0000
0001
0010
0000
0000
0010
0000
0001
0000
1000
0001
0000
0000
,
1000
0000
1000
0000
0010
0100
0000
0000
0010
0000
1000
0000
0001
1000
0000
0000
,
0001
0000
0001
0000
0100
0001
0000
0000
0100
0000
0100
0000
0010
0100
0000
0000
,
0010
0000
0010
0000
0100
0010
0100
0000
0100
0000
0100
0000
0010
0100
0000
0000
,
0100
0000
0100
0000
0001
0100
0001
0000
1000
0000
1000
0000
0100
1000
0000
0000
,
1000
0000
1000
0000
0010
0100
0010
0000
1000
0000
1000
0000
0100
1000
0100
0000
,
0010
0000
0010
0000
0100
0010
0001
0000
0100
0000
0100
0000
0010
0100
0010
0000
,
0100
0100
0010
0010
0101
0000
0001
0000
,
1000
1000
0001
0001
0101
0000
1000
0000
,
0001
0001
1000
1000
0110
0000
0110
0000
,
0100
0100
1001
0000
1001
0000
1001
0000
,
1000
1000
0100
0100
1100
1100
1000
0000
,
1010
0010
0100
0100
0110
0110
0100
0000
,
0101
0001
0100
0001
0101
0101
0100
0010
,
1010
0010
1000
0100
1100
1100
0001
0010
,
0011
0001
0001
1000
1001
1001
0001
0100
,
0010
0100
0010
0100
0001
0100
0001
0100
0001
0100
0001
0100
0010
0100
0010
0000
,
0010
1000
0010
1000
0010
0000
0100
0000
0010
1000
0010
0100
0010
0000
0100
0000
,
0001
0100
0001
0100
0001
0000
0010
0000
0100
0010
0100
0010
0100
0000
0010
0000
,
0001
0100
0001
0100
0001
0000
0100
0000
0010
0100
0010
0100
0001
0000
0010
0000
,
0100
0010
0100
0010
0100
0000
0010
0000
0001
0010
0001
0010
0001
0000
0100
0000
,
0010
0100
0010
0100
0010
0000
1000
0000
0010
0100
0010
1000
0010
0000
1000
0000
,
0100
1000
0001
0100
0001
0000
1000
0000
0100
0010
0100
0010
0001
0000
0100
0000
,
0010
0100
0010
0100
0010
0100
0010
0100
0001
0100
0001
0100
0001
0100
0001
1000
,
0001
1000
0001
1000
0001
1000
0001
1000
0001
1000
0001
1000
0001
0000
0000
0000
,
1001
0000
0001
0000
0101
0101
0001
0000
,
1100
0000
1000
0000
1010
1010
0010
0000
,
0100
0010
0100
0010
0100
0010
0100
0010
0100
0010
0100
0010
0100
0010
0100
0010
,
0100
0001
0100
0001
0100
0001
0100
0001
0100
0001
0100
0001
0100
0001
0100
0000
,
0101
0000
0001
0000
1001
1001
1000
0000
,
1100
0000
0100
0000
1100
1100
1000
0010
,
1000
0010
0100
0010
0000
0000
0000
0000
0110
0000
0110
0000
0100
0000
0000
0000
,
0110
0000
1000
0000
0110
0110
0010
0000
,
0100
0000
0020
0000
0030
2000
0000
3000
1002
0000
1000
0000
0003
0000
0000
0000
,
1100
0000
0010
0000
0110
0110
0100
0000
,
0010
0001
0010
0100
0000
0000
0100
0000
1100
0000
1100
0000
1000
0000
0000
0000
,
0100
0000
0100
1000
0010
0000
0000
0000
1100
0000
1100
0000
0100
0000
0000
0000
,
1000
1000
0010
0010
0200
0000
0301
1000
,
0001
0001
1000
0001
1000
1000
0100
0000
,
1000
0010
1000
0001
0010
0010
0011
0000
,
0001
0001
1000
0001
1001
1001
0001
0000
,
0010
0001
0100
0100
0110
1001
0110
1001
,
0010
1000
0010
1000
0110
0100
0010
0100
,
0110
0100
0001
1000
1001
0001
1000
0100
,
1100
1000
0010
1000
1001
0001
0010
0001
,
0011
0010
0001
0100
1001
0110
1001
0110
,
2000
0000
3010
0000
0100
0001
0001
1000
,
0000
2000
0200
3300
1100
0100
0100
1000
,
1010
0010
0100
0010
1001
0001
0100
0010
,
1001
0100
0001
0100
0011
0101
1010
1100
,
0101
0100
0010
0010
0110
0010
0100
0100
,
1001
1000
0001
0001
1100
0100
0100
1000
,
0010
0100
0010
0100
0010
0100
0001
0000
0001
0100
0001
0100
0001
0100
0001
0000
,
0001
1000
0001
1000
0001
1000
0001
1000
0001
1000
0100
1000
0100
1000
0100
1000
,
1100
0000
1000
0010
0000
0010
2000
0002
,
3003
0000
0000
0000
,
0000
0000
1000
0000
0010
0100
0010
0100
0010
0100
0010
0100
0010
0000
0000
0000
,
0100
0002
0000
2003
0000
3200
0000
2300
,
0000
3000
0001
0001
0000
0010
0020
0002
,
0033
0000
0000
0000
,
0100
0000
0100
0000
0010
1000
0010
1000
0010
1000
0010
1000
0001
0000
0000
0000
,
0000
0200
0000
0320
0000
0032
0000
0023
,
0000
0030
1000
0001
0000
0100
0001
0100
,
0000
0000
0200
0010
0300
0020
1000
2030
,
0000
0000
3100
0000
0010
0001
0010
0001
0010
0001
0010
0001
1000
0000
0000
0000
,
0000
0000
0001
0200
0000
0300
0010
2000
,
0000
3000
0001
0001
0000
1000
0100
0010
,
0000
0000
0200
2000
0300
3002
0100
0023
,
0000
0200
0000
0000
0000
0000
0000
0000
,
0330
0000
0000
0000
;
