#TITLE:2011 The Aftermash;
#ARTIST:DJ McFLY;
#BANNER:2011 The Aftermash-BN.png;
#BACKGROUND:2011 The Aftermash-BG.png;
#LYRICSPATH:2011 The Aftermash.lrc;
#CDTITLE:.\CDTITLES\2011.png;
#MUSIC:2011 The Aftermash.mp3;
#OFFSET:-0.055;
#SAMPLESTART:42.0;
#SAMPLELENGTH:13.5;
#DISPLAYBPM:154;
#BPMS:0=154.76,108=158.5,112=153.46,176=154,215=153.46,251=153,252=153.78,344=154,360=153.7,392=153.46,416=153.64;
#BGCHANGES:-0.1=2011 The Aftermash.AVI=1.2=1=1=0,460.75=2011 The Aftermash-BG2.png=1=1=0=1,999=-=1=0=0=0;

//---------------dance-single - ----------------
#NOTES:
     dance-single:
     :
     Beginner:
     1:
     0.104,0.159,0.000,0.011,0.000:
0000
0000
0000
0000
,
0000
0000
0000
0000
,
0000
0000
0000
0000
,
0000
0000
0000
0000
,
0000
0000
0000
0000
,
0000
0000
0000
0000
,
0000
0000
0000
0000
,
0000
0000
0000
0000
,
1000
0000
0001
0000
,
0100
0000
0000
0000
,
0001
0000
1000
0000
,
0100
0000
0000
0000
,
0010
0000
0100
0000
,
0010
0000
0001
0000
,
0100
0000
0000
0000
,
0100
0000
0000
0000
,
0010
0000
0000
0000
,
0010
0000
0000
0000
,
1000
0000
0001
0000
,
1000
0000
0000
0000
,
0010
0000
0000
0000
,
0100
0000
0000
0000
,
0010
0000
0000
0000
,
1000
0000
0000
0000
,
0001
0000
0000
0000
,
0001
0000
0000
0000
,
0001
0000
0001
0000
,
0001
0000
0000
0000
,
1000
0000
0100
0000
,
1000
0000
0000
0000
,
0010
0000
0100
0000
,
0010
0000
0000
0000
,
1000
0000
0001
0000
,
1000
0000
0000
0000
,
0001
0000
0000
0000
,
0100
0000
0010
0000
,
0100
0000
0000
0000
,
0001
0000
0000
0000
,
1000
0000
0001
0000
,
1000
0000
0000
0000
,
0001
0000
0000
0000
,
0010
0000
0000
0000
,
0001
0000
0000
0000
,
1000
0000
0000
0000
,
0100
0000
1000
0000
,
0001
0000
0010
0000
,
0010
0000
0000
0000
,
0001
0000
1000
0000
,
0001
0000
0000
0000
,
0100
0000
0010
0000
,
0100
0000
0000
0000
,
0001
0000
0000
0000
,
1000
0000
0000
0000
,
1000
0000
0000
0000
,
0001
0000
0000
0000
,
0001
0000
1000
0000
,
0100
0000
0000
0000
,
1000
0000
0010
0000
,
1000
0000
0000
0000
,
0001
0000
0100
0000
,
0010
0000
0000
0000
,
0100
0000
0001
0000
,
1000
0000
0000
0000
,
0001
0000
0000
0000
,
0010
0000
0000
0000
,
0001
0000
0000
0000
,
1000
0000
0000
0000
,
0100
0000
0000
0000
,
1000
0000
0000
0000
,
0010
0000
0100
0000
,
0010
0000
0000
0000
,
2000
0000
0000
0000
,
0000
0000
0000
0000
,
0000
0000
0000
0000
,
0000
0000
3000
0000
,
0002
0000
0000
0000
,
0000
0000
0000
0000
,
0000
0000
0000
0000
,
0000
0000
0003
0000
,
1000
0000
0010
0000
,
1000
0000
0000
0000
,
0001
0000
0100
0000
,
0001
0000
0000
0000
,
1000
0000
0010
0000
,
1000
0000
0000
0000
,
0001
0000
0100
0000
,
0001
0000
0000
0000
,
0000
0000
0000
0000
,
0000
0000
0000
0000
,
0000
0000
0000
0000
,
0000
0000
1000
0000
,
0001
0000
0010
0000
,
0000
0000
0001
0000
,
0010
0000
0100
0000
,
0000
0000
0010
0000
,
0001
0000
0100
0000
,
0000
0000
0010
0000
,
0000
0000
0000
0000
,
0000
0000
0010
0000
,
1000
0000
0001
0000
,
0000
0000
0100
0000
,
0000
0000
0010
0000
,
0000
0000
0100
0000
,
0001
0000
0100
0000
,
0000
0000
0010
0000
,
0000
0000
1000
0000
,
0001
0000
1000
0000
,
0000
0000
0100
0000
,
0000
0000
1000
0000
,
0001
0000
1000
0000
,
0000
0000
0010
0000
,
0000
0000
0100
0000
,
0000
0000
0100
0000
,
0010
0000
1000
0000
,
0000
0000
0001
0000
;

//---------------dance-single - ----------------
#NOTES:
     dance-single:
     :
     Hard:
     8:
     0.597,0.669,0.500,0.072,0.145:
2002
0000
0000
0000
0000
0000
3003
1000
,
0001
0000
0000
0000
0000
0001
1000
0001
,
1000
0001
1000
0100
0010
0100
0010
0001
,
0010
0001
1000
0001
1000
0100
0010
0000
,
0100
1000
0100
1000
0010
0100
0010
0100
,
0001
0000
1000
0001
0000
0001
1000
0000
1000
0001
0000
0001
1000
0000
1000
0000
,
0001
0000
0001
1000
0000
0001
0100
0010
,
0010
0100
0000
0001
0000
1000
1001
0000
,
0001
1000
0010
1000
0010
0110
0000
0010
,
0100
0001
1000
0001
1001
0000
1010
0000
,
0100
0010
0100
0010
0100
0100
0001
0000
,
0001
1000
0001
0000
0001
0000
0100
0000
0100
0000
0010
0000
0110
0000
0000
0000
,
0100
0001
0100
0001
1000
1000
0000
0001
,
1000
0100
0010
0100
0010
0010
0001
0010
,
0001
0000
0001
0000
0100
0000
0010
0100
,
0000
0000
0001
0100
0000
0000
0001
1000
,
0001
1000
0100
0100
0010
0100
1000
0000
,
0001
1000
0001
1000
0001
0100
0110
0000
,
0100
0000
0010
0000
0100
0000
0010
0000
1000
0000
0010
1000
0000
0000
0000
0000
,
0001
1000
0001
1000
1100
0000
0100
0010
,
0100
1000
0100
1000
0001
1000
1000
0001
,
0101
0000
0000
0110
0000
0000
1001
0000
0101
0000
0000
0000
0001
0000
0100
0000
,
0010
0000
0010
1000
0001
0000
0001
1000
,
0000
0000
0000
0100
0000
0100
1000
0100
,
2200
0000
0000
0000
0000
0000
0000
0300
,
0002
0000
0000
0000
0000
0000
0000
3000
,
0020
0000
0000
0003
0002
0000
0030
0103
,
0010
0000
0100
0010
0010
0100
0000
0010
,
0000
0010
0100
0000
0001
0000
1000
0001
,
0001
0000
1000
0100
0000
1000
0100
1000
,
0010
0100
0010
1000
0010
1000
1000
1000
,
0010
0000
0010
1000
0001
0001
1000
0100
,
0000
0000
0010
0100
0010
0100
0010
0000
,
1001
0000
0000
0100
0010
0100
0001
0100
,
0002
0000
0100
0000
0000
1000
1000
1000
,
1000
0000
0010
0000
0010
0000
0100
0003
,
0100
0010
0010
1000
,
1000
0001
1000
0001
1000
0000
1000
0000
,
0100
0000
0000
0000
0010
0000
0000
0000
0110
0000
1000
0001
0000
1000
0000
0100
,
0000
0000
0000
0000
1100
0000
0100
1000
0000
0010
0000
0100
0000
0010
0000
1010
,
0000
1000
0100
1000
,
0001
0010
0100
0010
0001
0000
0001
0000
,
0001
0000
0000
0000
1010
0000
1000
0100
0000
1000
0000
0100
0000
0010
0000
0011
,
0000
0000
0110
0011
0000
0000
0100
0000
,
0010
0000
1000
0001
1000
0001
0100
0000
,
0110
0000
0100
0001
1000
0100
0010
0000
,
1100
0000
1000
0000
0001
0000
0100
0100
,
0001
0000
0001
0100
0000
0100
0010
0000
,
0110
0000
0010
1000
0001
1000
0001
0000
,
1001
0000
0100
0010
0100
0010
0100
0010
,
0010
0000
0001
0000
0100
0010
0100
0001
,
1000
0000
0001
1000
0100
0010
0100
0010
,
0100
0000
0000
0010
0100
0000
0010
0000
0100
0000
0000
0100
1000
0000
1000
0000
,
0010
0000
0010
0100
0100
0010
0010
0000
,
0100
0000
0100
0001
1000
0001
0000
1000
,
0000
1000
1010
0000
0110
0000
0100
0010
,
0010
0000
1000
1000
0000
0001
0010
0100
,
0010
0010
0001
0001
1000
1000
0001
0001
,
0010
0000
0010
0100
0010
0100
1000
1001
,
0000
0000
0010
0100
0010
1000
0010
0000
,
0110
0000
0000
1000
0010
0100
0010
1000
,
2000
0000
0001
0000
0000
0100
0100
0100
,
0100
0000
0010
0000
0010
0000
0010
3000
,
0200
0000
0010
0010
,
0020
0030
0001
0001
0000
0000
0010
0000
,
0001
0000
0001
0000
0001
0000
1000
1000
,
1000
0000
1000
1000
0000
0001
0301
0010
,
0010
0100
0010
0100
0010
0000
0010
0100
,
0001
0100
1000
0000
1000
0001
1000
0100
,
1000
0100
1000
0100
0001
0100
0010
0100
,
1000
0000
1000
0001
0000
0000
1000
0000
,
2002
0000
0000
0000
3003
0000
0000
0000
0001
1000
0001
1000
0001
0000
0000
0000
,
0100
0010
0100
0010
0100
0000
0000
0000
0001
1000
0001
1000
0001
0000
0000
0000
,
1000
0100
1000
0100
1000
0000
0000
0000
0100
0010
0100
0010
0100
0000
0000
0000
,
0010
0000
0001
0000
0010
0000
0000
0000
0001
1000
0001
1000
0001
1000
0001
0000
,
0000
0000
0000
0000
0000
0000
0000
0000
0001
0100
0001
0100
0001
0000
0000
0000
,
1000
0100
1000
0100
1000
0000
0000
0000
1010
0000
1001
0000
0000
0000
0000
0000
,
0100
0001
0100
0001
0100
0000
0000
0000
1000
0001
1000
0001
1000
0000
0000
0000
,
0001
0100
0001
0100
0001
0000
0000
0000
0010
0100
0010
0100
0010
0000
0000
0000
,
1010
0101
1010
0101
,
0110
1001
0110
1001
,
0011
1100
0011
1100
,
0110
1001
0110
1001
,
0101
1010
0101
1010
,
0110
1001
0110
1001
,
1100
0011
1100
0011
,
0000
0000
0000
0000
,
0000
0000
0000
0000
,
0000
0000
0000
0000
,
0000
0000
0000
0000
0000
0000
0000
0001
,
1000
0001
1010
1100
,
0110
0000
0000
1100
0000
0000
0101
0000
0110
0000
0000
0000
0001
0000
0000
0000
,
1000
0001
1000
0001
1010
0000
1100
0000
,
0101
0000
0000
0110
0000
0000
1010
0000
0110
0000
0000
0000
0100
0000
0000
0000
,
0100
0001
0100
0010
0100
0000
0110
0000
,
0101
0000
0000
1001
0000
0000
1100
0000
1010
0000
0000
0000
0010
0000
0000
0000
,
0010
0100
0010
0010
0010
0000
1000
1000
,
0000
0100
0010
0100
0000
0010
0001
1000
,
0001
0001
0000
0100
0000
0100
0001
0000
,
0001
0000
0100
0010
0100
0000
0010
0100
,
0000
0001
0010
0100
0010
0001
1000
0010
,
0100
0010
1000
0010
0100
0010
1000
0100
,
0010
0100
1000
0001
0000
0000
0001
0100
,
0010
0100
0001
0000
1001
0000
0000
0001
,
1000
0100
0010
0100
1000
0000
0101
0000
,
0000
0100
0010
0100
0010
0000
1001
0000
,
0101
0000
0011
0000
0010
0010
0001
0010
,
0010
0001
0000
0001
1000
0010
1000
1000
,
0001
0000
0001
0000
0000
0010
0001
0010
0000
0000
0000
0000
0001
0000
0010
0000
,
0000
0000
0001
1000
0000
0101
0000
1010
,
0000
0101
0000
0000
1000
1000
0010
0100
,
0010
1000
0000
0001
1000
0100
0010
0100
,
0010
0010
0000
0110
0000
0000
0100
1000
,
0000
0000
0100
0010
0000
0011
0000
0101
,
0000
1010
0000
0000
1001
0000
0000
0000
;

//---------------dance-single - ----------------
#NOTES:
     dance-single:
     :
     Medium:
     6:
     0.423,0.446,0.095,0.128,0.028:
0000
0000
0000
0000
0000
0000
0000
1000
,
0001
0000
0000
0000
0000
0001
1000
0001
,
1000
1000
0010
0010
,
0100
0100
0010
0010
,
1000
0001
0010
0001
1000
0000
1000
0000
,
1000
0000
0000
0001
0000
0000
1000
0000
0000
0001
0000
0000
1000
0000
1000
0000
,
0001
0000
0001
1000
0000
0001
0100
0010
,
0010
0000
0000
1000
0000
1000
0001
0000
,
0001
1000
0010
1000
0010
0000
0000
0000
,
0100
0001
1000
0001
1000
0000
1000
0000
,
0100
0010
0100
0000
0100
0100
1000
0000
,
0001
1000
0001
0000
0100
0010
0100
0000
,
0100
0001
0100
0000
0001
1000
0000
0001
,
1000
0100
0010
0000
0010
0010
0000
0000
,
0001
0000
0001
0000
0100
0000
0010
0100
,
0000
0000
0001
0100
0000
0000
0001
1000
,
0000
0000
0100
0000
0010
0100
1000
0000
,
0001
0000
0001
0000
0001
0100
0010
0000
,
0100
0000
0010
0000
0100
0000
0000
0000
0001
0000
0000
1001
0000
0000
0000
0000
,
0001
1000
0001
0000
0100
0000
0100
0000
,
0100
0001
0100
0010
1000
0000
1000
0000
,
0001
0000
0000
0100
0000
0000
0001
0000
0100
0000
0000
0000
0001
0000
0100
0000
,
0010
0000
0010
1000
0001
0000
0001
1000
,
0000
0000
0000
0100
0000
0100
1000
0100
,
2000
0000
0000
0000
,
0002
0000
0000
0000
0000
0000
0000
3000
,
0020
0000
0000
0003
0002
0000
0030
0103
,
0010
0000
0100
0010
0010
0100
0000
0010
,
0000
0010
0100
0000
0001
0000
1000
0001
,
0001
0000
1000
0100
0000
1000
0100
1000
,
0010
0000
0010
0000
0010
1000
1000
0000
,
0010
0000
0010
1000
0001
0000
1000
0100
,
0000
0000
0010
0100
0010
0100
0010
0000
,
0001
0000
0000
0100
0010
0100
0001
0100
,
0002
0000
0100
0000
0003
0001
1000
0001
,
1000
0010
0010
0000
,
0010
0010
0010
1000
,
1000
0001
1000
0000
1000
0000
1000
0000
,
0100
0000
0010
0000
0100
1000
0001
0000
,
0100
0000
1000
0100
1000
0000
0100
0000
,
0001
0001
0010
1000
,
0001
0000
0100
0010
0001
0000
0001
0000
,
0001
0000
1000
1000
0100
0000
0100
0010
,
0001
0000
0100
0010
0000
0000
0100
0000
,
0010
0000
1000
0001
1000
0001
0100
0000
,
0010
0000
0100
0001
1000
0100
0010
0000
,
0100
1000
0001
0100
,
0001
0000
0001
0100
0000
0100
0010
0000
,
0100
0000
0010
1000
0001
0000
0001
0000
,
1000
0000
0100
0010
0100
0000
0100
0010
,
0100
0000
1000
0000
0100
0010
0100
0010
,
0001
0000
0001
1000
0000
0000
0100
0000
,
0100
0000
0000
0010
0000
0000
0010
0000
0100
0000
0000
0100
0000
0000
1000
0000
,
0100
1000
0010
0100
,
0100
0000
0100
0001
0100
0010
0000
0100
,
0000
0100
0010
0000
1000
0000
0001
1000
,
1000
0000
0001
0010
0000
0001
0010
0001
,
0100
0000
0100
0000
0100
0001
0001
0000
,
0100
0000
0100
0001
1000
0000
0001
0010
,
0000
0000
0100
0010
0100
0010
0100
0000
,
1000
0000
0000
0010
0100
0010
1000
0010
,
2000
0000
0010
0000
3000
1000
0001
1000
,
0001
0100
0100
0100
,
0220
0000
0000
0000
,
0000
0000
0000
0330
,
1000
0000
0001
0000
1000
0000
1000
0100
,
1000
0000
0010
1000
0000
0000
0010
0100
,
0010
0010
0010
1000
,
1000
0000
0001
0000
0001
0000
1000
0100
,
0100
1000
0100
0001
0100
0010
0100
0010
,
0100
0000
0010
0001
0000
0000
1000
0000
,
2200
0000
0000
3000
0010
0000
0020
0300
,
0001
0030
0010
0000
0001
0000
0100
0000
,
0220
0000
0000
0300
0100
0000
0100
0030
,
0010
0100
0001
1000
,
2200
0000
0000
3000
1000
0000
2000
0300
,
0010
3000
0020
0000
0200
0030
0001
0300
,
0202
0000
0000
0300
0100
0000
0200
0003
,
0010
0000
0020
0300
1000
0000
1000
0030
,
0001
1000
0001
1001
,
1000
0001
1000
1001
,
0001
1000
0001
1001
,
1000
0001
1000
1001
,
0010
0100
0010
0110
,
0100
0010
0100
0110
,
0010
0100
0010
0110
,
0000
0000
0000
0000
,
0000
0000
0000
0000
,
0000
0000
0000
0000
,
0000
0000
0000
0000
,
0001
1000
0001
0001
,
0010
0000
0000
0010
0000
0000
0001
0000
0001
0000
0000
0000
0000
0000
0000
0000
,
1000
0100
1000
1000
,
0001
0000
0000
0001
0000
0000
0100
0000
0100
0000
0000
0000
0000
0000
0000
0000
,
0001
1000
0010
0010
,
0100
0000
0000
0100
0000
0000
0100
0000
0010
0000
0000
0000
0000
0000
0000
0000
,
0100
0000
0001
0000
1000
0000
0100
0010
,
0000
0100
0010
0100
0000
0000
0000
0000
,
0000
0000
1000
0001
,
0100
0100
0010
0100
,
0101
0000
0001
1000
,
0100
0100
0010
0100
,
0010
0000
0100
0000
1100
0000
1000
0010
,
0100
0000
0100
0000
0110
0000
0000
0100
,
0010
0100
0001
1000
,
0000
0001
0001
0001
0001
0000
0100
0000
,
0100
0000
0001
0001
,
1000
0000
0100
0100
,
1000
0000
0001
0000
0000
2000
0000
3000
0000
0000
0000
0000
1000
0000
1000
0000
,
0000
0000
0010
0010
0000
0100
0000
0010
,
0000
0100
0000
0000
0001
0000
0001
0000
,
1000
0000
0100
0100
,
0010
0010
0000
0100
0000
0000
0100
1000
,
0000
0000
1000
0001
0000
1000
0000
0001
,
0000
1000
0000
0000
1001
0000
0000
0000
;

//---------------dance-single - ----------------
#NOTES:
     dance-single:
     :
     Easy:
     3:
     0.264,0.318,0.022,0.050,0.000:
0000
0000
0000
0000
,
1000
0000
0000
0000
,
0001
0000
0010
0000
,
0001
0000
1000
0000
,
0001
0001
0001
0000
,
1000
0000
0100
0000
,
1000
0000
0001
0000
,
0100
0000
0010
0000
,
0100
0010
0100
0000
,
0001
1000
0001
0000
,
1000
0000
0100
0000
,
0010
0000
0001
0000
,
0100
0001
0100
0000
,
0010
1000
0010
0000
,
1000
0100
1000
0000
,
0100
0010
0100
0000
,
0010
0001
0010
0001
,
0100
0010
0100
0010
,
1000
0000
0001
0000
,
1000
0001
1000
0100
,
1000
0000
0100
0000
,
0010
0000
0100
0000
,
1000
0001
1000
0001
,
0100
0000
0010
0000
,
0100
0000
0000
0000
,
0100
0000
0000
0000
,
0100
0000
0100
0000
,
0100
0001
1000
1000
,
0001
0100
0010
0100
,
0010
0010
1000
0000
,
0001
0100
0001
0001
,
1000
0100
0010
0100
,
0010
0100
1000
0100
,
1000
0000
0100
1000
,
0010
0100
0001
0100
,
0010
1000
0100
0000
,
1000
0001
0100
0001
,
0100
0001
1000
0100
,
1000
1000
0100
0000
,
1000
1000
0010
0000
,
0100
0010
1000
0001
,
0100
0010
0100
0100
,
0001
0100
0001
0000
,
0100
0000
0001
0000
,
1000
0100
0010
0001
,
0010
0100
0010
0001
,
0100
0010
0100
0100
,
0010
0100
0001
1001
,
0001
1000
0001
1000
,
0100
0100
1000
0100
,
1000
1000
0010
0100
,
0010
1000
0001
0001
,
1000
0000
0001
0000
,
1000
0100
0100
1000
,
0100
0000
0100
0000
,
1000
0001
1000
1000
,
0010
0100
0010
0000
,
0100
0100
0001
1000
,
0001
1000
0100
0010
,
0010
0100
0010
0001
,
0100
0000
0001
0100
,
0010
0000
0100
0000
,
0001
0000
0100
0000
,
0010
0000
0010
0000
,
1000
0000
1000
0000
,
0001
0000
0001
0000
,
1000
0000
1000
0000
,
0010
0100
0010
0000
,
1000
0000
0001
0000
,
1000
0001
1000
0001
,
1000
0000
0001
0000
,
2000
0000
0000
3000
,
0020
0000
0230
0000
,
0302
0000
0003
0000
,
1000
0100
1000
0000
,
0002
0000
0203
0000
,
0302
0000
2003
0000
,
3100
0000
0010
0000
,
0100
1000
0001
1000
,
0001
0001
1000
1000
,
0001
0001
1000
1000
,
0001
0001
1000
1000
,
0001
0001
1000
0010
,
1000
1000
0001
0001
,
1000
1000
0001
0001
,
1000
1000
0001
0001
,
1000
0000
0000
0000
,
0000
0000
0000
0000
,
0000
0000
0000
0000
,
0000
0000
0000
0000
,
0000
0000
0010
0100
,
0010
0000
0100
0000
,
0001
0000
1000
0001
,
0100
0000
0001
0000
,
1000
0000
0010
0010
,
0100
0000
0010
0000
,
0100
0000
0001
0000
,
0020
0000
0000
0030
,
0100
0000
0100
0010
,
0100
0010
0001
0000
,
0100
0000
0010
0100
,
0010
0010
1000
0000
,
0100
0000
0100
1000
,
0100
1000
0001
0000
,
0100
0000
0100
0100
,
0000
0001
1000
1000
,
0001
0000
1000
0001
,
1001
0000
1000
0001
,
0100
0010
0100
0000
,
0100
0000
0001
0000
,
0001
0000
1000
0100
,
1100
0000
0100
0010
,
0100
0000
1000
0000
,
0001
0000
1000
0000
,
0100
0000
1001
0000
;
