#TITLE:citrus;
#SUBTITLE:;
#ARTIST:kamome sano;
#TITLETRANSLIT:;
#SUBTITLETRANSLIT:;
#ARTISTTRANSLIT:;
#GENRE:;
#CREDIT:Silverhawke;
#MENUCOLOR:;
#METERTYPE:DDR;
#BANNER:;
#BACKGROUND:;
#LYRICSPATH:;
#CDTITLE:;
#MUSIC:citrus.ogg;
#OFFSET:0.000;
#SAMPLESTART:61.211;
#SAMPLELENGTH:15.000;
#SELECTABLE:YES;
#LISTSORT:;
#BPMS:0.000=174.000;
#STOPS:;
#BGCHANGES:;
#ATTACKS:;

//---------------dance-single - ----------------
#NOTES:
     dance-single:
     :
     Hard:
     13:
     0.739,0.894,0.475,0.734,0.221: // measure 1
0000
0000
0000
0000
,  // measure 2
0000
0000
0000
0000
,  // measure 3
0000
0000
0000
0000
,  // measure 4
0000
0000
0000
0000
,  // measure 5
0000
0000
0000
0000
,  // measure 6
0101
0000
0000
0000
0010
0000
1000
0000
0100
0010
0100
0000
1000
0000
0010
0000
,  // measure 7
0110
0000
0000
0000
1000
0000
0001
0000
0010
0100
0010
0000
0001
0000
0100
0000
,  // measure 8
0110
0000
0000
0000
0001
0000
0010
0000
0100
1000
0100
0000
0010
0000
0001
0000
,  // measure 9
1000
0000
1000
0000
1000
0000
1000
0000
0001
0100
0010
0100
0002
0000
0013
0000
,  // measure 10
2200
0000
0000
3300
,  // measure 11
0202
0000
0303
0220
0000
0330
2020
0000
,  // measure 12
0000
0000
3030
0000
,  // measure 13
0022
0000
0033
2002
0000
3003
2020
0000
,  // measure 14
0000
0000
0000
0000
0000
3030
0000
0000
,  // measure 15
0202
0000
0303
2200
0000
3300
2002
0000
,  // measure 16
0000
0000
3003
0000
,  // measure 17
0102
0000
0013
2100
0000
3010
0100
0001
,  // measure 18
0022
0033
2200
3300
,  // measure 19
0012
0000
0003
2001
0010
3000
0220
0000
,  // measure 20
0330
0000
0000
0000
1001
0000
0100
0010
1000
0100
1000
0000
0001
0100
0001
0000
,  // measure 21
0120
0000
0030
2010
0001
3000
2002
3003
,  // measure 22
0022
0000
0033
0220
0000
0330
2200
0000
,  // measure 23
3300
2002
0000
0000
3000
0103
0110
0000
,  // measure 24
0001
0010
0100
0100
0100
0010
0001
1000
,  // measure 25
0000
0010
0100
0001
0000
0010
0100
1000
,  // measure 26
0100
0010
0001
0001
0001
0100
0010
1000
,  // measure 27
0000
0001
0010
0100
1000
0100
0010
0001
,  // measure 28
1000
0000
0010
0200
0000
0000
0310
0000
,  // measure 29
1000
0000
0010
0200
0000
0000
0301
1000
,  // measure 30
0100
0000
0010
0020
0000
0000
0031
0000
,  // measure 31
0100
0000
0010
0020
0000
1030
0100
0010
,  // measure 32
0001
0100
0010
0010
0010
0100
0001
1000
,  // measure 33
0000
0000
0001
0010
0001
0000
0100
0000
0010
0000
1000
0000
0100
0010
0100
0000
,  // measure 34
0000
1000
0001
0001
0001
0100
0010
1000
,  // measure 35
0001
0000
0010
0000
0100
0000
1000
0000
1000
0000
0001
0000
0100
0010
0100
0000
,  // measure 36
0001
0000
0010
0200
0000
0000
1300
0001
,  // measure 37
0001
0100
0010
1000
0000
0100
0000
0022
,  // measure 38
0000
0000
0000
0000
,  // measure 39
0000
0030
0000
0103
0010
1000
0100
0002
,  // measure 40
0000
0000
0000
0000
0000
0000
0103
2000
,  // measure 41
0000
0000
0000
0000
0000
0000
3001
0100
0010
0000
1000
0000
0100
0000
0010
0000
,  // measure 42
1100
0000
0000
0010
0000
0000
0101
0000
0000
0000
0010
0000
2002
0000
0000
0000
,  // measure 43
0000
0000
0000
0000
3003
0000
1000
0100
1000
0001
0100
0000
0020
0030
0020
0030
,  // measure 44
0101
0000
0000
0010
0000
0000
1100
0000
0000
0000
0010
0000
2001
0000
0000
0000
,  // measure 45
0000
3100
0100
0010
0001
1000
0110
0002
,  // measure 46
1000
0000
0103
0010
1000
0100
0010
0002
,  // measure 47
1000
0000
0013
0100
1000
0001
1000
0200
,  // measure 48
0000
0310
0001
0200
0000
1300
0100
0020
,  // measure 49
0000
1030
0100
0010
0001
0010
0100
2000
,  // measure 50
0000
3020
0230
2300
0000
3100
0001
2000
,  // measure 51
0000
3200
0302
2003
0000
3010
0001
0100
,  // measure 52
0010
0100
0001
1000
0000
1100
0010
0002
,  // measure 53
0000
0103
0010
0100
0100
0001
0110
2000
,  // measure 54
0100
0000
3001
0010
0100
0010
0001
2000
,  // measure 55
0010
0000
3100
0010
1000
0010
0001
0200
,  // measure 56
0000
0310
1000
0001
0000
0011
0000
1100
,  // measure 57
0000
0000
0001
0000
0100
0000
0001
0000
0010
0000
0100
0000
1000
0001
1000
0001
,  // measure 58
0010
0000
0100
0000
1000
0000
0001
0000
0100
0010
0100
0000
0001
0000
1000
0000
,  // measure 59
0000
0110
0220
0000
0000
0000
0330
0000
,  // measure 60
1001
0000
0000
0001
0010
0100
1000
0001
,  // measure 61
0000
0000
0000
1000
0010
0100
0001
1000
,  // measure 62
0000
0100
0010
0001
0000
0100
0010
0100
,  // measure 63
0001
0010
0100
1000
0100
0010
0001
0000
,  // measure 64
1000
0100
1000
0100
0000
0100
0010
0000
0010
0001
0000
1000
,  // measure 65
0010
0000
0010
0100
0000
0100
0001
0000
0001
0010
0100
1000
,  // measure 66
0001
0000
0000
0000
0000
0000
0000
0000
0000
0100
0000
0000
0002
0000
0000
0000
0023
0000
0000
0000
0230
0000
0000
0000
,  // measure 67
0300
0000
0000
1000
0100
0010
0001
2000
,  // measure 68
0000
0000
3010
0100
0001
0010
0100
2000
,  // measure 69
0010
0000
3001
0100
1000
0100
0010
2000
,  // measure 70
0000
3100
0010
0001
0000
1010
0000
0101
,  // measure 71
0000
0000
1000
0000
0001
0000
1000
0000
1000
0000
0001
0000
0010
0100
0010
0100
,  // measure 72
1000
0010
0100
0020
0000
0130
0001
1000
,  // measure 73
0001
0010
0100
0020
0000
0130
1000
0001
,  // measure 74
1000
0000
0100
0000
0100
0000
0010
0000
0001
1000
0001
0000
0100
0000
0110
0000
,  // measure 75
0000
0001
2002
0000
0000
0000
3003
0000
,  // measure 76
0110
0000
0000
0000
1001
0000
0000
0000
0010
1000
0010
0000
0100
0000
0001
0000
,  // measure 77
0011
0000
0000
0000
1100
0000
0000
0000
0001
0100
0001
0000
0010
0000
0100
0000
,  // measure 78
1100
0000
0000
0000
0101
0000
0000
0000
1000
0001
1000
0000
0100
0000
0010
0000
,  // measure 79
0011
0000
0000
0000
1010
0000
0100
0000
0000
0000
0001
0000
1000
0100
1000
0000
,  // measure 80
0001
0100
0001
0000
0010
0000
0100
1000
0100
0000
0010
0000
0001
1000
0001
0000
,  // measure 81
0100
0000
0010
1000
0010
0000
0100
0000
0001
1000
0001
0000
0010
0000
0100
0000
,  // measure 82
1000
0100
1000
0100
0010
0000
0001
0100
0001
0100
0010
0000
1000
0001
1000
0001
,  // measure 83
0100
0000
0001
1000
0001
1000
0100
0000
0010
0001
1000
0010
0100
0000
2002
0000
,  // measure 84
0000
0000
0000
0000
,  // measure 85
0000
0000
0000
0000
,  // measure 86
0000
0000
0000
3003
;
