#TITLE:World's end;
#SUBTITLE:;
#ARTIST:Noah;
#TITLETRANSLIT:;
#SUBTITLETRANSLIT:;
#ARTISTTRANSLIT:;
#GENRE:;
#CREDIT:Silverhawke;
#MENUCOLOR:;
#METERTYPE:DDR;
#BANNER:World's end.png;
#BACKGROUND:World's end-bg.png;
#LYRICSPATH:;
#CDTITLE:cdtitle.png;
#MUSIC:World's end.mp3;
#OFFSET:-0.028;
#SAMPLESTART:38.910;
#SAMPLELENGTH:15.000;
#SELECTABLE:YES;
#LISTSORT:;
#BPMS:0.000=270.000;
#STOPS:;
#BGCHANGES:;
#ATTACKS:;

//---------------dance-single - ----------------
#NOTES:
     dance-single:
     :
     Hard:
     19:
     1.000,1.000,0.202,0.545,0.826: // measure 1
0000
0000
0000
0000
,  // measure 2
0000
0000
0000
0000
,  // measure 3
0000
0000
0000
0000
,  // measure 4
0000
0000
0000
0000
,  // measure 5
0000
0000
0000
0000
,  // measure 6
0000
0000
0000
0000
,  // measure 7
1000
1010
0001
0011
,  // measure 8
1000
0000
1100
0000
0001
0100
0010
0000
,  // measure 9
1000
0010
0001
0010
1000
0010
0001
0010
,  // measure 10
0200
0001
0001
0301
,  // measure 11
1000
0100
0010
0001
0100
0010
1000
0100
,  // measure 12
0020
0000
0000
0030
,  // measure 13
1001
0000
0011
0000
0100
1000
0001
1000
,  // measure 14
0010
0000
0100
0002
0000
0000
1003
0000
,  // measure 15
0100
0000
0010
0001
0000
0100
0010
0100
,  // measure 16
0002
1003
0200
0310
,  // measure 17
0001
0000
1000
0000
0010
0100
0001
1000
,  // measure 18
0100
0000
0010
0002
0000
0000
1003
0000
,  // measure 19
0001
0010
0100
1000
0100
0010
0001
0010
0100
1000
0100
0010
,  // measure 20
0002
0000
2000
3003
,  // measure 21
0110
0000
0001
0000
1000
0100
0010
0100
,  // measure 22
1000
0000
0001
0200
0000
0000
0310
0000
,  // measure 23
1000
0000
0001
0010
0000
0100
1000
0001
,  // measure 24
2000
3010
0200
0301
,  // measure 25
1001
0000
1000
0100
0000
0010
0001
1000
,  // measure 26
0001
0000
0000
0100
0000
0000
0010
0000
0000
0100
0000
0000
0001
0000
0010
0000
0100
0000
1000
0000
0100
0000
0010
0000
,  // measure 27
0001
0000
1000
0020
0000
0000
0030
0000
,  // measure 28
0101
0000
0000
0110
0000
0000
1010
0000
,  // measure 29
1001
0000
0001
0020
0000
0130
1000
0001
,  // measure 30
1000
0010
1000
0001
0010
0001
1000
0000
,  // measure 31
0200
0000
0310
0002
0000
1003
0010
1000
,  // measure 32
0001
0100
0010
1000
0010
0100
0001
0100
0010
1000
0010
0100
,  // measure 33
0002
0000
1003
0200
0000
0310
0001
1000
,  // measure 34
0020
0000
0130
0002
0000
0000
1003
0000
,  // measure 35
1001
0000
0001
0000
1000
0010
0100
0001
,  // measure 36
0020
0000
0000
0000
0000
0000
0130
1000
0100
0010
0001
1000
,  // measure 37
0001
0000
0100
0020
0000
0130
0010
1000
,  // measure 38
0100
0000
0010
0100
0000
0010
0100
0000
,  // measure 39
1000
0000
0010
0200
0000
0301
0010
0100
,  // measure 40
0010
0000
0100
0010
0000
0100
0010
0001
,  // measure 41
1000
0000
0010
0000
0100
0000
0010
0000
1000
0000
0000
0001
0000
0000
0010
0000
,  // measure 42
0100
0000
1000
0000
0001
0000
0100
0000
0010
0000
0000
1000
0000
0000
0001
0000
,  // measure 43
0010
0100
0010
0100
0010
0100
0010
0000
,  // measure 44
0002
0000
0000
0000
0000
0000
1003
0010
,  // measure 45
0200
0000
0001
0000
0301
1000
0100
0010
,  // measure 46
0001
0000
1000
0020
0000
0000
0130
0000
,  // measure 47
0001
0000
1000
0100
0000
0010
0001
1000
,  // measure 48
0002
0103
0020
1030
,  // measure 49
0001
0000
0010
0100
0000
1000
0001
1000
,  // measure 50
0010
0100
0100
0001
0100
0100
0010
0000
,  // measure 51
1000
0000
0001
0000
0010
0000
0100
0000
1000
0000
0001
0000
1000
0000
0100
0000
0010
0000
0001
0000
0000
1000
0000
0000
,  // measure 52
0020
0000
0000
0230
0000
0000
0301
0010
,  // measure 53
0200
0000
1000
0000
1300
0001
0100
0010
,  // measure 54
0100
0000
0001
2000
0000
0000
3100
0000
,  // measure 55
0010
0000
0001
1000
0000
0100
0010
0001
,  // measure 56
0010
0200
0000
0000
0320
0000
0031
0000
,  // measure 57
1000
0010
0100
0001
1000
0010
0100
0001
,  // measure 58
1000
0100
0100
0010
0100
0100
1000
0000
,  // measure 59
0002
0000
1000
0000
1003
0010
0100
0001
,  // measure 60
0020
0000
0230
0300
,  // measure 61
2002
0000
0000
3003
,  // measure 62
0011
0000
0000
1010
0000
0000
1001
0000
,  // measure 63
0001
0000
1000
0010
1000
0000
0001
0000
1000
0010
1000
0000
0001
0000
0010
0000
,  // measure 64
0100
0000
0010
0001
0010
0000
0100
0000
0010
0001
0010
0000
0100
0000
1000
0000
,  // measure 65
0001
0000
0100
0000
0010
0000
1000
0000
0000
0100
0000
0000
0010
0000
0000
0100
0000
0000
1000
0000
0000
0010
0000
0000
,  // measure 66
0100
0001
0100
0010
1000
0001
1000
0100
0010
0001
1000
0001
,  // measure 67
0010
0000
0000
0100
0000
0000
1000
0000
0000
0001
0000
0000
1000
0000
0010
0000
0100
0000
0001
0000
0100
0000
0010
0000
,  // measure 68
1000
0000
0000
0001
0000
0000
0010
0000
0000
0001
0000
0000
1000
0000
0100
0000
0010
0000
0001
0000
0010
0000
0100
0000
,  // measure 69
1000
0000
0001
0000
1000
0010
0000
0010
,  // measure 70
0100
0000
0100
0001
0000
0001
0000
0001
,  // measure 71
2000
3000
0002
0010
,  // measure 72
0013
0100
1000
0100
0010
0001
0100
0010
,  // measure 73
1000
0000
0001
2000
0000
3100
0000
0100
,  // measure 74
0000
0010
0001
0010
0000
0100
1000
0001
,  // measure 75
1000
0000
0010
0000
1000
0000
0001
0000
0010
0000
0001
0000
1000
0000
0010
0000
1000
0000
0001
0000
0000
0100
0000
0000
,  // measure 76
0001
0000
0010
0000
0001
0000
1000
0000
0010
0000
1000
0000
0001
0000
0010
0000
0001
0000
1000
0000
0000
0100
0000
0000
,  // measure 77
1000
0010
0010
0100
0010
0010
0001
0010
,  // measure 78
0010
0100
0010
0010
1010
0000
0011
0000
,  // measure 79
1000
0100
0010
0001
0010
0100
1000
0100
0010
0001
0000
0000
,  // measure 80
1000
0010
0100
0001
0100
0010
1000
0010
0100
0001
0000
0000
,  // measure 81
1000
0010
1000
0001
0010
0001
1000
0100
1000
0001
0100
0001
,  // measure 82
1000
0100
0010
0001
1000
0001
0010
0100
1000
0001
0000
0000
,  // measure 83
0100
0010
0100
0001
0100
0001
1000
0001
1000
0100
0000
0000
,  // measure 84
0010
0001
0010
0001
1000
0001
1000
0010
1000
0001
0000
0000
,  // measure 85
1020
1000
0001
0001
,  // measure 86
0230
0010
0010
0310
,  // measure 87
1000
0100
0001
0100
1000
0100
0001
0100
,  // measure 88
0020
0000
0001
0000
0001
0000
0031
0010
,  // measure 89
0200
0000
1000
0000
1300
0001
0100
0010
,  // measure 90
1000
0000
0001
0020
0000
0000
0130
0000
,  // measure 91
1000
0000
0001
0100
0000
0010
1000
0001
,  // measure 92
2000
3100
0020
0031
,  // measure 93
1000
0000
0010
0100
0000
0001
1000
0001
,  // measure 94
0010
0100
0100
1000
0100
0100
0010
0000
,  // measure 95
0001
0000
1000
0000
0010
0000
0100
0000
0001
0000
1000
0000
0001
0000
0100
0000
0010
0000
1000
0000
0000
0001
0000
0000
,  // measure 96
0020
0000
0000
0230
0000
0000
1300
0010
,  // measure 97
0200
0000
0001
0000
0301
1000
0100
0010
,  // measure 98
0100
0000
1000
0002
0000
0000
0103
0000
,  // measure 99
0010
0000
1000
0001
0000
0100
0010
1000
,  // measure 100
0010
0200
0000
0000
0320
0000
1030
0000
,  // measure 101
0001
0010
0100
1000
0001
0010
0100
1000
,  // measure 102
0001
0100
0100
0010
0100
0100
0001
0000
,  // measure 103
2000
0000
0001
0000
3001
0010
0100
1000
,  // measure 104
0020
0000
0230
0300
,  // measure 105
2002
0000
0000
3003
,  // measure 106
1100
0000
0000
0101
0000
0000
1001
0000
,  // measure 107
1000
0000
0010
0100
0010
0000
1000
0000
0010
0100
0010
0000
1000
0000
0100
0000
,  // measure 108
0010
0000
0001
1000
0001
0000
0020
0000
0000
0000
0130
1000
0100
0000
0010
0000
,  // measure 109
0001
0000
0010
0000
0100
0000
1000
0000
0010
0000
0100
0000
0001
0000
0000
0010
0000
0000
1000
0000
0000
0010
0000
0000
,  // measure 110
0001
0000
0100
0000
0010
0000
0200
0000
0000
0000
0301
1000
0001
0000
0010
0000
,  // measure 111
0100
1000
0100
1000
0001
1000
0001
0100
0001
0100
0010
0100
,  // measure 112
0010
1000
0010
1000
0001
1000
0001
0010
0001
0010
0100
0010
,  // measure 113
0100
0000
1000
0001
1000
0000
0100
0000
1000
0001
1000
0000
0100
0000
0010
0000
,  // measure 114
0001
0100
0010
1000
0001
0010
0100
1000
0010
0100
0001
0010
,  // measure 115
0100
0000
1000
0001
1000
0000
0100
0000
1000
0001
1000
0000
0010
0000
0100
0000
,  // measure 116
0001
0000
1000
0010
1000
0000
0001
0000
1000
0010
1000
0000
0100
0000
0010
0000
,  // measure 117
0001
0100
0001
1000
0100
1000
0001
0100
0010
1000
0100
0010
,  // measure 118
0001
0100
0010
1000
0001
0010
0100
1000
,  // measure 119
0001
0000
0000
1000
0010
1000
0100
0010
0001
0100
0010
0100
,  // measure 120
0001
0010
0100
1000
0010
0100
0010
1000
0100
0010
0001
1000
,  // measure 121
0010
0000
0000
0100
0000
0000
0001
0000
0000
1000
0000
0000
0100
0000
0010
0000
0001
0000
0100
0000
0010
0000
1000
0000
,  // measure 122
0001
0010
0001
0000
0010
0100
0010
0000
0100
1000
0100
0000
1000
0001
1000
0000
,  // measure 123
0020
0000
0100
0000
,  // measure 124
0100
0000
0000
0000
0000
0000
0000
0000
0100
0000
0000
0000
0000
0000
1030
0001
,  // measure 125
1000
0100
0010
0001
1000
0100
0010
0001
1000
0100
0010
0001
1000
0100
0010
0001
,  // measure 126
1000
0000
0000
0000
;
