#TITLE:音楽 -壊音楽 mix-;
#SUBTITLE:;
#ARTIST:LeaF;
#TITLETRANSLIT:Ongaku -Kaiongaku mix-;
#SUBTITLETRANSLIT:;
#ARTISTTRANSLIT:;
#GENRE:;
#CREDIT:Silverhawke;
#MENUCOLOR:;
#METERTYPE:DDR;
#BANNER:Ongaku -Kaiongaku mix-.png;
#BACKGROUND:Ongaku -Kaiongaku mix--bg.png;
#LYRICSPATH:;
#CDTITLE:cdtitle.png;
#MUSIC:Ongaku -Kaiongaku mix-.mp3;
#OFFSET:-0.028;
#SAMPLESTART:52.670;
#SAMPLELENGTH:15.000;
#SELECTABLE:YES;
#LISTSORT:;
#DISPLAYBPM:270.000:420.000;
#BPMS:0.000=270.000,180.000=135.000,186.000=270.000,430.000=280.000,434.000=290.000,438.000=300.000,442.000=310.000,446.000=320.000,450.000=330.000,454.000=380.000,460.000=390.000,466.000=400.000,472.000=410.000,478.000=420.000;
#STOPS:;
#BGCHANGES:;
#ATTACKS:;

//---------------dance-single - ----------------
#NOTES:
     dance-single:
     :
     Hard:
     18:
     1.000,1.000,1.000,0.654,0.305:
0000
0000
0000
0000
,
0000
0000
0000
0000
,
0000
0000
0000
0000
,
1100
0000
0000
0011
0000
0000
0000
0000
,
0101
0000
0000
1010
0000
0000
0002
0000
,
1003
1100
0101
1001
,
1000
0100
1000
0000
0010
0000
0100
0000
0001
0010
0001
0000
1000
0000
0000
0000
,
0101
0110
1010
1100
,
1000
1000
0100
0000
0010
0001
0100
1000
,
0200
0000
0320
0000
1030
1000
0001
0001
,
0011
0110
1100
1001
,
1000
1000
0100
0010
0000
0001
0100
1000
,
0200
0000
0320
0000
0000
1030
0100
0001
,
0100
1100
0010
0011
,
1000
0100
0010
0001
1001
0000
0110
0000
,
0001
0100
0010
1000
0001
2002
3003
1000
,
0100
0001
0100
1000
0010
0001
0010
1000
,
0001
0010
0100
1000
2002
0000
3003
0000
,
0001
0100
1000
0100
0001
0100
0010
0100
,
0001
0110
1000
0110
,
0001
0000
0000
0020
0000
0000
0000
0000
0000
0000
0000
0000
0031
0000
1000
0000
0001
0000
0010
0000
0100
0000
0010
0000
,
0001
0100
0001
1000
0100
1000
0001
0010
0001
1000
0010
1000
,
0001
0010
0100
1000
0100
0010
0001
1000
0010
0100
0001
0100
,
0010
0000
1000
0002
0200
0303
0101
0000
,
0011
0000
0000
1100
0000
0000
1000
0010
,
0110
0000
0000
0000
0101
0000
0101
0000
1000
0000
0000
0100
0000
0000
0100
0000
,
0020
0000
0000
0000
0030
0000
0000
0000
1001
0000
0000
1001
0000
0000
1001
0000
,
0110
0000
0000
0000
0110
0000
0000
0000
1000
0000
0000
0100
0000
0000
0010
0000
,
0001
0000
0000
1000
0000
0000
1001
0000
0010
0000
0000
0000
1000
0000
0000
0000
,
0001
0100
0001
0000
1000
0100
1000
0000
0002
0000
0000
0000
0103
0000
0000
0000
,
0001
0010
0001
0010
0001
0001
0100
0010
,
1000
0100
1000
0100
1000
1000
0100
0010
,
0001
0100
0001
0100
0001
0001
0010
0100
,
1000
0020
1030
0010
1000
1000
0110
0000
,
0001
0020
0000
0030
1000
0020
0000
0030
,
0001
0220
0000
0330
1000
0220
0000
0330
,
0001
2200
0000
3300
0001
0100
1000
0100
,
0001
0010
0100
1000
0020
0130
0020
0130
,
0001
0010
0100
1000
0020
0130
0020
0130
,
0001
0010
0200
1300
0020
0130
0020
0130
,
0002
0000
0000
0000
0000
0000
2003
3000
,
0101
0000
0001
0100
0001
0100
0010
1000
,
1100
0000
0000
1100
0000
0000
1100
0000
1100
0000
0000
0000
0011
0000
0000
0000
,
1000
0000
0010
0000
1000
0000
0010
0000
0110
0000
0000
0110
0000
0000
0110
0000
,
0110
0101
1100
1001
,
1000
0000
0100
0010
0100
0000
1000
0000
,
0001
0000
0100
0010
0100
0001
1000
0010
,
0001
0000
0000
0010
0000
0000
1000
0000
0000
0001
0000
0000
0010
0000
0000
0000
0000
0000
0100
0000
1000
0000
0100
0000
,
1000
0000
0000
0001
0000
0000
1000
0000
0000
0010
0100
0010
,
0100
0000
0000
0001
0000
0000
0010
0000
0000
0100
1000
0100
,
1000
0010
0100
0001
1000
0100
0010
0001
,
2000
0000
3200
0320
0230
0000
2300
3002
,
1003
0100
0010
0100
1000
0010
0001
0000
,
1000
0000
0000
0100
0010
0100
0010
0000
0000
1000
0000
0000
,
0011
0000
1010
0000
1001
0000
0000
1000
,
0100
0000
0000
0001
0100
0000
0000
1000
,
0010
0000
0000
0001
0010
0000
0000
1000
,
0100
0000
0000
0001
0100
0000
1100
0000
,
0011
0000
1010
0000
0101
1000
0100
0020
,
0000
0031
0100
0010
1000
0000
1100
0000
,
0110
0000
0022
0033
1000
0100
0010
0001
,
0100
0010
0100
0001
0010
0000
0110
0000
,
1000
0000
0001
1000
0000
0000
0001
0000
0010
0100
0000
0010
,
0001
0000
0010
0100
0000
0010
0001
0000
1000
0010
0000
1000
,
0100
0000
1000
0010
0000
1000
0100
0000
0001
0100
0000
1000
,
0100
0000
0001
0100
0000
1000
0100
0000
0010
0001
0000
0010
,
1000
0000
0000
0000
0010
0000
0001
0000
0000
0000
0010
0000
0100
0000
0000
1000
0000
0000
0001
0000
0000
0010
0000
0000
,
0100
1000
0010
0100
0110
0000
0110
0000
,
1001
0000
2002
3003
1000
0100
0010
0001
,
0100
0010
0100
0001
0010
0000
0110
0000
,
1000
0000
1001
0000
0001
0010
0100
1000
,
0001
0010
0100
1000
0002
0203
0320
2030
,
3002
0203
0320
1030
1001
1001
1001
1001
,
1001
1001
1001
1001
1001
0000
1001
0000
,
1001
0000
0110
0000
1000
0100
0010
0100
,
1000
0100
0010
0100
1000
0010
0001
0010
,
1000
0010
0001
0010
1000
0000
1000
0100
,
0020
0030
0011
0011
,
1000
0002
0000
0000
1003
1000
0010
0010
,
0100
0101
2000
3001
,
1000
0100
0010
0100
1000
0000
1001
1001
,
0010
0000
1010
0000
0100
0000
0000
0101
,
0000
1001
0110
0000
,
1000
0000
0000
0100
0000
0000
0001
0000
0100
0000
0000
0000
1000
0000
0000
0000
,
1010
0001
0022
0033
,
1001
0000
0110
0000
1200
0000
0000
0301
,
0000
0000
0100
0000
0021
0000
0000
1030
,
0000
0000
0010
0000
0201
0000
0000
1300
,
0000
0000
0010
0010
1000
0100
0001
0100
,
0010
0100
0110
0000
1001
0000
0100
0000
,
0100
0000
0010
0000
0100
0000
0010
0100
,
0100
0000
0010
0000
0100
0010
0010
0100
,
0100
0010
0010
0100
,
0100
2000
0000
0000
,
0000
0000
0000
0000
,
0002
0000
0000
0000
,
0000
3003
1100
0101
,
1001
0000
0100
0000
0020
0000
0000
0000
1030
0000
0100
0010
0100
0000
1000
0000
,
0010
0000
0100
0001
0100
0000
0001
0000
1000
0000
0100
0010
0100
0000
1000
0000
,
0001
0000
0010
0100
0010
0000
0001
0000
1000
0000
0010
0100
0010
0000
1000
0000
,
0100
0000
0010
0000
0001
0000
1000
0000
0010
0000
0100
0001
0100
0000
0010
0000
,
1000
0000
0100
0000
0010
0000
0001
0000
0100
0000
0010
1000
0010
0000
0100
0000
,
0001
0000
1000
0100
1000
0000
0001
0000
0010
0000
0100
1000
0100
0000
0010
0000
,
0001
0000
1000
0010
1000
0000
0001
0000
0100
0000
0000
0000
0020
0000
0000
0000
,
1030
0000
0100
0000
0001
0000
0100
0000
1000
0000
0010
0100
0010
0000
1000
0000
,
0100
0000
0010
0001
0010
0000
0100
0000
1000
0000
0000
0000
0000
0000
0001
0000
,
0100
0010
0100
0001
,
1001
0100
0220
0330
,
1000
0100
1000
0100
0220
0000
0330
0000
,
0001
0100
0001
0100
0220
0000
0330
0000
,
1000
0100
1000
0100
0210
0000
1300
0000
,
0010
0100
0101
0000
1000
0100
0001
0100
,
1000
0100
0001
0100
1100
0000
0101
0000
,
1001
0100
0020
0030
1100
0000
1100
0000
,
1100
0101
0101
0101
,
1010
1010
1010
0011
,
0011
0000
0011
0000
1100
0000
0100
0010
,
0100
1100
1000
0010
,
0101
0000
0001
0010
0001
0000
0101
0000
,
0010
1000
2200
0000
,
0000
0000
0000
3300
,
0001
0010
0100
1000
0001
0010
0100
1000
,
0100
0010
0001
1000
0020
0000
0000
0000
,
0000
0000
0000
0000
,
0000
0000
0000
0000
,
0000
0000
0000
0000
,
0000
0000
0000
0030
;

//---------------dance-single - ----------------
#NOTES:
     dance-single:
     :
     Medium:
     16:
     0.956,0.965,0.609,0.529,0.027:
0000
0000
0000
0000
,
0000
0000
0000
0000
,
0000
0000
0000
0000
,
1001
0000
0000
0110
0000
0000
0010
0100
,
0010
0000
0000
1001
0000
0000
0200
0000
,
0301
1000
1001
0110
,
0001
0010
0100
1000
0010
0100
0010
0000
,
2000
3200
0320
0032
,
1003
0010
1000
0000
0001
0010
0100
1000
,
0020
0000
0230
0000
0301
1000
0001
1000
,
0002
0023
0230
2300
,
3001
0100
0001
0100
0000
0010
1000
0001
,
1000
0000
0001
0000
0000
0010
0100
1000
,
0002
0203
0320
2030
,
3001
0010
0100
0000
1001
0000
1001
0000
,
1000
0010
0100
0000
0001
1000
0001
0000
,
1000
0100
0010
0100
1000
0100
0010
0001
,
1000
0010
0100
0001
1000
0000
0000
0000
,
0001
0010
0100
0000
1000
0010
0100
0000
,
0001
1001
0100
0110
,
1000
0200
0000
0000
2300
0000
3020
0000
,
0230
0302
2003
3200
,
0320
0032
2003
3020
,
0130
0000
0001
0100
1000
0000
0100
0000
,
0110
0000
0000
1001
0000
0000
1000
0100
,
0010
0000
0000
0000
0110
0000
0010
0000
0001
0000
0000
0001
0000
0000
0001
0000
,
2000
0000
0000
0000
3000
0000
0000
0000
0001
0000
0000
1000
0000
0000
0001
0000
,
1001
0000
1001
0000
0100
0010
0000
0010
,
1000
0000
0000
0100
0000
0000
0010
0000
0001
0000
1000
0000
0001
0000
1000
0000
,
0020
0030
0200
0300
0002
0000
1003
0000
,
0001
0100
0001
0100
0001
0100
0010
1000
,
0001
0010
0001
0010
0001
0010
0100
1000
,
0001
1000
0001
1000
0001
1000
0100
0010
,
0001
0100
0001
0100
0001
0100
0010
0000
,
1000
0200
0000
0000
0310
0002
0000
0000
,
1003
0020
0000
0000
0130
0002
0000
0000
,
1003
0200
0000
0000
0310
0001
1000
0001
,
0010
0100
1000
0001
0010
0100
0010
0100
,
1000
0001
1000
0100
0010
0001
0010
0001
,
1000
0100
0010
0001
0010
0100
0010
0100
,
2000
0000
3000
0002
,
1003
0000
0001
0100
0001
0100
0010
1000
,
0001
0000
0000
1000
0000
0000
0001
0000
1000
0000
0000
0000
0110
0000
0000
0000
,
1000
0000
0100
0000
1000
0000
0100
0000
0010
0000
0000
0001
0000
0000
0100
0000
,
0010
0000
1000
0001
1000
0000
1001
0000
,
0001
0000
0100
0010
1000
0000
0010
0000
,
0100
0000
0001
1000
0100
0010
0100
0010
,
0100
0010
0100
1000
0001
0000
1000
0100
,
1000
0000
0001
0000
1000
0000
0001
0100
,
0001
0000
1000
0000
0001
0000
1000
0010
,
1000
0001
0010
0100
1000
0000
0001
0100
,
0001
0000
1000
0100
0010
0000
0010
0100
,
1000
0001
1000
0001
0100
0010
0100
0010
,
1000
0000
0100
0010
0001
0000
0100
0000
,
0010
0000
1000
0000
0001
0000
0000
1000
,
0100
0000
0000
0010
0001
0000
0000
0010
,
0100
0000
0000
1000
0010
0000
0000
0100
,
0001
0000
0000
1000
0100
0000
0010
0000
,
0110
0000
1001
0000
1000
0100
0010
0100
,
0000
1000
0010
0100
0010
0000
1000
0000
,
0001
0000
1001
0000
0001
0010
0100
0010
,
0001
0100
0010
0100
0001
0000
1000
0000
,
1001
1001
0001
0101
,
1000
1100
0001
0011
,
1000
1010
1100
1100
,
0011
0011
0101
0101
,
0010
1000
0001
0000
1000
0100
0010
0100
,
1000
0010
0100
0010
1000
0000
0001
0000
,
1001
0000
0110
0000
0001
0010
0100
0010
,
0001
0100
0010
0100
0001
0000
1000
0000
,
1001
0000
0110
0000
0001
0010
0100
1000
,
0001
0010
0100
1000
0001
0100
0010
1000
,
0001
0100
0010
1000
0100
0010
0100
0010
,
0100
0100
0100
0100
0100
0000
1000
0000
,
1001
0110
2000
3200
,
0302
0203
2300
3020
,
0032
0000
0023
0000
0230
0000
0000
0301
,
0100
0000
0010
1000
0001
0000
1001
0000
,
0100
0010
0000
0000
1000
0100
0010
0001
,
1000
1001
0002
0203
,
0310
1000
0100
1000
0010
0000
0100
0001
,
0100
0000
0010
0000
1000
0000
0000
1001
,
0000
0001
1000
0000
,
0001
0000
0000
0010
0000
0000
0100
0000
1000
0000
0000
0000
0001
0000
0000
0000
,
1001
1000
2002
0000
,
0003
0000
3000
0000
0011
0000
0000
1001
,
0000
0000
0101
0000
1010
0000
0000
1001
,
0000
0000
1100
0000
0101
0000
0000
1001
,
0000
0000
0110
0000
1000
0100
0010
0001
,
1000
1001
0001
0100
,
0100
0000
0001
0000
0100
0000
0001
0100
,
0010
0000
0100
0000
0001
0100
0010
1000
,
0100
0010
0001
0100
,
0100
0020
0000
0000
,
0000
0000
0000
0000
,
0200
0000
0000
0000
,
0000
0330
1100
0101
,
1001
0000
0110
0000
1000
0100
0010
0100
,
1000
0010
0100
0010
1000
0100
0010
0001
,
0100
0010
0100
0001
0010
0100
1000
0010
,
0100
0010
1000
0100
0010
0001
0100
0010
,
0100
0001
0010
0100
1000
0001
0100
0010
,
0100
0001
1000
0100
0010
0001
0100
0010
,
0100
0001
1000
0001
0010
0001
0100
0010
,
1000
0100
1000
0010
0100
0001
0010
0100
,
1000
0001
0100
0010
1000
0000
0000
0001
,
0100
0010
1000
0001
,
1001
0100
0110
0000
,
1000
0100
0010
0000
0110
0000
0000
0000
,
0001
0100
0010
0000
0110
0000
0000
0000
,
1000
0100
0010
0000
0110
0000
0001
0000
,
0100
0010
1000
0000
0001
0100
0001
0100
,
0001
0100
0001
0100
0010
0000
1000
0000
,
1001
0110
1000
0100
,
1100
0001
0100
0101
,
1000
0010
1010
0001
,
0010
0011
2000
3100
,
0010
0002
0103
0010
,
0200
0301
0010
0200
,
1300
0010
0220
0000
,
0000
0000
0000
0330
,
0001
1000
0001
1000
0001
1000
0001
1000
,
0001
1000
0001
1000
0020
0000
0000
0000
,
0000
0000
0000
0000
,
0000
0000
0000
0000
,
0000
0000
0000
0000
,
0000
0000
0000
0030
;

//---------------dance-single - ----------------
#NOTES:
     dance-single:
     :
     Easy:
     12:
     0.653,0.795,0.188,0.125,0.027:
0000
0000
0000
0000
,
0000
0000
0000
0000
,
0000
0000
0000
0000
,
1000
0000
0000
0100
0000
0000
0010
0000
,
0001
0000
0000
0100
0000
0000
0010
0000
,
1000
0001
0100
0110
,
0001
0000
0100
0000
0010
1000
0001
0000
,
1000
0100
0010
0001
,
0100
0000
0100
0000
0010
1000
0010
0000
,
0100
0000
0001
0000
1000
0100
0100
0000
,
1000
0010
0100
0001
,
1000
0000
0100
0010
0000
0010
0001
0000
,
1000
0000
0010
0000
0000
0100
0001
0000
,
1000
0100
0010
0001
,
0100
0010
0000
0000
1000
0000
0001
0000
,
0010
0100
0000
0000
1000
0000
0010
0000
,
0100
0001
1000
0000
0100
1000
0001
0000
,
1001
0110
1001
0000
,
0001
0100
0001
0000
1000
0100
1000
0000
,
0001
0100
0010
1000
,
0001
0010
0000
0000
0200
0000
0000
0000
,
0000
0000
0020
0000
,
0000
0300
0002
0030
,
1003
0000
0010
0100
0002
0000
0003
0000
,
1000
0000
0000
0100
0000
0000
0010
0000
,
0001
0000
1000
0001
0100
0000
0000
0000
,
0020
0000
0000
0000
0030
0000
0000
0000
1000
0000
0000
0001
0000
0000
1000
0000
,
0100
0000
0000
0000
0100
0000
0000
0000
0010
0000
0000
0001
0000
0000
1000
0000
,
0001
0000
0000
0100
0000
0000
0010
0000
1000
0000
0000
0000
0001
0000
0000
0000
,
0100
0010
0100
0000
0010
0000
1001
0000
,
1000
0100
0010
0000
0010
0000
0010
0000
,
0001
0100
0010
0000
0010
0000
0010
0000
,
1000
0010
0100
0000
0100
0000
0100
0000
,
0001
0010
0100
0000
0100
0000
0110
0000
,
1000
0100
0000
0000
0100
0010
0000
0000
,
0010
0001
0000
0000
0001
0100
0000
0000
,
0100
0010
0000
0000
0010
0100
0010
0000
,
1000
0100
0010
0001
,
1000
0010
0100
0001
,
0010
1000
0100
0001
,
2002
0000
0000
3003
,
0001
0000
0100
0000
0010
1000
0010
0000
,
0100
0000
0000
0001
0000
0000
0100
0000
0001
0000
0000
0000
0000
0000
0000
0000
,
1000
0000
0000
0000
0100
0000
0000
0000
0010
0000
0000
0001
0000
0000
0010
0000
,
0100
1000
0010
0110
,
1000
0000
0001
0100
0100
0000
0010
0000
,
1000
0000
0100
0010
0010
0000
0001
0000
,
0100
1000
0010
0001
,
0001
0100
0010
1000
,
1000
0100
0010
0001
,
0001
0100
0010
1000
,
0001
0000
1000
0100
1000
0000
0010
0000
,
0100
0001
0100
0001
0100
0001
0100
0000
,
0010
0000
1000
0000
0001
1000
0000
0000
,
0100
0000
0010
0000
0001
0000
0000
0001
,
0100
0000
0000
0100
0010
0000
0000
0010
,
1000
0000
0000
1000
0100
0000
0000
0100
,
0010
0000
0000
0010
0001
0000
0100
0000
,
0010
0000
1000
0000
0001
0010
0001
0000
,
1000
0010
0100
0001
,
1000
0000
1001
0000
0001
0010
0001
0000
,
0100
0010
1000
0100
,
0010
0110
1000
0100
,
0001
0100
1000
0010
,
0001
0010
1000
0100
,
0001
0010
1000
0010
,
0001
0100
1000
0000
,
0001
0100
0110
0110
,
0110
0000
0001
0000
,
1000
0100
0110
0110
,
0110
0000
0001
0100
,
0010
1000
0001
0010
,
0100
0000
1000
0000
0001
1000
0001
1000
,
0001
1000
0001
1000
0001
0000
0100
0000
,
0110
0000
0000
0000
0001
0000
0000
0001
,
0100
0000
0000
0100
0010
0000
0000
0010
,
1000
0000
0000
1000
0001
0000
0000
1000
,
0100
0010
0001
0001
,
1000
0001
0000
0000
0100
0010
0100
0010
,
1000
1000
0001
0100
,
0010
0000
0010
0000
0010
0000
1000
0001
,
1000
0000
1000
0000
0001
0000
0000
0100
,
0000
0000
0010
0000
,
1000
0000
0000
0001
0000
0000
1000
0000
0001
0000
0000
0000
0010
0000
0000
0000
,
0100
1000
0001
0000
,
0000
0000
0000
0000
0100
0000
0000
0110
,
0000
0000
0000
0000
0001
0000
0000
1001
,
0000
0000
0000
0000
0010
0000
0000
0110
,
0000
0000
0001
0000
0100
0010
0100
0000
,
0001
1000
0100
0010
,
0010
0100
0010
0100
,
0010
0100
0010
0100
,
0010
0100
0100
0010
,
0010
0002
0000
0000
,
0000
0000
0000
0000
,
2000
0000
0000
0000
,
3003
0000
0000
0000
0002
0003
0002
0003
,
1000
0001
1000
0000
0100
0000
0010
0000
,
0001
0000
0100
0010
0100
0000
0001
0000
,
1000
0000
0010
0100
0010
0000
1000
0000
,
0001
0000
0010
0100
0010
0000
0001
0000
,
1000
0000
0100
0010
0100
0000
1000
0000
,
0010
0000
0100
0001
0100
0000
0001
0000
,
1000
0000
0100
0010
0100
0000
1000
0000
,
0010
0000
0100
0001
1000
0000
0100
0000
,
0010
0001
1000
0000
,
0010
0000
0100
0001
,
1000
0100
0010
0000
,
0001
0100
0001
0000
0001
0000
0000
0000
,
1000
0100
1000
0000
1000
0000
0000
0000
,
0010
0100
0010
0000
0010
0000
1000
0000
,
0100
0010
0001
0001
,
0001
0001
1000
0100
,
0010
0100
0010
0000
0001
0000
0100
0000
,
0001
1000
0100
1000
,
0001
0010
0001
1000
,
0010
1000
0100
0010
,
0001
0100
0010
0100
,
0001
0010
0100
1000
,
0010
0100
2002
0000
,
0000
0000
3003
0000
,
1000
0100
0010
0001
,
0100
0010
2000
0000
,
0000
0000
0000
0000
,
0000
0000
0000
0000
,
0000
0000
0000
0000
,
0000
0000
0000
3000
;
