#VERSION:0.83;
#TITLE:SQUARE UP;
#SUBTITLE:;
#ARTIST:JaimeP;
#TITLETRANSLIT:;
#SUBTITLETRANSLIT:;
#ARTISTTRANSLIT:;
#GENRE:;
#CREDIT:harmonious617;
#MUSIC:SQUARE UP.mp3;
#BANNER:SQUARE UP.png;
#BACKGROUND:SQUARE UP.MP4;
#CDTITLE:;
#SAMPLESTART:37.588;
#SAMPLELENGTH:22.765;
#SELECTABLE:YES;
#OFFSET:0.000;
#BPMS:0.000=170.000;
#STOPS:;
#DELAYS:215.000=0.021,
217.000=0.021,
284.000=0.176
;
#SPEEDS:0.000=1.000=0.000=0,
215.000=0.750=0.000=0,
220.000=1.000=64.000=0
;
#SCROLLS:0.000=1.000,
356.000=3.000
;
#FAKES:214.750=0.500,
360.000=2.000
;
#BGCHANGES:;
#FGCHANGES:;

//--------------- dance-single - ----------------
#NOTEDATA:;
#STEPSTYPE:dance-single;
#DESCRIPTION:;
#DIFFICULTY:Beginner;
#METER:8;
#RADARVALUES:0,0,0,0,0;
#NOTES:
0000
0000
0000
0000
,
0000
0000
0000
0000
,
0000
0000
0000
0000
1000
0200
0300
0010
,
0100
1000
0001
0000
0100
0000
0200
0002
,
0003
0302
0003
0000
1000
0020
0030
0100
,
0010
1000
0002
0003
0020
0030
0002
0013
,
0002
0013
0000
0001
0010
0001
0100
0010
,
1000
0001
0100
0000
0010
0000
0020
2000
,
3000
2030
3000
0001
0010
0100
0010
0001
,
0100
0010
1000
0000
0002
0000
0003
2002
,
3000
2000
3003
0000
0001
0200
0300
0010
,
1000
0001
0100
0000
0010
0000
0020
0200
,
0300
0200
0030
0300
0001
0020
0030
0100
,
0010
0001
0010
0000
0100
0000
2000
3100
,
2000
3100
0000
1000
0100
1000
0010
0100
,
0001
1000
0010
0000
0100
0000
0200
0002
,
0003
0302
0003
1000
0010
1000
0100
0010
,
0001
1000
0020
0030
0200
0300
2002
3003
,
2002
3003
0000
0002
,
0000
0003
0020
0000
0000
0030
0200
0000
,
0300
2000
0000
0000
0000
0000
3000
0010
,
0100
0002
0000
0000
0003
0100
0000
0001
,
0000
0010
0000
0000
0100
0000
1000
0000
,
0100
0000
0010
0100
0010
0001
0000
1000
,
0010
2000
0000
0000
3000
0100
0000
0010
,
0001
0200
0000
0000
0000
0300
0000
0000
,
0000
0000
0000
0000
,
1001
0000
0110
0000
1000
0010
1000
0100
,
0010
0001
0000
1000
0000
1100
0000
1000
,
0010
1000
0100
0010
0001
1000
0010
0100
,
0001
1000
0000
0101
0000
1010
0000
0000
,
0110
0000
1001
0000
0001
0100
0001
0010
,
0100
1000
0000
0001
0000
0101
0000
0001
,
0010
0000
0001
0000
0010
0000
0000
0100
1000
0000
0001
0000
0100
0000
0010
0000
,
1000
0010
0000
1010
0000
0101
0000
1000
,
0010
1000
0200
0000
0310
0000
0001
0010
,
0001
0100
0000
0010
0000
1000
0000
0100
,
1000
0100
0010
0001
0100
0010
1000
0100
,
0010
0001
0000
0001
0000
1001
0000
0000
,
0110
0000
1001
0000
1000
0010
0100
0001
,
1000
0001
0000
0010
0000
0001
0100
0001
,
0010
0100
1000
0001
0010
0001
0100
0010
,
1000
0001
1000
0000
1000
1001
0000
0001
,
0100
0010
0100
0000
0010
1000
0001
0010
,
0100
1000
0001
0000
0001
1001
0000
0100
,
0010
1000
0010
0100
,
0010
0000
0000
0000
1000
0000
0000
0100
1000
0000
0010
0000
0000
0000
0100
0000
,
0001
0100
0020
0030
0100
0001
1000
0100
,
0010
0001
1000
0000
1000
1001
0000
1000
,
0010
1000
0010
0100
0001
0100
0010
0000
,
1000
0000
1000
1000
0000
0000
0001
0000
,
1000
0000
0100
1000
0010
0100
0000
0001
,
0000
0010
0000
0100
0000
1000
0010
0000
,
0100
0000
0001
0000
1000
0010
MMMM
0000
,
0000
0000
0000
0000
,
0001
0100
0010
0100
0000
0010
1000
0100
,
0010
0001
0100
0000
0001
0010
0000
0000
,
0001
0010
0100
0010
0000
0100
1000
0010
,
0100
0001
0010
0000
0001
0100
0000
0000
,
0010
1000
0010
0100
0000
0001
0010
0100
,
1000
0100
1000
0000
0001
0100
0000
0000
,
0010
1000
0010
0100
0000
0001
0100
0010
,
1000
0010
1000
0000
0010
0100
0000
0000
,
0001
0010
0001
0100
0000
0001
0010
0001
,
1000
0010
0100
0000
0001
1000
0000
0000
,
0001
0100
0010
0100
0000
0010
1000
0001
,
1000
0100
0010
0000
0001
1000
0000
0000
,
0001
0100
0010
1000
0000
0010
1000
0001
,
1000
0100
0010
0000
0100
1000
0000
0000
,
0100
0010
0001
0100
0000
0001
0010
0001
,
1000
0010
0100
0000
0010
1000
0000
0000
,
0000
0000
0000
0001
0100
0010
2000
0000
,
3010
0100
0010
0100
0001
2000
0000
3001
,
0000
1001
0000
1000
0010
0100
0002
0000
,
0103
0010
0100
0010
1000
0002
0000
1003
,
0000
1001
0000
0001
0100
0010
0200
0000
,
0310
1000
0100
0010
0001
0200
0000
0301
,
0000
0101
0000
1000
0010
0100
0020
0000
,
0130
0001
0010
0100
1000
0020
0000
1030
,
0000
1010
0000
1000
0001
0000
0100
0000
,
0001
0000
0010
0000
0100
0000
0010
0001
,
0100
0010
0000
0100
0001
0000
1000
0000
,
0100
0000
0010
0000
0100
0000
1000
0001
,
0010
0100
0000
0010
0001
0000
0100
0000
,
0010
0000
1000
0000
0100
0000
1000
0001
,
0100
0010
0000
0100
0001
0000
0010
0000
,
0100
0000
1000
0000
1000
1001
0000
0001
,
0100
0002
0000
0000
0003
0000
0000
0000
,
0000
0000
0000
0000
,
0000
0000
0000
0000
,
0000
0000
0000
0000
0000
0000
0000
0000
0000
0000
0000
0000
MMMM
0000
0000
MMMM
0000
MMMM
0000
0000
0000
0000
0000
0000
0000
0000
0000
0000
0000
0000
0000
0000
0000
0000
0000
0000
0000
0000
0000
0000
0000
0000
0000
0000
0000
0000
0000
0000
;

//--------------- dance-single - ----------------
#NOTEDATA:;
#STEPSTYPE:dance-single;
#DESCRIPTION:;
#DIFFICULTY:Easy;
#METER:10;
#RADARVALUES:0,0,0,0,0;
#NOTES:
0000
0000
0000
0000
,
0000
0000
0000
0000
,
0000
0000
0000
0000
1000
0200
0300
0010
,
0100
1000
0001
0000
0100
0000
0200
M0M2
,
0003
M3M2
0003
0000
1000
0020
0030
0100
,
0010
1000
0002
0003
0020
0030
0002
MM13
,
0002
MM13
0000
0001
0010
0001
0100
0010
,
1000
0001
0100
0000
0010
0000
0020
2M0M
,
3000
2M3M
3000
0001
0010
0100
0010
0001
,
0100
0010
1000
0000
0002
0000
0003
2MM2
,
3000
2MM0
3003
0000
0001
0200
0300
0010
,
1000
0001
0100
0000
0010
0000
0020
M20M
,
0300
M20M
0030
0300
0001
0020
0030
0100
,
0010
0001
0010
0000
0100
0000
2000
31MM
,
2000
31MM
0000
1000
0100
1000
0010
0100
,
0001
1000
0010
0000
0100
0000
0200
M0M2
,
0003
M3M2
0003
1000
0010
1000
0100
0010
,
0001
1000
0020
0030
0200
0300
2002
3003
,
2002
3003
0000
0002
,
0000
0003
0020
0000
0000
0030
0200
0000
,
0300
2000
0000
0000
0000
0000
3000
0001
,
0100
2000
0000
0000
3000
0100
0000
0001
,
0000
0010
0000
0000
0100
0000
0001
0000
,
0100
0000
0010
0100
0010
0001
0000
1000
,
0010
2000
0000
0000
3000
0100
0000
0010
,
0001
0200
0000
0000
0000
0300
0000
0000
,
0000
0000
0000
0000
,
1001
0000
0110
0000
1000
0100
0001
0100
,
0010
0001
0000
1000
0000
1100
0000
1000
,
0010
0001
0010
0100
0001
1000
0010
0100
,
0001
1000
0000
0101
0000
1010
0000
0000
,
0110
0000
1001
0000
0001
0100
1000
0100
,
0010
1000
0000
0001
0000
0101
0000
0001
,
0010
0000
1000
0000
0010
0000
0000
0100
1000
0000
0001
0000
0100
0000
0010
0000
,
1000
0010
0000
1010
0000
0101
0000
1000
,
0010
1000
0200
0000
0310
0000
1000
0010
,
0001
0100
0000
0010
0000
1000
0000
0100
,
0001
0100
0010
0001
0100
0010
1000
0100
,
0010
0001
0000
0001
0000
1001
0000
0000
,
0110
0000
1001
0000
1000
0010
0100
0001
,
1000
0001
0000
0010
0000
0001
0100
1000
,
0100
0001
0010
1000
0010
0001
0100
1000
,
0100
0001
1000
0000
1000
1001
0000
0001
,
0100
1000
0100
0000
0010
1000
0001
0010
,
0100
1000
0001
0000
0001
1001
0000
0100
,
0010
1000
0010
0100
,
0010
0000
0000
0000
1000
0000
0000
0100
1000
0000
0010
0000
0000
0000
0100
0000
,
1000
0100
0020
0030
0100
0001
1000
0100
,
0010
0001
1000
0000
1000
1001
0000
1000
,
0010
1000
0010
0100
0001
0100
0010
0000
,
1000
0000
1000
1000
0000
0000
0001
0000
,
1000
0000
0100
1000
0010
0100
0000
0001
,
0000
0010
0000
0100
0000
1000
0010
0000
,
0100
0000
0001
0000
1000
0010
MMMM
0000
,
0000
0000
0000
0000
,
0001
0100
1000
0100
0000
0010
1000
0100
,
0010
0001
0100
0000
0001
0010
0000
0000
,
0001
0010
1000
0010
0000
0100
1000
0010
,
0100
0001
0010
0000
0001
0100
0000
0000
,
0010
0001
0010
0100
0000
0001
0010
0100
,
0001
0100
1000
0000
0001
0100
0000
0000
,
0010
1000
0010
0100
0000
1000
0100
0010
,
1000
0010
0001
0000
0010
0100
0000
0000
,
0001
0010
1000
0001
0000
0100
0010
0001
,
1000
0010
0100
0000
0001
1000
0000
0000
,
0001
0100
1000
0001
0000
0010
0100
0001
,
1000
0100
0010
0000
0001
1000
0000
0000
,
0010
0100
1000
0001
0000
0010
0100
0001
,
1000
0100
0001
0000
0100
1000
0000
0000
,
0100
0010
1000
0001
0000
0100
0010
0001
,
1000
0010
0001
0000
0010
1000
0000
0000
,
0000
0000
0000
0001
0100
0010
2000
0000
,
3010
0001
0010
0100
0001
2000
0000
3001
,
0000
1001
0000
1000
0010
0100
0002
0000
,
0103
1000
0100
0010
1000
0002
0000
1003
,
0000
1001
0000
0001
0100
1000
0200
0000
,
0310
1000
0100
0010
0001
0200
0000
0301
,
0000
0101
0000
1000
0010
0001
0020
0000
,
0130
0001
0010
0100
1000
0020
0000
1030
,
0000
1010
0000
1000
0001
0000
0100
0000
,
0001
0000
0010
0000
0100
0000
0010
0001
,
0100
1000
0000
0100
0001
0000
1000
0000
,
0100
0000
0010
0000
0100
0000
1000
0001
,
0010
1000
0000
0010
0001
0000
0100
0000
,
0010
0000
1000
0000
0100
0000
1000
0001
,
0100
1000
0000
0100
0001
0000
0010
0000
,
0100
0000
1000
0000
1000
1001
0000
0001
,
0100
2000
0000
0000
3000
0000
0000
0000
,
0000
0000
0000
0000
,
0000
0000
0000
0000
,
0000
0000
0000
0000
0000
0000
0000
0000
0000
0000
0000
0000
MMMM
0000
0000
MMMM
0000
MMMM
0000
0000
0000
0000
0000
0000
0000
0000
0000
0000
0000
0000
0000
0000
0000
0000
0000
0000
0000
0000
0000
0000
0000
0000
0000
0000
0000
0000
0000
0000
;
