#TITLE:do the thing feat. Kanae Asaba;
#SUBTITLE:(Haley's Scroll/No Split Timing);
#ARTIST:MK;
#TITLETRANSLIT:;
#SUBTITLETRANSLIT:;
#ARTISTTRANSLIT:;
#GENRE:EDM;
#CREDIT:Graphics made by TonyAkita;
#MUSIC:do the thing feat. Kanae Asaba.ogg;
#BANNER:do the thing feat. Kanae Asaba.png;
#BACKGROUND:do the thing feat. Kanae Asaba-bg.png;
#CDTITLE:cdtitle.png;
#SAMPLESTART:87.274;
#SAMPLELENGTH:19.591;
#SELECTABLE:YES;
#OFFSET:1.608;
#BPMS:0.000=135.000
,43.000=67.500
,43.125=135.000
,43.250=270.000
,43.750=135.000
,43.875=67.500
,44.000=135.000
,47.000=67.500
,47.125=135.000
,47.250=270.000
,47.500=67.500
,47.625=135.000
,47.750=270.000
,48.000=135.000
,51.000=202.500
,51.750=67.500
,52.000=135.000
,55.000=202.500
,55.375=67.500
,55.500=202.500
,55.875=67.500
,56.000=135.000
,71.000=540.000
,71.750=41.500
,72.000=135.000
,79.000=270.000
,80.000=135.000
,87.000=270.000
,87.250=135.000
,87.375=67.500
,87.500=270.000
,87.750=135.000
,87.875=67.500
,88.000=135.000
,95.000=270.000
,96.000=135.000
,103.000=270.000
,104.500=135.000
,104.750=67.500
,105.000=270.000
,105.250=135.000
,105.375=67.500
,105.500=270.000
,106.000=135.000
,106.250=67.500
,106.500=270.000
,106.750=135.000
,106.875=67.500
,107.000=270.000
,107.500=135.000
,107.750=67.500
,108.000=270.000
,108.500=135.000
,108.750=67.500
,109.000=270.000
,109.250=135.000
,109.375=67.500
,109.500=270.000
,110.000=135.000
,110.250=67.500
,110.500=270.000
,110.750=135.000
,110.875=67.500
,111.000=270.000
,111.500=135.000
,111.750=67.500
,112.000=270.000
,112.500=135.000
,112.750=67.500
,113.000=270.000
,113.250=135.000
,113.375=67.500
,113.500=270.000
,114.000=135.000
,114.250=67.500
,114.500=270.000
,114.750=135.000
,114.875=67.500
,115.000=270.000
,115.500=135.000
,115.750=67.500
,116.000=270.000
,116.500=135.000
,116.750=67.500
,117.000=270.000
,117.250=135.000
,117.375=67.500
,117.500=270.000
,118.000=135.000
,118.250=67.500
,118.625=135.000
,118.750=270.000
,120.500=135.000
,120.750=67.500
,121.000=270.000
,121.250=135.000
,121.375=67.500
,121.500=270.000
,122.000=135.000
,122.250=67.500
,122.500=270.000
,122.750=135.000
,122.875=67.500
,123.000=270.000
,123.500=135.000
,123.750=67.500
,124.000=270.000
,124.500=67.500
,124.750=270.000
,125.250=135.000
,125.375=67.500
,125.500=270.000
,126.000=135.000
,126.250=67.500
,126.500=270.000
,126.750=135.000
,126.875=67.500
,127.000=202.500
,127.188=67.500
,127.250=202.500
,127.438=67.500
,127.500=202.500
,127.688=67.500
,127.750=202.500
,127.938=67.500
,128.000=270.000
,128.500=135.000
,128.750=67.500
,129.000=270.000
,129.250=135.000
,129.375=67.500
,129.500=270.000
,130.000=135.000
,130.250=67.500
,130.500=270.000
,130.750=135.000
,130.875=67.500
,131.000=270.000
,131.500=67.500
,131.750=270.000
,132.500=67.500
,132.750=270.000
,133.250=135.000
,133.375=67.500
,133.500=135.000
,134.000=270.000
,134.250=135.000
,134.375=67.500
,134.500=270.000
,134.750=135.000
,134.875=67.500
,135.000=270.000
,136.000=135.000
,151.000=67.500
,151.250=202.500
,152.000=135.000
,171.000=67.500
,171.125=135.000
,171.250=270.000
,171.750=135.000
,171.875=67.500
,172.000=135.000
,175.000=67.500
,175.125=135.000
,175.250=270.000
,175.500=67.500
,175.625=135.000
,175.750=270.000
,176.000=135.000
,179.000=202.500
,179.750=67.500
,180.000=135.000
,183.000=202.500
,183.375=67.500
,183.500=202.500
,183.875=67.500
,184.000=135.000
,199.000=270.000
,200.000=135.000
,207.000=270.000
,208.000=135.000
,215.000=270.000
,215.250=135.000
,215.375=67.500
,215.500=270.000
,215.750=135.000
,215.875=67.500
,216.000=135.000
,223.000=270.000
,224.000=135.000
,231.000=270.000
,233.000=135.000
,239.000=67.500
,239.125=135.000
,239.250=270.000
,239.750=135.000
,239.875=67.500
,240.000=135.000
,243.000=202.500
,243.750=67.500
,244.000=135.000
,247.000=67.500
,247.250=202.500
,248.000=135.000
,251.000=67.500
,251.250=270.000
,252.000=135.000
,255.000=270.000
,255.250=135.000
,255.375=67.500
,255.625=135.000
,255.750=270.000
,256.000=135.000
,263.000=270.000
,264.000=67.500
;
#STOPS:79.000=0.056
,79.250=0.056
,79.500=0.056
,79.750=0.056
,95.000=0.056
,95.250=0.056
,95.500=0.056
,95.750=0.056
,103.000=0.056
,103.250=0.056
,103.500=0.056
,103.750=0.056
,119.000=0.056
,119.250=0.056
,119.500=0.056
,119.750=0.056
,124.750=0.056
,131.750=0.056
,132.750=0.056
,135.000=0.056
,135.250=0.056
,135.500=0.056
,135.750=0.056
,199.000=0.056
,199.250=0.056
,199.500=0.056
,199.750=0.056
,207.000=0.056
,207.250=0.056
,207.500=0.056
,207.750=0.056
,223.000=0.056
,223.250=0.056
,223.500=0.056
,223.750=0.056
,231.000=0.056
,231.250=0.056
,231.500=0.056
,231.750=0.056
,232.000=0.056
,232.250=0.056
,232.500=0.056
,232.750=0.056
,251.250=0.056
,263.000=0.056
,263.250=0.056
,263.500=0.056
,263.750=0.056
;
#DISPLAYBPM:135.000;
#ORIGIN:;
#PREVIEWVID:;
#JACKET:do the thing feat. Kanae Asaba-jacket.png;
#CDIMAGE:;
#DISCIMAGE:;
#BGCHANGES:-1.245=do the thing feat. Kanae Asaba.avi=1.000=0=0=0=StretchNoLoop====,
99999.000=-nosongbg-=1.000=0=0=0=StretchNoLoop====
;
#FGCHANGES:;

//--------------- dance-single - forcednature ----------------
#NOTES:
     dance-single:
     forcednature:
     Beginner:
     4:
     0.170998,0.250619,0.091437,0.024937,0,144,133,11,3,0,0,0,0,0,0.170998,0.250619,0.091437,0.024937,0,144,133,11,3,0,0,0,0,0:
0000
0000
0000
0000
,
0000
0000
0000
0000
,
0000
0000
0000
0000
,
0000
0000
0000
0000
,
0000
0000
0000
0000
,
0000
0000
0000
0000
,
0010
0000
0000
0000
,
0100
0000
0000
0000
,
0001
0000
0000
0000
,
1000
0000
0000
0000
,
0100
0000
0000
0010
,
0001
0000
0000
0010
,
0100
0000
0000
1000
,
0001
0000
0000
1000
,
0010
0000
0100
0000
,
0001
0000
1000
0000
,
0100
0100
0010
0100
,
0020
0000
0000
0030
,
1001
0000
0001
0000
,
0100
0000
0010
0000
,
1000
0000
0100
0000
,
1000
0000
0010
0000
,
0110
0000
0001
0000
,
1000
0000
0001
0000
,
0010
0000
0100
0000
,
1000
0000
0001
0000
,
1000
0000
0000
0001
,
0100
0000
0000
1000
,
0100
0000
0000
0010
,
0100
0000
0000
0010
,
1000
0000
0000
0001
,
0010
0000
0000
0100
,
0010
0000
0000
0100
,
0010
0000
0000
1000
,
0001
0000
0100
0000
,
0001
0000
0100
0000
,
0010
0000
1000
0000
,
0010
0000
1000
0000
,
0001
0000
0010
0000
,
0001
0000
0010
0000
,
0100
0000
1000
0000
,
0001
0000
0100
0000
,
1001
0000
0000
0000
,
0110
0000
0000
0000
,
1001
0000
0000
0000
,
0110
0000
0000
0000
,
0100
0010
0100
0000
,
0100
0010
0100
0000
,
1000
0001
1000
0001
,
2000
0000
0000
3000
,
1001
0000
0100
0001
,
0100
0000
0010
1000
,
0010
0000
0010
0000
,
0100
0100
0100
0000
,
1001
0000
0100
1000
,
0100
0000
0010
0001
,
0010
0000
0100
0000
,
1000
0001
1000
0000
,
0110
0000
0001
0100
,
0001
0000
1000
0010
,
1000
0000
0001
1000
,
0001
1000
0001
0000
,
0110
0000
1000
0001
,
0110
0000
1000
0001
,
0100
0010
0100
0010
,
1000
0001
1000
0001
,
0200
0000
0000
0000
,
0300
0000
0000
0000
;

//--------------- dance-single - forcednature ----------------
#NOTES:
     dance-single:
     forcednature:
     Easy:
     7:
     0.296872,0.334159,0.091437,0.024937,0,250,239,11,3,0,0,0,0,0,0.296872,0.334159,0.091437,0.024937,0,250,239,11,3,0,0,0,0,0:
0000
0000
0000
0000
,
0000
0000
0000
0000
,
0000
0000
0000
0000
,
0000
0000
0000
0000
,
0000
0000
0000
0000
,
0000
0000
0000
0000
,
0001
0000
0000
1000
0000
0000
0000
0000
,
0010
0000
0000
0100
0000
0000
0000
0000
,
1000
0000
0000
0001
0000
0000
0000
0000
,
0100
0000
0000
0010
0000
0000
0000
0000
,
0100
0000
0000
0100
0000
0000
0010
0000
,
0100
0000
0000
0100
0000
0000
0001
0000
,
1000
0000
0000
1000
0000
0000
0010
0000
,
1000
0000
0000
1000
0000
0000
0100
0000
,
0010
0001
0010
0100
,
1000
0001
0100
0000
,
0010
1000
0001
0100
,
0010
0100
0001
0000
,
1000
1000
0001
0001
,
0100
0000
0001
0000
1000
0000
0010
1000
,
0010
1000
0100
0010
,
0001
0000
0100
0000
0010
0000
1000
0001
,
1000
0010
0100
0001
,
0010
0000
0001
0000
1000
0000
0100
1000
,
0100
1000
0010
0100
,
0001
0000
1000
0000
0010
0000
0100
0001
,
0100
0000
0001
0100
0000
0001
0100
0000
,
0001
0000
1000
0001
0000
1000
0001
0000
,
1000
0000
0100
1000
0000
0100
1000
0000
,
0010
0000
0100
0010
0000
0100
0010
0000
,
1000
0000
0001
1000
0000
0001
0010
0000
,
0100
0000
1000
0001
0000
1000
0010
0000
,
0100
0000
0001
1000
0000
0100
0010
0000
,
0001
0000
0100
0010
0000
1000
0001
0000
,
0010
0010
0100
0100
,
1000
0001
0100
0001
,
1000
1000
0010
0010
,
0100
0001
0010
1001
,
0100
1000
0010
0100
,
0001
0010
0001
1000
,
0010
0100
0001
1000
,
0100
0000
0010
0100
0000
0010
0100
0000
,
1001
0000
0000
1001
0000
0000
0000
0000
,
0110
0000
0000
0110
0000
0000
0000
0000
,
1001
0000
0000
1001
0000
0000
0000
0000
,
0110
0000
0000
0110
0000
0000
0000
0000
,
0001
0000
0100
0000
0010
0000
1000
0001
,
1000
0000
0100
0000
1000
0001
1000
0000
,
0010
0010
0100
0100
,
0002
0000
0000
2003
0000
0000
3000
0000
,
1001
0001
0100
0010
,
1000
0100
0010
0001
,
0100
0001
1000
0010
,
0100
0000
0010
0000
1000
0000
0001
0010
,
0001
0100
0010
1000
,
0001
1000
0100
1000
,
0010
0100
0001
1000
,
0001
0000
0100
0000
0010
0000
1000
0100
,
1000
0101
0010
0001
,
0100
0000
0010
0000
1000
0000
0001
0010
,
0001
1000
0010
0100
,
0001
0000
1000
0000
0100
0000
0010
0100
,
0010
0000
0001
0000
1000
0000
0001
0100
,
0001
0000
1000
0000
0010
0000
1000
0100
,
1000
0001
0100
0010
,
1000
0000
0001
0000
0010
0100
0010
0000
,
0200
0000
0000
0000
,
0300
0000
0000
0000
;

//--------------- dance-single - forcednature ----------------
#NOTES:
     dance-single:
     forcednature:
     Medium:
     9:
     0.47737,0.501239,0.72318,0.124686,0,402,315,87,15,0,0,0,0,0,0.47737,0.501239,0.72318,0.124686,0,402,315,87,15,0,0,0,0,0:
0000
0000
0000
0000
,
0000
0000
0000
0000
,
0000
0000
0000
0000
,
0000
0000
0000
0000
,
0000
0000
0000
0000
,
0000
0000
0000
0000
,
0101
0000
0000
1010
0000
0000
0000
0000
,
1100
0000
0000
0011
0000
0000
0000
0000
,
0110
0000
0000
1001
0000
0000
0000
0000
,
1001
0000
0000
0110
0000
0000
0000
0000
,
0101
0000
0000
0110
0000
0000
1000
0000
,
1100
0000
0000
1001
0000
0000
0010
0000
,
0101
0000
0000
1001
0000
0000
0100
0000
,
1100
0000
0000
0011
0000
0000
0100
0100
,
0101
0000
0110
0000
1010
0000
1000
0001
,
0100
0000
0110
0000
0010
1000
0001
0000
,
1000
0100
0010
0001
0100
0010
1000
0100
,
0010
0001
0100
0010
0000
1000
0001
0000
,
0110
0000
0001
0000
0020
0000
0130
1000
,
0001
0000
0100
0000
0020
0000
1030
0001
,
0100
0000
0001
0000
2000
0000
3100
0010
,
0001
0000
1000
0000
0020
0000
0130
0100
,
0101
0000
0001
0000
2000
0000
3100
0010
,
0100
0000
1000
0000
0020
0000
1030
0001
,
0100
0000
0001
0000
0020
0000
0130
1000
,
0001
0000
0010
0000
0002
0000
1003
1000
,
1001
0000
0100
0110
0000
0010
0110
0000
,
1001
0000
1000
1010
0000
0001
0101
0000
,
1100
0000
0010
0011
0000
0100
1100
0000
,
0011
0000
0001
1001
0000
1000
0010
0100
,
0110
0000
0001
1001
0000
0100
0110
0000
,
1100
0000
1000
1001
0000
0010
0110
0000
,
0011
0000
0001
0101
0000
1000
1010
0000
,
1100
0000
0010
0110
0000
0001
1000
0000
,
0001
0100
0010
0100
0001
1000
0100
0010
,
0001
0100
0010
1000
0001
0010
0100
0000
,
1000
0100
1000
0001
1000
0010
0100
0001
,
0010
0100
1000
0001
0100
0001
1000
0000
,
0100
1000
0010
0100
0001
0010
0001
0100
,
0010
1000
0100
1000
0010
0100
0001
0000
,
1000
0100
0010
0001
0010
0100
1000
0001
,
0100
0001
1000
0010
0000
0100
0010
0000
,
0110
0000
0000
1001
0000
0000
2000
3000
,
1010
0000
0000
0101
0000
0000
0002
0003
,
0011
0000
0000
1100
0000
0000
0020
0030
,
0110
0000
0000
1001
0000
0000
0200
0310
,
0110
0000
0101
0000
1100
0000
0010
1000
,
0001
0000
0110
0000
0001
1000
0100
0000
,
0010
0001
1000
0100
1000
0001
0010
0100
,
2000
0000
0000
3020
0000
0000
0130
0100
,
0101
0011
0101
0011
,
1100
1010
1100
1010
,
1000
0001
0100
0010
1000
0001
0010
0100
,
1000
0001
0100
0010
1000
0100
0010
0000
,
0110
1100
0011
0110
,
1001
1010
0101
1001
,
0001
0100
0001
0010
0001
0100
0010
1000
,
0100
1000
0010
0100
0001
1000
0100
0000
,
0010
0010
0110
0000
1100
0000
0011
0000
,
1001
0101
1010
1001
,
0001
0100
0001
1000
0010
1000
0001
0010
,
0100
1000
0100
0010
0001
0100
0010
0000
,
1010
1001
1100
1001
,
0011
1001
0101
1001
,
1000
0010
1000
0001
0100
0001
1000
0100
,
0010
0001
0100
0010
1000
0001
0010
0100
,
2000
0000
0000
0000
,
3000
0000
0000
0000
;

//--------------- dance-single - forcednature ----------------
#NOTES:
     dance-single:
     forcednature:
     Hard:
     12:
     0.499932,0.525137,0.324184,0.523682,0.432246,421,382,39,63,0,0,0,0,0,0.499932,0.525137,0.324184,0.523682,0.432246,421,382,39,63,0,0,0,0,0:
0000
0000
0000
0000
,
0000
0000
0000
0000
,
0000
0000
0000
0000
,
0000
0000
0000
0000
,
0000
0000
0000
0000
,
0000
0000
0000
0000
,
1001
0000
0000
0101
0000
0010
0000
0000
,
1100
0000
1000
1001
0000
0001
0000
0100
,
0110
0000
0010
1010
1000
0100
0000
0010
,
0011
0001
0100
0101
0000
0001
2000
3000
,
1000
0000
0001
0000
0000
0100
0000
0001
0000
1000
0000
0000
0020
0000
0000
0030
,
0100
0000
0001
0000
0000
0010
0000
0100
0000
1000
0000
0000
0002
0000
0000
0003
,
0100
0000
0001
0000
0000
1000
0000
0100
0000
0010
0000
0000
0200
0000
0000
0300
,
1000
0000
0001
0000
0000
0100
0000
0001
0000
1000
0000
0000
0010
0000
0010
0000
,
0100
0000
0001
0000
0000
0100
0000
0010
0000
1000
0000
0000
0100
0000
0100
0000
,
0010
0000
0001
0000
0000
1000
0000
0001
1000
0000
0100
0000
0010
0000
0000
0000
,
0001
0100
0001
1000
0010
0100
0001
1000
,
0100
0010
0001
1000
0000
0010
0110
0000
,
1000
0000
0100
0000
0000
1000
0000
0001
0000
0100
0000
0000
0001
0000
1000
0000
,
0010
0000
1000
0000
0000
0100
0000
0001
0000
0100
0000
0000
0010
0001
0010
0001
,
0010
0000
0100
0000
0000
1000
0000
0010
0000
0001
0000
0000
0010
0000
0100
0000
,
0001
0000
1000
0000
0000
0100
0000
0010
0000
0100
0000
0000
1000
0000
1000
0000
,
0001
0000
0100
0000
0000
0010
0000
1000
0000
0001
0000
0000
0010
0000
0001
0000
,
0100
0000
1000
0000
0000
0100
0000
0001
0000
0010
0000
0000
0100
1000
0100
1000
,
0100
0000
1000
0000
0000
0010
0000
0001
0000
0010
0000
0000
0100
0000
0001
0000
,
1000
0000
0100
0000
0000
0010
0000
1000
0000
0010
0000
0000
0001
1000
0001
1000
,
0002
0000
0203
2300
0000
3200
0302
0000
,
0023
0000
0230
2300
0000
3020
0032
0000
,
2003
0000
3200
0302
0000
0023
0230
0000
,
0302
0000
0000
0000
0203
0000
2300
0000
0000
0000
3020
0000
1030
0001
1000
0001
,
2000
0000
3200
0302
0000
2003
3020
0000
,
0032
0000
0203
0320
0000
0032
0023
0000
,
2030
0000
3200
0302
0000
0203
0320
0000
,
0032
0000
0000
0000
0000
0000
0000
0000
0000
0000
0000
0000
2003
0000
0000
0000
0000
0000
3020
0000
0000
0000
0000
0000
0230
0000
0000
0000
0300
0000
0200
0000
0000
0000
0300
0000
0001
0000
0000
1000
0000
0000
0001
0000
0000
1000
0000
0000
,
0001
0000
0100
0001
1000
0010
0000
0110
,
0000
1010
0000
1001
0000
1100
0000
0011
,
0000
0000
0001
0100
0001
1000
0000
1010
,
0000
0110
0000
0101
0000
1000
0002
0003
,
1001
0000
0000
1000
0001
0100
0000
0110
,
0000
1001
0000
1100
0000
0101
0001
0001
,
0010
0001
0100
1000
0100
0000
0010
0100
,
0001
1000
0100
0110
0000
1000
1001
0000
,
1010
0000
0000
0000
0000
0000
0000
0000
0000
0101
0000
0000
0000
0000
0000
0000
0000
0000
0220
0000
0000
0000
0330
0000
,
1100
0000
0000
0000
0000
0000
0000
0000
0000
0011
0000
0000
0000
0000
0000
0000
0000
0000
2002
0000
0000
0000
3003
0000
,
1010
0000
0000
0000
0000
0000
0000
0000
0000
0101
0000
0000
0000
0000
0000
0000
0000
0000
2002
0000
0000
0000
3003
0000
,
0110
0000
0000
0000
0000
0000
0000
0000
0000
1100
0000
0000
0000
0000
0000
0000
0000
0000
0200
0000
0300
0200
0000
0300
,
0010
0000
0001
0000
0100
0010
0000
1000
0001
0000
0000
0000
0010
0000
0100
0000
,
1000
0000
0001
0000
0100
0001
0000
1000
0010
0000
0010
0000
0100
0000
0000
0000
,
0001
0010
1000
0010
0001
0100
1000
0100
,
0002
0000
0000
0000
0000
0000
2003
0000
0000
0000
0000
0000
3100
0010
0100
0010
,
0100
0000
1000
0000
0000
0010
0000
0100
0000
0001
0000
0000
1000
0000
0001
0000
,
0010
0000
1000
0000
0000
0010
0000
0100
0000
1000
0000
0000
0001
0100
0001
0100
,
0001
0000
1000
0000
0000
0010
0000
0001
0000
0010
0000
0000
0100
0000
0001
0000
,
1000
0000
0000
0000
0000
0000
0100
0000
0000
0000
0000
0000
0000
0000
0000
0010
0000
0000
0000
0000
0000
0001
0000
0000
0000
0000
0000
1000
0000
0000
0000
0000
0000
0000
0000
0000
0020
0000
0000
0000
0030
0000
0020
0000
0000
0000
0030
0000
,
0110
0000
0001
0000
0000
1000
0000
0100
0000
1000
0000
0000
0010
0000
0100
0000
,
0001
0000
0010
0000
0000
1000
0000
0010
0000
0100
0000
0000
1000
0001
1000
0001
,
1000
0000
0010
0000
0000
0100
0000
0001
0000
0100
0000
0000
0010
0000
1000
0000
,
0100
0000
0001
0000
0000
0100
0000
0010
0000
0001
0000
0000
1000
0001
1000
0001
,
0200
0000
0000
0300
0110
0000
0000
0000
0101
0000
0000
0000
0110
0000
0000
0000
,
1000
0000
0001
0000
0000
1000
0000
0100
0000
0010
0000
0000
0002
0000
0000
0000
,
0103
0000
0010
0000
0000
1000
0000
0001
0000
1000
0000
0000
0200
0000
0000
0000
,
1300
0000
0010
0000
0000
0100
0000
0001
0000
0100
0000
0000
0020
0000
0000
0000
,
0031
0000
0010
0000
0000
1000
0000
0100
0000
0001
0000
0000
0200
0000
0000
0000
,
0310
0000
0001
0000
0000
1000
0000
0010
0000
0100
0000
0000
0002
0000
0000
0000
,
1003
0010
0001
0010
1000
0100
0001
0100
,
1000
0000
0001
0000
0100
0000
0010
0000
1000
0000
0100
0000
0010
0100
0010
0100
,
0020
0000
0030
0000
;

//--------------- dance-single - forcednature ----------------
#NOTES:
     dance-single:
     forcednature:
     Challenge:
     15:
     0.710118,0.91208,0.664993,0.864491,0.835398,598,518,80,104,16,0,0,0,0,0.710118,0.91208,0.664993,0.864491,0.835398,598,518,80,104,16,0,0,0,0:
0000
0000
0000
0000
,
0000
0000
0000
0000
,
0000
0000
0000
0000
,
0000
0000
0000
0000
,
0000
0000
0000
0000
,
0000
0000
0000
0000
,
1001
1000
0010
0110
0000
0100
0001
0000
,
0011
0010
0100
1100
0000
1000
0001
0000
,
1010
0010
0100
0101
0000
1000
0100
0000
,
0011
0010
0001
1001
0000
1000
0010
0000
,
0110
0000
0100
0000
0001
0010
0000
0100
0000
1000
0000
0000
0020
0000
0000
0000
,
0031
0000
0010
0000
1000
0100
0000
0010
0000
0001
0000
0000
0200
0000
0000
0000
,
1300
0000
0100
0000
0001
0100
0000
0010
0000
1000
0000
0000
0002
0000
0000
0000
,
0013
0000
0001
0000
1000
0010
0000
0100
0000
0001
0000
0000
0200
0300
0200
0300
,
0110
0000
0010
0000
1000
0001
0000
0001
1000
0000
0100
0000
0011
0000
0110
0000
,
1100
0000
0001
0000
1000
0010
0000
0010
0100
0000
0101
0000
1010
0000
0000
0000
,
1000
0100
1000
0010
0100
0001
0010
0001
1000
0100
0010
0001
0100
0001
1000
0010
,
1000
0001
0100
0010
1000
0100
0010
0100
1000
0001
0100
0010
1000
0000
0000
0000
,
0100
0000
1000
0000
0010
0100
0000
0001
0000
0100
0000
0000
0010
0000
1000
0000
,
0100
0000
0001
0000
0100
0010
0000
0001
0000
1000
0000
0000
0001
0100
0010
1000
,
0001
0000
0100
0000
1000
0100
0000
0010
0000
1000
0000
0000
0100
0000
0001
0000
,
0100
0000
0010
0000
0001
1000
0000
0010
0000
0100
0000
0000
0220
0330
0220
0330
,
0001
0000
1000
0000
0001
0010
0000
1000
0000
0010
0000
0000
0100
0000
1000
0000
,
0010
0000
0100
0000
0001
1000
0000
0100
0000
0001
0000
0000
0100
0010
0001
1000
,
0100
0000
0010
0000
0001
1000
0000
0010
0000
0001
0000
0000
0010
0000
0100
0000
,
1000
0000
0100
0000
0001
1000
0000
0100
0000
0010
0000
0000
0100
1000
0001
0100
,
0020
0000
0000
0000
0000
0000
0030
0000
0220
0000
0000
0330
2020
0000
0000
0000
0000
0000
3030
0000
2002
0000
0000
3003
2200
0000
0000
0000
0000
0000
3300
0000
,
0022
0000
0000
0000
0000
0000
0033
0000
0202
0000
0000
0303
2002
0000
0000
0000
0000
0000
3003
0000
0220
0000
0000
0330
2020
0000
0000
0000
0000
0000
3030
0000
,
2200
0000
0000
0000
0000
0000
3300
0000
0220
0000
0000
0330
2002
0000
0000
0000
0000
0000
3003
0000
0022
0000
0000
0033
0202
0000
0000
0000
0000
0000
0303
0000
,
2020
0000
0000
0000
0000
0000
3030
0000
2200
0000
0000
3300
2002
0000
0000
0000
0000
0000
3003
0000
0002
0000
0000
0003
0100
0000
1000
0000
0100
0000
0001
0000
,
0200
0000
0000
0000
0000
0000
0300
0000
0220
0000
0000
0330
2020
0000
0000
0000
0000
0000
3030
0000
2200
0000
0000
3300
0220
0000
0000
0000
0000
0000
0330
0000
,
0022
0000
0000
0000
0033
0000
0010
0000
0200
0000
0000
0300
2200
0000
0000
0000
0000
0000
3300
0000
2002
0000
0000
3003
1000
0000
0001
0000
0100
0000
0010
0000
,
2000
0000
0000
0000
0000
0000
3000
0000
0022
0000
0000
0033
0220
0000
0000
0000
0000
0000
0330
0000
0202
0000
0000
0303
2020
0000
0000
0000
3030
0000
1000
0000
,
0200
0000
0000
0000
0300
0000
0010
0000
0002
0000
0000
0003
0220
0000
0000
0330
0002
0000
0000
0003
0002
0000
0000
0003
1000
0000
0001
0000
1000
0000
0100
0000
,
0010
0100
1000
0010
0000
0100
0001
0010
0000
0001
1000
0100
0000
0010
0001
1000
,
0000
0001
0100
0010
0000
1000
0100
0010
0000
0100
1000
0001
0000
0100
0001
1000
,
0000
0010
1000
0001
0000
1000
0100
0010
0000
0100
0010
0001
0000
1000
0010
0100
,
0000
0001
0100
1000
0000
0100
0010
1000
0000
0100
0001
0100
0020
0000
0000
0000
,
0130
1000
0010
0100
0000
0001
0100
1000
0000
0100
0001
0010
0000
0001
1000
0100
,
0000
0010
0001
0100
0000
0001
0010
1000
0000
0010
0100
1000
0010
0000
0010
0000
,
0100
0001
0010
0001
0000
0100
0010
1000
0000
0001
1000
0010
0000
0100
0001
0010
,
0100
1000
0100
0010
0001
0000
0100
0010
1000
0001
0100
0000
0110
0000
0000
0000
,
1001
0000
0000
0000
0000
0000
0000
0000
0000
0000
0000
0000
0000
0000
0000
0000
0000
0000
0000
0000
0000
0000
0000
0000
1000
0000
0000
0000
0000
0000
0000
0000
0000
0000
0000
0000
0000
0000
0000
0000
0000
0000
0000
0000
0000
0000
0000
0000
0100
0000
0000
0000
0000
0000
0000
0000
0000
0000
0000
0000
0000
0000
0000
0000
0000
0000
0000
0000
0000
0000
0000
0000
1100
0000
0000
0000
0000
0000
0000
0000
0000
0000
0000
0000
0000
0000
0000
0000
0000
0000
0000
0000
0000
0000
0000
0000
MMMM
0000
0000
0000
0000
0000
0000
0000
0000
0000
0000
0000
0000
0000
0000
0000
0000
0000
0000
0000
0000
0000
0000
0000
0000
0000
0000
0000
0000
0000
0000
0000
0000
0000
0000
0000
0000
0000
0000
0000
0000
0000
0000
0000
0000
0000
0000
0000
0220
0000
0000
0000
0000
0000
0000
0000
0000
0000
0000
0000
0000
0000
0000
0000
0000
0000
0000
0000
0000
0000
0000
0000
0000
0000
0000
0000
0000
0330
0000
0000
0000
0000
0000
0000
0000
0000
0000
0000
0000
0000
0000
0000
0000
0000
0000
0000
,
1001
0000
0000
0000
0000
0000
0000
0000
0000
0000
0000
0000
0000
0000
0000
0000
0000
0000
0000
0000
0000
0000
0000
0000
0001
0000
0000
0000
0000
0000
0000
0000
0000
0000
0000
0000
0000
0000
0000
0000
0000
0000
0000
0000
0000
0000
0000
0000
0100
0000
0000
0000
0000
0000
0000
0000
0000
0000
0000
0000
0000
0000
0000
0000
0000
0000
0000
0000
0000
0000
0000
0000
0110
0000
0000
0000
0000
0000
0000
0000
0000
0000
0000
0000
0000
0000
0000
0000
0000
0000
0000
0000
0000
0000
0000
0000
MMMM
0000
0000
0000
0000
0000
0000
0000
0000
0000
0000
0000
0000
0000
0000
0000
0000
0000
0000
0000
0000
0000
0000
0000
0000
0000
0000
0000
0000
0000
0000
0000
0000
0000
0000
0000
0000
0000
0000
0000
0000
0000
0000
0000
0000
0000
0000
0000
2002
0000
0000
0000
0000
0000
0000
0000
0000
0000
0000
0000
0000
0000
0000
0000
0000
0000
0000
0000
0000
0000
0000
0000
0000
0000
0000
0000
0000
3003
0000
0000
0000
0000
0000
0000
0000
0000
0000
0000
0000
0000
0000
0000
0000
0000
0000
0000
,
1100
0000
0000
0000
0000
0000
0000
0000
0000
0000
0000
0000
0000
0000
0000
0000
0000
0000
0000
0000
0000
0000
0000
0000
1000
0000
0000
0000
0000
0000
0000
0000
0000
0000
0000
0000
0000
0000
0000
0000
0000
0000
0000
0000
0000
0000
0000
0000
0001
0000
0000
0000
0000
0000
0000
0000
0000
0000
0000
0000
0000
0000
0000
0000
0000
0000
0000
0000
0000
0000
0000
0000
0011
0000
0000
0000
0000
0000
0000
0000
0000
0000
0000
0000
0000
0000
0000
0000
0000
0000
0000
0000
0000
0000
0000
0000
MMMM
0000
0000
0000
0000
0000
0000
0000
0000
0000
0000
0000
0000
0000
0000
0000
0000
0000
0000
0000
0000
0000
0000
0000
0000
0000
0000
0000
0000
0000
0000
0000
0000
0000
0000
0000
0000
0000
0000
0000
0000
0000
0000
0000
0000
0000
0000
0000
0220
0000
0000
0000
0000
0000
0000
0000
0000
0000
0000
0000
0000
0000
0000
0000
0000
0000
0000
0000
0000
0000
0000
0000
0000
0000
0000
0000
0000
0330
0000
0000
0000
0000
0000
0000
0000
0000
0000
0000
0000
0000
0000
0000
0000
0000
0000
0000
,
1001
0000
0000
0000
0100
0000
0000
0000
0010
0000
0000
0000
1001
0000
0000
0000
MMMM
0000
0000
0000
0000
0000
0000
0000
0220
0000
0000
0330
0220
0000
0000
0330
,
1001
0000
1100
0000
1001
0000
0011
1001
,
0101
0000
0110
0000
1010
1001
1100
0000
,
1000
0100
0010
0001
0100
0010
1000
0100
0010
0001
1000
0001
0100
0001
1000
0010
,
0200
0000
0000
0000
0000
0000
0002
0300
0000
0000
0000
0000
0013
0100
1000
0001
,
0100
0000
0010
0000
1000
0001
0000
1000
0000
0100
0000
0000
0001
0000
0100
0000
,
0010
0000
0001
0000
1000
0010
0000
0100
0000
0001
0000
0000
0100
1000
0100
0010
,
0100
0000
0001
0000
1000
0100
0000
0010
0000
1000
0000
0000
0010
0000
0001
0000
,
1000
0000
0000
0000
0001
0000
0000
0000
0100
0000
0001
0000
0000
0000
0010
0000
0000
0000
0001
0000
0000
0000
0000
0000
0220
0000
0000
0330
0220
0000
0000
0330
,
1001
0000
1000
0000
0010
1000
0000
0100
0000
0001
0000
0000
0100
0000
0010
0000
,
0001
0000
1000
0000
0001
0100
0000
1000
0000
0100
0000
0000
0010
1000
0001
0100
,
0010
0000
1000
0000
0100
0001
0000
0100
0000
0010
0000
0000
0001
0000
1000
0000
,
0010
0000
0100
0000
0001
0010
0000
1000
0000
0010
0000
0000
0100
1000
0010
0100
,
1000
0100
0001
0100
0010
1000
0000
0100
0000
0010
0000
0000
0001
0000
1000
0000
,
0010
0000
0001
0000
0010
0100
0000
0001
0000
0010
0000
0000
0220
0000
0000
0330
,
1000
0000
0001
0000
1000
0010
0000
0100
0000
0001
0000
0000
2002
0000
0000
3003
,
0001
0000
0010
0000
1000
0010
0000
0100
0000
1000
0000
0000
2002
0000
0000
3003
,
0110
0000
0001
0000
0100
0001
0000
0010
0000
0100
0000
0000
0220
0000
0000
0330
,
1100
0000
0010
0000
0100
0001
0000
1000
0000
0100
0000
0000
2020
0000
0000
3030
,
1000
0001
0100
0001
1000
0010
0100
0010
1000
0100
0010
0100
1000
0001
0010
0001
,
1000
0001
0100
0001
1000
0010
1000
0100
0010
0001
0100
0010
0100
1000
0100
0001
,
0200
0000
0300
0000
;

//--------------- dance-double - forcednature ----------------
#NOTES:
     dance-double:
     forcednature:
     Easy:
     7:
     0.305184,0.501239,0.191186,0.03325,0,257,234,23,4,0,0,0,0,0,0.305184,0.501239,0.191186,0.03325,0,257,234,23,4,0,0,0,0,0:
00000000
00000000
00000000
00000000
,
00000000
00000000
00000000
00000000
,
00000000
00000000
00000000
00000000
,
00000000
00000000
00000000
00000000
,
00000000
00000000
00000000
00000000
,
00000000
00000000
00000000
00000000
,
00010000
00000000
00000000
00001000
00000000
00000000
00000000
00000000
,
00000100
00000000
00000000
00000010
00000000
00000000
00000000
00000000
,
00001000
00000000
00000000
00000001
00000000
00000000
00000000
00000000
,
00001000
00000000
00000000
00000100
00000000
00000000
00000000
00000000
,
00010000
00000000
00000000
00001000
00000000
00000000
00100000
00000000
,
00010000
00000000
00000000
10000000
00000000
00000000
00100000
00000000
,
01000000
00000000
00000000
00010000
00000000
00000000
00100000
00000000
,
01000000
00000000
00000000
10000000
00000000
00000000
00010000
00000000
,
00100000
00001000
00010000
00000100
,
00001000
00000001
00000100
00000000
,
00000001
00000100
00000010
00010000
,
00001000
01000000
00100000
10000000
,
10010000
10000000
01000000
00100000
,
00001000
00010000
00000010
00001000
,
00000001
00000100
00000010
00001000
,
00000100
00000000
00010000
00000000
00001000
00000000
00100000
00010000
,
00100000
01000000
10000000
00010000
,
01000000
00001000
00010000
00000100
,
00001000
00000010
00000100
00000001
,
00001000
00000010
00001000
00000001
,
00001000
00000000
00000100
00001000
00000000
00000100
00001000
00000000
,
00010000
00000000
00100000
01000000
00000000
00100000
01000000
00000000
,
10000000
00000000
00100000
01000000
00000000
00100000
01000000
00000000
,
00001000
00000000
00010000
00000100
00000000
00010000
00001000
00000000
,
00000010
00000000
00000001
00000100
00000000
00000001
00000100
00000000
,
00001000
00000000
00010000
00100000
00000000
00010000
00100000
00000000
,
10000000
00000000
01000000
00100000
00000000
01000000
00100000
00000000
,
00001000
00000000
00010000
00000100
00000000
00010000
00000100
00000000
,
00001000
00000010
00000100
00000001
,
00000010
00000100
00010000
00001000
,
00100000
01000000
10000000
00100000
,
01000000
00010000
00100000
10010000
,
01000000
00001000
00010000
00000100
,
00000001
00001000
00000010
00000001
,
00000100
00000010
00001000
00000100
,
00010000
00000000
00001000
00100000
00000000
00001000
00100000
00000000
,
00010000
00000000
00000000
10000000
00000000
00000000
00100000
00000000
,
01000000
00000000
00000000
00001000
00000000
00000000
00010000
00000000
,
00000100
00000000
00000000
00001000
00000000
00000000
00000010
00000000
,
00000100
00000000
00000000
00000001
00000000
00000000
00000010
00000000
,
00000100
00010000
00001000
00100000
,
00010000
00000000
10000000
00000000
00100000
01000000
00100000
00000000
,
10000000
01000000
00010000
00001000
,
00000200
00000000
00000000
00000302
00000000
00000000
00001003
00000000
,
00001001
00000001
00000100
00000010
,
00010000
00001000
00100000
00010000
,
10010000
10000000
00100000
01000000
,
00010000
00100000
00001000
00010000
,
00011000
00000100
00001000
00000010
,
00000100
00000001
00000010
00000100
,
00000110
00000100
00010000
00001000
,
01000000
00010000
10000000
00100000
,
10010000
01000000
00010000
00100000
,
01100000
01000000
10000000
00010000
,
00011000
00001000
00000001
00000100
,
00000110
00000010
00001000
00000100
,
00000110
00000001
00001001
00000100
,
00011000
00010000
01100000
00100000
,
10010000
01010000
00101000
00011000
,
00010100
00001010
00001001
00000110
,
00022000
00000000
00000000
00000000
,
00033000
00000000
00000000
00000000
;

//--------------- dance-double - forcednature ----------------
#NOTES:
     dance-double:
     forcednature:
     Medium:
     9:
     0.460745,0.501239,0.739805,0.157936,0,388,299,89,19,0,0,0,0,0,0.460745,0.501239,0.739805,0.157936,0,388,299,89,19,0,0,0,0,0:
00000000
00000000
00000000
00000000
,
00000000
00000000
00000000
00000000
,
00000000
00000000
00000000
00000000
,
00000000
00000000
00000000
00000000
,
00000000
00000000
00000000
00000000
,
00000000
00000000
00000000
00000000
,
00011000
00000000
00000000
00101000
00000000
00000000
00000000
00000000
,
10010000
00000000
00000000
01100000
00000000
00000000
00000000
00000000
,
11000000
00000000
00000000
00110000
00000000
00000000
00000000
00000000
,
00011000
00000000
00000000
00010100
00000000
00000000
00000000
00000000
,
00001001
00000000
00000000
00000110
00000000
00000000
00000001
00000000
,
00001100
00000000
00000000
00001010
00000000
00000000
00010000
00000000
,
00011000
00000000
00000000
00101000
00000000
00000000
01000000
00000000
,
10010000
00000000
00000000
10100000
00000000
00000000
00010000
00000000
,
00011000
00000000
00001100
00000000
00001001
00000000
00000100
00000010
,
00001000
00000000
00000110
00000000
00000001
00000100
00000010
00000000
,
00001000
00000001
00001000
00000100
00010000
00001000
00100000
00010000
,
10000000
00010000
01000000
00100000
10000000
01000000
00100000
00000000
,
01100000
00010000
20000000
30010000
,
00100000
00000000
00001000
00000000
00020000
00000000
00030100
00001000
,
00000010
00000100
00000002
00001003
,
00000001
00000000
00000010
00000000
00000200
00000000
00001300
00001000
,
00000001
00000100
00000002
00001003
,
00000010
00000000
00001000
00000000
00000002
00000000
00000103
00000001
,
00000010
00000100
00020000
00031000
,
00100000
00000000
01000000
00000000
20000000
00000000
30100000
10000000
,
00010000
00000000
01000000
01100000
00000000
10000000
10010000
00000000
,
00110000
00000000
00001000
00011000
00000000
00000100
00000110
00000000
,
00001001
00000000
00001000
00001100
00000000
00000001
00000011
00000000
,
00010010
00000000
00001000
00011000
00000000
00100000
01000000
10000000
,
10100000
00000000
00010000
01010000
00000000
00100000
00101000
00000000
,
00011000
00000000
00000100
00000110
00000000
00000001
00001001
00000000
,
00001010
00000000
00000001
00000101
00000000
00010000
00011000
00000000
,
00110000
00000000
10000000
10010000
00010000
00010000
01000000
00000000
,
00100000
10000000
00010000
01000000
00001000
00100000
00001000
00010000
,
00100000
01000000
00010000
10000000
01000000
00100000
00001000
00000000
,
00010000
00000100
00001000
00000001
00000010
00000100
00001000
00000001
,
00000100
00000001
00001000
00000100
00000010
00000100
00001000
00000000
,
00000001
00000100
00000001
00001000
00000010
00001000
00000001
00000100
,
00000010
00010000
00001000
00010000
00000100
00001000
00000010
00000000
,
00010000
00001000
00100000
00010000
10000000
01000000
00100000
01000000
,
10000000
00010000
00100000
00010000
00000000
10000000
00010000
00000000
,
01100000
00000000
00000000
01010000
00000000
00000000
00002000
00003000
,
00011000
00000000
00000000
00010100
00000000
00000000
00002000
00003000
,
00000110
00000000
00000000
00001001
00000000
00000000
00000020
00000030
,
00000101
00000000
00000000
00001100
00000000
00000000
00020000
00031000
,
00011000
00000000
00110000
00000000
10010000
00000000
01000000
00100000
,
10000000
00000000
01100000
00000000
00010000
00100000
00001000
00000000
,
00010000
00000100
00010000
00001000
00100000
00001000
00010000
00000010
,
00020000
00000000
00000000
00032000
00000000
00000000
01003000
01000000
,
01100000
10100000
10010000
11000000
,
00110000
01010000
00110000
00101000
,
00001000
00010000
00000100
00000000
00001000
00000010
00001000
00000000
,
00000001
00000100
00000010
00000000
00001000
00000000
00000010
00000010
,
00000110
00000101
00001100
00001001
,
00001010
00001001
00001100
00010100
,
00010000
00001000
01000000
00000000
00010000
01000000
00100000
00000000
,
10000000
01000000
00100000
00000000
01000000
00100000
01000000
00000000
,
10000000
10000000
10010000
00000000
01010000
00000000
00110000
00000000
,
00101000
00000000
00010100
00000000
00001010
00000000
00002000
00003000
,
00000101
00000011
00000110
00001001
,
00001100
00000000
00010010
00000000
00010100
00000000
00020000
00030000
,
00011000
00000000
00101000
00000000
01010000
00000000
20000000
30000000
,
11000000
00000000
10100000
00000000
01010000
00000000
00002000
00003000
,
00010000
00001000
00010000
00000100
00001000
00000001
00000100
00000010
,
00001000
00000100
00010000
00001000
00100000
00010000
01000000
00010000
,
20000000
00000000
00000000
00000000
,
30000000
00000000
00000000
00000000
;

//--------------- dance-double - forcednature ----------------
#NOTES:
     dance-double:
     forcednature:
     Hard:
     12:
     0.537932,0.635692,0.806304,0.124686,0.24106,453,356,97,15,0,0,0,0,0,0.537932,0.635692,0.806304,0.124686,0.24106,453,356,97,15,0,0,0,0,0:
00000000
00000000
00000000
00000000
,
00000000
00000000
00000000
00000000
,
00000000
00000000
00000000
00000000
,
00000000
00000000
00000000
00000000
,
00000000
00000000
00000000
00000000
,
00000000
00000000
00000000
00000000
,
00011000
00000000
00000000
00010100
00000000
00000000
00000000
00000000
,
00000110
00000000
00000000
00000101
00000000
00000000
00000000
00000000
,
00001001
00000000
00000000
00001100
00000000
00000000
00000000
00000000
,
00011000
00000000
00000000
00110000
00000000
00000000
00010000
00000000
,
10000000
00000000
00100000
00000000
00000000
01000000
00000000
00010000
00000000
01000000
00000000
00000000
00200000
00000000
00000000
00000000
,
00310000
00000000
00001000
00000000
00000000
00000010
00000000
00000001
00000000
00000100
00000000
00000000
00000020
00000000
00000000
00000000
,
00001030
00000000
00000100
00000000
00000000
00010000
00000000
00001000
00000000
00100000
00000000
00000000
02000000
00000000
00000000
00000000
,
13000000
00000000
00100000
00000000
00000000
00010000
00000000
00001000
00000000
00010000
00000000
00000000
01000000
00000000
01000000
00000000
,
00100000
00000000
00001000
00000000
00010000
00000000
00000000
00000010
00000000
00000000
00000100
00000000
00000001
00000000
00000010
00000000
,
00000100
00000000
00001000
00000000
00000001
00000000
00000000
00000100
00000000
00000000
00001000
00000000
00001000
00000000
00000000
00000000
,
00010000
00100000
00010000
00001000
00010000
01000000
10000000
00010000
,
01000000
00001000
00010000
00000100
00001000
00000001
00000100
00000000
,
00000110
00000000
00000001
00000000
00000000
00001000
00000000
00000100
00000000
00001000
00000000
00000000
00000010
00000000
00010000
00000000
,
00001000
00000000
00100000
00000000
00000000
00010000
00000000
10000000
00000000
00010000
00000000
00000000
01000000
00010000
01000000
00010000
,
01000000
00000000
00100000
00000000
00000000
10000000
00000000
01000000
00000000
00100000
00000000
00000000
00001000
00000000
00010000
00000000
,
00000100
00000000
00001000
00000000
00000000
00000001
00000000
00000100
00000000
00000010
00000000
00000000
00001000
00000000
00001000
00000000
,
00000100
00000000
00010000
00000000
00000000
00001000
00000000
00100000
00000000
00001000
00000000
00000000
01000000
00000000
00010000
00000000
,
10000000
00000000
00100000
00000000
00000000
01000000
00000000
00010000
00000000
00100000
00000000
00000000
00001000
00010000
00001000
00010000
,
00001000
00000000
00010000
00000000
00000000
00000100
00000000
00001000
00000000
00000010
00000000
00000000
00000100
00000000
00000001
00000000
,
00001000
00000000
00000010
00000000
00000000
00001000
00000000
00000100
00000000
00000010
00000000
00000000
00000001
00001000
00000001
00001000
,
00000001
00000000
00000110
00000110
00000000
00011000
00011000
00000000
,
00110000
00000000
01010000
00110000
00000000
11000000
10100000
00000000
,
10010000
00000000
01010000
01001000
00000000
00011000
00010100
00000000
,
00011000
00000000
00000000
00000000
00101000
00000000
00011000
00000000
00000000
00000000
00000010
00000000
00000100
00000001
00000100
00000001
,
00000100
00000000
00000110
00001010
00000000
00001100
00010100
00000000
,
00011000
00000000
01010000
10100000
00000000
11000000
00110000
00000000
,
00011000
00000000
00110000
00011000
00000000
00001100
00011000
00000000
,
01010000
00000000
00011000
00001100
00001000
00001000
00000001
00000000
,
00000100
00000001
00000100
00001000
00010000
01000000
10000000
00010000
,
10000000
00100000
10000000
00010000
01000000
00100000
10000000
00010000
,
00100000
00001000
00010000
00001000
00000100
00000001
00001000
00000100
,
00000010
00000001
00000100
00001000
00010000
01000000
20000000
00000000
,
30010000
01000000
00001000
00010000
00000010
00001000
00000100
00000001
,
00000100
00001000
00000010
00010000
00001000
00010000
01000000
10000000
,
00010000
01000000
00010000
00100000
00001000
00010000
00000100
00001000
,
00000010
00001000
00000001
00000101
00000000
00001000
00001100
00000000
,
00000110
00000000
00000000
00011000
00000000
00000000
02000000
03000000
,
10010000
00000000
00000000
10100000
00000000
00000000
00020000
00030000
,
00110000
00000000
00000000
00011000
00000000
00000000
00000200
00000300
,
00001001
00000000
00000000
00000101
00000000
00000000
00000010
00000010
,
00000100
00000001
00000100
00000000
00000110
00000000
00000001
00000100
,
00001000
00010000
01000000
00000000
10000000
00010000
10010000
00000000
,
10000000
00010000
01000000
00001000
00010000
00000100
00001000
00000001
,
00000200
00000000
00000000
00000000
00000000
00000000
00002300
00000000
00000000
00000000
00000000
00000000
00013000
00001000
00010000
00001000
,
00010000
00110000
00011000
01001000
,
10010000
00000000
00000000
00000000
11000000
00000000
00000000
00000000
00110000
00000000
00000000
00000000
00001000
00010000
00001000
00010000
,
00001000
00001100
00000101
00001001
,
00000110
00000000
00001100
00000000
00011000
00000000
00100000
00100000
,
00110000
11000000
10100000
01010000
,
00011000
00000000
00000000
00000000
00001100
00000000
00000000
00000000
00001010
00000000
00000000
00000000
00000001
00001000
00000001
00001000
,
00000001
00000011
00000110
00001100
,
00001001
00000000
00000000
00000000
00001100
00000000
00000000
00000000
00010100
00000000
00000000
00000000
00010000
00001000
00010000
00001000
,
00100000
00010000
00100000
00010000
00100000
00000000
00000000
00000000
01100000
00000000
00000000
00000000
11000000
00000000
00000000
00000000
,
10010000
00000000
00110000
00000000
00011000
00000000
00000200
00000300
,
00000110
00000000
00000101
00000000
00001100
00000000
00020000
00030000
,
00110000
00000000
01010000
00000000
10010000
00000000
00200000
00300000
,
11000000
00000000
01010000
00000000
00011000
00000000
00000200
00000300
,
00001010
00000000
00000101
00000000
00000011
00000000
00002000
00003000
,
00010000
00001000
00010000
00100000
10000000
01000000
00010000
01000000
,
00100000
00000000
00001000
00000000
00010000
00000000
00000010
00000000
00000100
00000000
00001000
00000000
00010000
00001000
00010000
00001000
,
00020000
00000000
00030000
00000000
;

//--------------- dance-double - forcednature ----------------
#NOTES:
     dance-double:
     forcednature:
     Challenge:
     15:
     0.673306,0.91208,0.407308,0.623431,0.835398,567,518,49,75,16,0,0,0,0,0.673306,0.91208,0.407308,0.623431,0.835398,567,518,49,75,16,0,0,0,0:
00000000
00000000
00000000
00000000
,
00000000
00000000
00000000
00000000
,
00000000
00000000
00000000
00000000
,
00000000
00000000
00000000
00000000
,
00000000
00000000
00000000
00000000
,
00000000
00000000
00000000
00000000
,
00011000
00001000
00100000
01100000
00000000
10000000
00010000
00000000
,
10100000
00100000
00010000
00011000
00000000
00000100
00000010
00000000
,
00000101
00000100
00000010
00010010
00000000
00100000
00001000
00000000
,
00110000
00100000
01000000
11000000
00000000
10000000
00010000
00000000
,
00110000
00000000
00100000
00000000
00001000
00010000
00000000
00000100
00000000
00000010
00000000
00000000
00002000
00000000
00000000
00000000
,
00013000
00000000
00000010
00000000
00000100
00000001
00000000
00001000
00000000
00000100
00000000
00000000
00020000
00000000
00000000
00000000
,
01030000
00000000
00100000
00000000
00010000
10000000
00000000
00100000
00000000
00010000
00000000
00000000
00002000
00000000
00000000
00000000
,
00003100
00000000
00000001
00000000
00000010
00000100
00000000
00010000
00000000
00001000
00000000
00000000
02000000
03000000
02000000
03000000
,
01100000
00000000
10000000
00000000
00010000
00100000
00000000
01000000
10000000
00000000
00010000
00000000
00110000
00000000
00101000
00000000
,
00011000
00000000
00010000
00000000
00000100
00001000
00000000
00000010
00000100
00000000
00000101
00000000
00001010
00000000
00000000
00000000
,
00000001
00000100
00000001
00000010
00000100
00001000
00000001
00000100
00000010
00001000
00000100
00010000
00001000
01000000
00010000
10000000
,
00100000
01000000
00010000
01000000
00100000
10000000
01000000
00100000
00010000
01000000
00001000
00100000
00010000
00000000
00000000
00000000
,
01000000
00000000
10000000
00000000
01000000
00010000
00000000
00100000
00000000
00001000
00000000
00000000
00010000
00000000
00000100
00000000
,
00001000
00000000
00000001
00000000
00000100
00001000
00000000
00010000
00000000
00100000
00000000
00000000
00010000
00001000
00010000
01000000
,
10000000
00000000
00100000
00000000
01000000
00010000
00000000
00100000
00000000
00001000
00000000
00000000
00000010
00000000
00000100
00000000
,
00001000
00000000
00000001
00000000
00000100
00001000
00000000
00000100
00000000
00000010
00000000
00000000
00022000
00033000
00022000
00033000
,
00010000
00000000
00001000
00000000
00100000
01000000
00000000
00010000
00000000
01000000
00000000
00000000
10000000
00000000
00010000
00000000
,
00100000
00000000
00001000
00000000
00010000
00000010
00000000
00000100
00000000
00000001
00000000
00000000
00000010
00000100
00010000
00001000
,
00000100
00000000
00000001
00000000
00001000
00000100
00000000
00010000
00000000
00001000
00000000
00000000
01000000
00000000
00100000
00000000
,
00010000
00000000
00001000
00000000
00100000
01000000
00000000
10000000
00000000
00100000
00000000
00000000
00010000
00001000
00010000
00000100
,
00000020
00000000
00000000
00000000
00000000
00000000
00000030
00000000
00000002
00000000
00000000
00000003
00000200
00000000
00000000
00000000
00000000
00000000
00000300
00000000
00020000
00000000
00000000
00030000
02000000
00000000
00000000
00000000
00000000
00000000
03000000
00000000
,
00200000
00000000
00000000
00000000
00000000
00000000
00300000
00000000
20000000
00000000
00000000
30000000
02000000
00000000
00000000
00000000
00000000
00000000
03000000
00000000
00002000
00000000
00000000
00003000
00000200
00000000
00000000
00000000
00000000
00000000
00000300
00000000
,
00000020
00000000
00000000
00000000
00000000
00000000
00000030
00000000
00000002
00000000
00000000
00000003
00002000
00000000
00000000
00000000
00000000
00000000
00003000
00000000
00020000
00000000
00000000
00030000
20000000
00000000
00000000
00000000
00000000
00000000
30000000
00000000
,
00200000
00000000
00000000
00000000
00000000
00000000
00300000
00000000
02000000
00000000
00000000
03000000
00020000
00000000
00000000
00000000
00000000
00000000
00030000
00000000
00000200
00000000
00000000
00000300
00000010
00000000
00001000
00000000
00000001
00000000
00000100
00000000
,
00000020
00000000
00000000
00000000
00000000
00000000
00000030
00000000
00002000
00000000
00000000
00003000
00000200
00000000
00000000
00000000
00000000
00000000
00000300
00000000
00020000
00000000
00000000
00030000
00200000
00000000
00000000
00000000
00000000
00000000
00300000
00000000
,
20000000
00000000
00000000
00000000
30000000
00000000
00010000
00000000
02000000
00000000
00000000
03000000
00002000
00000000
00000000
00000000
00000000
00000000
00003000
00000000
00000020
00000000
00000000
00000030
00000001
00000000
00001000
00000000
00000001
00000000
00000100
00000000
,
00000020
00000000
00000000
00000000
00000000
00000000
00000030
00000000
00020000
00000000
00000000
00030000
02000000
00000000
00000000
00000000
00000000
00000000
03000000
00000000
20000000
00000000
00000000
30000000
00020000
00000000
00000000
00000000
00030000
00000000
01000000
00000000
,
00002000
00000000
00000000
00000000
00003000
00000000
00010000
00000000
00000200
00000000
00000000
00000300
00000020
00000000
00000000
00000030
00000002
00000000
00000000
00000003
00000002
00000000
00000000
00000003
00000100
00000000
00001000
00000000
00000100
00000000
00000001
00000000
,
00000100
00001000
00010000
00100000
00000000
10000000
01000000
00100000
00000000
00010000
10000000
01000000
00000000
00100000
00001000
00010000
,
00000000
00000100
00001000
00000010
00000000
00000100
00000001
00001000
00000000
00000100
00000010
00000001
00000000
00000100
00001000
00010000
,
00000000
00100000
10000000
01000000
00000000
00100000
00001000
00010000
00000000
00000100
00001000
00000010
00000000
00000100
00000001
00001000
,
00000000
00000100
00010000
00001000
00000000
00100000
00010000
01000000
00000000
00100000
10000000
01000000
00020000
00000000
00000000
00000000
,
00031000
00010000
00001000
00000010
00000000
00000001
00000100
00000010
00000000
00001000
00000100
00010000
00000000
00001000
00100000
00010000
,
00000000
01000000
00100000
10000000
00000000
01000000
00100000
00001000
00000000
00010000
00000010
00000100
00000001
00000000
00000001
00000000
,
00000010
00000100
00001000
00000100
00000000
00010000
00001000
00100000
00000000
01000000
10000000
00100000
00000000
01000000
00001000
00010000
,
00000100
00010000
00001000
01000000
00001000
00000000
00010000
00000010
00000100
00000001
00000010
00000000
00000110
00000000
00000000
00000000
,
00001001
00000000
00000001
00000000
00000100
00000000
00011000
00000000
0M0MMM00
00000000
00000000
00000000
02200000
00000000
00000000
03300000
,
11000000
00000000
00100000
00000000
00010000
00000000
00011000
00000000
00MMM0M0
00000000
00000000
00000000
00002200
00000000
00000000
00003300
,
00001001
00000000
00000000
00000000
00000000
00000000
00000000
00000000
00000000
00000000
00000000
00000000
00000000
00000000
00000000
00000000
00000000
00000000
00000000
00000000
00000000
00000000
00000000
00000000
00000001
00000000
00000000
00000000
00000000
00000000
00000000
00000000
00000000
00000000
00000000
00000000
00000000
00000000
00000000
00000000
00000000
00000000
00000000
00000000
00000000
00000000
00000000
00000000
00000100
00000000
00000000
00000000
00000000
00000000
00000000
00000000
00000000
00000000
00000000
00000000
00000000
00000000
00000000
00000000
00000000
00000000
00000000
00000000
00000000
00000000
00000000
00000000
00000110
00000000
00000000
00000000
00000000
00000000
00000000
00000000
00000000
00000000
00000000
00000000
00000000
00000000
00000000
00000000
00000000
00000000
00000000
00000000
00000000
00000000
00000000
00000000
0000MMMM
00000000
00000000
00000000
00000000
00000000
00000000
00000000
00000000
00000000
00000000
00000000
00000000
00000000
00000000
00000000
00000000
00000000
00000000
00000000
00000000
00000000
00000000
00000000
00000000
00000000
00000000
00000000
00000000
00000000
00000000
00000000
00000000
00000000
00000000
00000000
00000000
00000000
00000000
00000000
00000000
00000000
00000000
00000000
00000000
00000000
00000000
00000000
02200000
00000000
00000000
00000000
00000000
00000000
00000000
00000000
00000000
00000000
00000000
00000000
00000000
00000000
00000000
00000000
00000000
00000000
00000000
00000000
00000000
00000000
00000000
00000000
00000000
00000000
00000000
00000000
00000000
03300000
00000000
00000000
00000000
00000000
00000000
00000000
00000000
00000000
00000000
00000000
00000000
00000000
00000000
00000000
00000000
00000000
00000000
00000000
,
10100000
00000000
00000000
00000000
01000000
00000000
00000000
00000000
00100000
00000000
00000000
00000000
01010000
00000000
00000000
00000000
MMMM0000
00000000
00000000
00000000
00000000
00000000
00000000
00000000
00000220
00000000
00000000
00000330
00000220
00000000
00000000
00000330
,
00001001
00000000
00000101
00000000
00011000
00000000
11000000
10010000
,
10100000
00000000
01100000
00000000
00110000
00011000
00001100
00000000
,
00000001
00001000
00000100
00010000
00001000
00100000
00010000
01000000
00100000
10000000
01000000
00100000
00001000
00010000
00000100
00001000
,
00000002
00000000
00000000
00000000
00000000
00000000
00000200
00000000
00000003
00000000
00000000
00000000
00001300
00010000
01000000
10000000
,
00100000
00000000
01000000
00000000
00010000
00100000
00000000
00001000
00000000
00010000
00000000
00000000
00000100
00000000
00000010
00000000
,
00000001
00000000
00000100
00000000
00001000
00010000
00000000
01000000
00000000
10000000
00000000
00000000
00010000
00100000
00010000
01000000
,
00010000
00000000
10000000
00000000
01000000
00010000
00000000
00001000
00000000
00000100
00000000
00000000
00000001
00000000
00001000
00000000
,
00010000
00000000
00000000
00000000
00001000
00000000
00000000
00000000
00000100
00000000
00010000
00000000
00000000
00000000
00001000
00000000
00000000
00000000
00100000
00000000
00000000
00000000
00000000
00000000
02200000
00000000
00000000
03300000
02200000
00000000
00000000
03300000
,
10010000
00000000
00010000
00000000
00100000
00001000
00000000
00010000
00000000
00000100
00000000
00000000
00001000
00000000
00000001
00000000
,
00000100
00000000
00001000
00000000
00000100
00000001
00000000
00001000
00000000
00000100
00000000
00000000
00010000
00001000
01000000
00100000
,
00010000
00000000
01000000
00000000
10000000
00010000
00000000
00100000
00000000
00001000
00000000
00000000
00000100
00000000
00000001
00000000
,
00001000
00000000
00000100
00000000
00010000
00001000
00000000
00100000
00000000
00010000
00000000
00000000
01000000
10000000
01000000
00100000
,
00010000
00001000
00010000
00000100
00010000
00001000
00000000
00000010
00000000
00000001
00000000
00000000
00000100
00000000
00001000
00000000
,
00000100
00000000
00000010
00000000
00010000
00001000
00000000
00100000
00000000
01000000
00000000
00000000
20020000
00000000
00000000
30030000
,
10000000
00000000
01000000
00000000
00010000
00001000
00000000
00000100
00000000
00000001
00000000
00000000
00002002
00000000
00000000
00003003
,
00000001
00000000
00000100
00000000
00001000
00010000
00000000
01000000
00000000
10000000
00000000
00000000
20020000
00000000
00000000
30030000
,
10000000
00000000
01000000
00000000
00001000
00010000
00000000
00000010
00000000
00000001
00000000
00000000
00000220
00000000
00000000
00000330
,
00000001
00000000
00000100
00000000
00010000
00001000
00000000
00100000
00000000
10000000
00000000
00000000
02200000
00000000
00000000
03300000
,
10000000
01000000
00100000
00010000
01000000
00001000
00010000
00001000
00000100
00000010
00001000
00000100
00000010
00000001
00000100
00000010
,
00001000
00000100
00010000
00001000
00100000
00010000
01000000
00100000
10000000
00010000
01000000
00100000
10000000
01000000
00010000
01000000
,
00002000
00000000
00003000
00000000
;
