#TITLE:ai·shi·te·ru·yo;
#SUBTITLE:;
#ARTIST:空 アキラ;
#TITLETRANSLIT:ai-shi-te-ru-yo;
#SUBTITLETRANSLIT:;
#ARTISTTRANSLIT:Akira Sora;
#GENRE:Future Bass;
#CREDIT:Haley Halcyon;
#MUSIC:ai-shi-te-ru-yo.ogg;
#BANNER:ai-shi-te-ru-yo.png;
#BACKGROUND:ai-shi-te-ru-yo-bg.png;
#CDTITLE:cdtitle.png;
#SAMPLESTART:77.838;
#SAMPLELENGTH:12.973;
#SELECTABLE:YES;
#OFFSET:0.000;
#BPMS:0.000=148.000
,63.000=37.000
,64.000=296.000
,66.000=148.000
,67.000=296.000
,70.000=148.000
,71.000=296.000
,74.000=148.000
,75.000=296.000
,78.000=148.000
,79.000=296.000
,82.000=148.000
,83.000=296.000
,86.000=148.000
,87.000=296.000
,90.000=148.000
,91.000=296.000
,94.000=148.000
,95.000=296.000
,96.000=592.000
,97.000=148.000
,98.000=296.000
,101.000=148.000
,102.000=296.000
,105.000=148.000
,106.000=296.000
,109.000=148.000
,110.000=296.000
,113.000=148.000
,114.000=296.000
,117.000=148.000
,119.000=296.000
,121.000=148.000
,122.000=296.000
,125.000=148.000
,126.000=296.000
,127.000=148.000
,159.000=296.000
,159.500=21.143
,159.750=148.000
,190.000=296.000
,192.000=148.000
,193.000=296.000
,196.000=148.000
,197.000=296.000
,200.000=148.000
,201.000=296.000
,204.000=148.000
,205.000=296.000
,208.000=148.000
,209.000=296.000
,212.000=148.000
,213.000=296.000
,216.000=148.000
,217.000=296.000
,220.000=148.000
,221.000=296.000
,222.000=148.000
,222.333=74.000
,222.667=148.000
,223.000=74.000
,223.333=148.000
,223.667=74.000
,224.000=296.000
,227.000=148.000
,228.000=296.000
,231.000=148.000
,232.000=296.000
,235.000=148.000
,236.000=296.000
,239.000=148.000
,240.000=296.000
,243.000=148.000
,245.000=296.000
,247.000=148.000
,248.000=296.000
,251.000=148.000
,252.000=296.000
,253.000=148.000
;
#STOPS:64.000=0.101
,64.500=0.101
,65.000=0.101
,65.500=0.102
,67.000=0.101
,67.500=0.203
,68.500=0.101
,69.000=0.204
,71.000=0.101
,71.500=0.102
,72.000=0.101
,72.500=0.101
,73.000=0.101
,73.500=0.102
,75.000=0.101
,75.500=0.203
,76.500=0.101
,77.000=0.101
,77.500=0.102
,79.000=0.203
,80.000=0.101
,80.500=0.101
,81.000=0.101
,81.500=0.102
,83.000=0.101
,83.500=0.203
,84.500=0.101
,85.000=0.203
,87.000=0.101
,87.500=0.102
,88.000=0.101
,88.500=0.101
,89.000=0.101
,89.500=0.102
,91.000=0.101
,91.500=0.204
,92.500=0.101
,93.000=0.101
,93.500=0.102
,95.000=0.201
,96.250=0.356
,96.750=0.355
,98.000=0.101
,98.500=0.203
,99.500=0.101
,100.000=0.203
,102.000=0.101
,102.500=0.102
,103.000=0.101
,103.500=0.101
,104.000=0.101
,104.500=0.102
,106.000=0.101
,106.500=0.203
,107.500=0.101
,108.000=0.101
,108.500=0.102
,110.000=0.203
,111.000=0.101
,111.500=0.102
,112.000=0.101
,112.500=0.102
,114.000=0.101
,114.500=0.203
,115.500=0.101
,116.000=0.202
,119.000=0.101
,119.500=0.102
,120.000=0.101
,120.500=0.102
,122.000=0.101
,122.500=0.203
,123.500=0.101
,124.000=0.101
,124.500=0.102
,126.000=0.201
,190.000=0.101
,190.500=0.101
,191.000=0.101
,191.500=0.102
,193.000=0.101
,193.500=0.203
,194.500=0.101
,195.000=0.204
,197.000=0.101
,197.500=0.102
,198.000=0.101
,198.500=0.101
,199.000=0.101
,199.500=0.102
,201.000=0.101
,201.500=0.203
,202.500=0.101
,203.000=0.101
,203.500=0.102
,205.000=0.203
,206.000=0.101
,206.500=0.101
,207.000=0.101
,207.500=0.102
,209.000=0.101
,209.500=0.203
,210.500=0.101
,211.000=0.203
,213.000=0.101
,213.500=0.102
,214.000=0.101
,214.500=0.101
,215.000=0.101
,215.500=0.102
,217.000=0.101
,217.500=0.204
,218.500=0.101
,219.000=0.101
,219.500=0.102
,221.000=0.201
,224.000=0.101
,224.500=0.203
,225.500=0.101
,226.000=0.203
,228.000=0.101
,228.500=0.102
,229.000=0.101
,229.500=0.101
,230.000=0.101
,230.500=0.102
,232.000=0.101
,232.500=0.203
,233.500=0.101
,234.000=0.101
,234.500=0.102
,236.000=0.203
,237.000=0.101
,237.500=0.102
,238.000=0.101
,238.500=0.102
,240.000=0.101
,240.500=0.203
,241.500=0.101
,242.000=0.202
,245.000=0.101
,245.500=0.102
,246.000=0.101
,246.500=0.102
,248.000=0.101
,248.500=0.203
,249.500=0.101
,250.000=0.101
,250.500=0.102
,252.000=0.201
;
#DISPLAYBPM:148.000;
#ORIGIN:;
#PREVIEWVID:;
#JACKET:ai-shi-te-ru-yo-jacket.png;
#CDIMAGE:;
#DISCIMAGE:;
#BGCHANGES:;
#FGCHANGES:;

//--------------- dance-single - Haley Halcyon ----------------
#NOTES:
     dance-single:
     Haley Halcyon:
     Beginner:
     5:
     0.186787,0.275803,0,0.133723,0,176,176,0,18,0,0,0,0,0,0.186787,0.275803,0,0.133723,0,176,176,0,18,0,0,0,0,0:
0000
0000
0000
0000
,
0000
0000
0000
0000
,
0000
0000
0000
0000
,
0000
0000
0000
0000
,
1000
0000
0100
1000
,
0000
0000
0001
0000
,
0100
0000
0010
0100
,
0000
0000
0001
0000
,
1000
0000
0000
1000
,
0100
0000
0000
0100
,
0010
0000
0000
0010
,
0001
0000
0000
0001
,
1000
0000
0001
0000
,
1000
0001
1000
0001
,
0100
0010
1000
0001
,
0200
0000
0000
0300
,
0001
1000
0010
1000
,
0000
0100
0000
0000
1000
0000
0001
0000
,
0010
0100
1000
0010
,
0000
0100
0000
0000
0001
0000
0010
0000
,
0001
0100
0010
1000
,
0000
0100
0000
0000
0010
0000
0100
0000
,
1000
0010
0100
0001
,
0000
1000
0000
0000
0100
0000
0010
0000
,
0000
0000
0000
0001
,
0000
0100
0000
0000
0010
0000
1000
0000
,
0100
0010
0100
1000
,
0000
0001
0000
0000
0100
0000
0010
0000
,
1000
0100
0010
0100
,
0000
1000
0000
0000
0010
0000
0000
0000
,
0010
0100
0001
1000
,
0000
0100
0000
0000
0010
0000
0100
0000
,
1000
0100
0000
0010
,
0000
0001
0000
0000
,
0000
0010
0000
0001
,
0000
0100
0010
0000
,
0000
1000
0000
0100
,
0000
0010
0000
0000
,
0000
0001
0000
0100
,
0000
0010
0100
0001
,
0000
0000
0000
1000
,
0000
0100
0000
0000
,
0000
0010
0000
0100
,
0000
1000
0010
0000
,
0000
0100
0000
0001
,
0000
1000
0000
0000
,
0000
0100
0000
0010
,
0000
0100
1000
0001
,
1000
1000
0100
0010
,
0000
0001
0000
0000
0100
0000
0000
0000
,
0001
0001
0010
0100
,
0000
1000
0000
0000
0001
0000
0100
0000
,
0010
0010
1000
0100
,
0000
0010
0000
0000
0001
0000
0000
0000
,
0010
0010
0001
1000
,
0000
0010
0000
0000
0100
0000
0001
0000
,
2000
0000
0000
3001
,
0000
0100
0000
0000
0010
0000
1000
0000
,
0100
0100
0010
0100
,
0000
1000
0000
0000
0001
0000
0100
0000
,
0010
0010
0100
0001
,
0000
1000
0000
0000
0100
0000
0000
0000
,
0100
0100
0010
0001
,
0000
1000
0000
0000
0100
0000
0010
0000
,
0002
0000
0003
2000
,
0000
0000
3000
0000
,
0020
0000
0030
0200
,
0000
0000
0300
0000
,
0002
0000
0003
2000
,
0000
0000
3000
0000
,
0200
0000
0300
0020
,
0000
0000
0030
0000
,
0002
0000
0000
0203
,
0000
0000
0000
0000
,
0320
0000
0000
2030
,
0000
0000
0000
0000
,
3002
0000
0000
0023
,
0000
0000
0000
0000
,
0230
0000
0000
2000
,
0000
0000
0000
0000
,
0000
0000
0000
0000
,
0000
0000
0000
0000
,
0000
0000
3300
0000
;

//--------------- dance-single - Haley Halcyon ----------------
#NOTES:
     dance-single:
     Haley Halcyon:
     Easy:
     6:
     0.185726,0.245901,0,0.126294,0,175,175,0,17,0,0,0,0,1,0.185726,0.245901,0,0.126294,0,175,175,0,17,0,0,0,0,1:
0000
0000
0000
0000
,
0000
0000
0000
0000
,
0000
0000
0000
0000
,
0000
0000
0000
0000
,
1000
0000
0100
1000
,
0000
0000
0001
0000
,
0100
0000
0010
0100
,
0000
0000
0001
0000
,
1000
0000
0000
1000
,
0100
0000
0000
0100
,
0010
0000
0000
0010
,
0001
0000
0000
0001
,
1000
0000
0001
0000
,
1000
0001
1000
0001
,
0100
0010
1000
0001
,
0200
0000
0000
0000
0000
0000
0000
0000
0000
0000
0000
0000
0000
0000
0000
0300
,
0001
1000
0010
1000
,
0000
0100
0000
0000
1000
0000
0001
0000
,
0010
0100
1000
0010
,
0000
0100
0000
0000
0001
0000
0010
0000
,
0001
0100
0010
1000
,
0000
0100
0000
0000
0010
0000
0100
0000
,
1000
0010
0100
0001
,
0000
1000
0000
0000
0100
0000
0010
0000
,
0000
0000
0000
0000
0001
0000
0000
0100
,
0000
0010
1000
0100
,
0010
0000
0100
0000
1000
0000
0000
0001
,
0000
0100
0010
1000
,
0100
0000
0010
0000
0100
0000
0000
1000
,
0000
0010
0000
0010
,
0100
0000
0001
0000
1000
0000
0000
0100
,
0000
0010
0100
1000
,
0100
0000
0010
0000
,
0001
0000
0000
0000
,
0010
0000
0001
0000
,
0100
0010
0000
0000
,
1000
0000
0100
0000
,
0010
0000
0000
0000
,
0001
0000
0100
0000
,
0010
0100
0001
0000
,
0000
1000
0000
0100
,
0000
0000
0000
0010
,
0000
0100
0000
1000
,
0010
0000
0000
0100
,
0000
0001
0000
1000
,
0000
0000
0000
0100
,
0000
0010
0000
0100
,
1000
0001
1000
1000
,
0100
0000
0010
0000
0000
0001
0000
0000
,
0100
0000
0001
0001
,
0010
0000
0100
0000
0000
1000
0000
0000
,
0001
0100
0010
0010
,
1000
0000
0100
0000
0000
0010
0000
0000
,
0001
0000
0010
0010
,
0001
0000
1000
0000
0000
0010
0000
0000
,
0100
0001
2000
0000
,
3001
0000
0000
0100
0000
0000
0010
0000
,
1000
0100
0100
0010
,
0100
0000
0000
1000
0000
0000
0001
0000
,
0100
0010
0010
0100
,
0001
0000
0000
1000
0000
0000
0100
0000
,
0000
0100
0100
0010
,
0001
0000
0000
1000
0000
0000
0100
0000
,
0010
0002
0000
0003
,
2000
0000
0000
3000
,
0000
0020
0000
0030
,
0200
0000
0000
0300
,
0000
0002
0000
0003
,
2000
0000
0000
3000
,
0000
0200
0000
0300
,
0020
0000
0000
0030
,
0000
0002
0000
0000
,
0203
0000
0000
0000
,
0000
0320
0000
0000
,
2030
0000
0000
0000
,
0000
3002
0000
0000
,
0023
0000
0000
0000
,
0000
0230
0000
0000
,
2000
0000
0000
0000
,
0000
0000
0000
0000
,
0000
0000
0000
0000
,
0000
0000
0000
0000
,
0000
0000
0000
3300
;

//--------------- dance-single - Haley Halcyon ----------------
#NOTES:
     dance-single:
     Haley Halcyon:
     Medium:
     9:
     0.223932,0.37108,0,0.468029,0,211,211,0,63,0,0,29,0,0,0.223932,0.37108,0,0.468029,0,211,211,0,63,0,0,29,0,0:
0000
0000
0000
0000
,
0000
0000
0000
0000
,
0000
0000
0000
0000
,
0000
0000
0000
0000
,
0002
0000
0000
2003
,
0000
0000
3000
0000
,
0200
0000
0000
0320
,
0000
0000
0032
0000
,
1003
0000
0000
1000
,
0100
0000
0000
0000
0000
0000
0100
0010
,
0100
0000
0000
0001
,
0100
0000
0000
0000
0000
0000
0100
1000
,
0001
0000
1000
0000
,
0001
1000
0001
1000
,
0004
0000
0000
0000
,
0003
0000
0000
0000
,
4000
0000
0000
0000
3000
0000
0100
0020
,
0000
0031
0020
0000
0030
0000
0004
0000
,
0403
0000
0000
0000
0300
0000
0100
2000
,
0000
3400
0000
0000
0300
0000
0002
0000
,
4003
0000
0000
0000
3000
0000
0100
0020
,
0000
1030
0020
0000
0030
0000
0004
0000
,
0403
0000
0000
0000
0300
0000
1000
0200
,
0000
0340
0000
0000
0030
0000
2000
0000
,
3000
0000
0000
0000
1000
0200
0000
0310
,
0200
0300
4000
3040
,
0000
0000
0030
0000
0100
2000
0000
3400
,
0000
0300
0002
4003
,
0000
0000
3000
0000
0100
0020
0000
0130
,
0002
0003
0000
0400
,
0000
0000
0300
0000
0010
0002
0000
4003
,
0000
0000
3000
0000
0002
0000
1003
0100
,
1000
0100
0000
1000
0001
1000
0000
0010
,
0100
0010
0000
0000
0000
0000
0000
0100
,
0001
0010
0000
0001
0100
0001
0000
1000
,
0100
0010
0000
0100
0000
0000
0000
1000
,
0010
1000
0000
0001
0100
0010
0000
0100
,
0001
1000
0000
0000
0000
0000
0000
0001
,
0010
0100
0000
1000
0010
1000
0000
0001
,
0100
0001
1000
0000
0010
0000
0000
0000
,
0000
0000
1000
0100
0000
0010
0100
1000
,
0000
0000
0000
0000
0000
0001
0100
0010
,
0000
0100
0001
1000
0000
0100
0010
0001
,
0000
0010
0000
0000
0000
0100
1000
0001
,
0000
0100
0010
1000
0000
0010
0100
0001
,
0000
0000
0000
0000
0000
0100
0010
0001
,
0000
0010
1000
0001
0000
0010
0100
0010
,
0001
1000
0004
0000
,
0003
0000
0100
0020
0000
1030
0020
0000
,
0030
4000
3400
0000
,
0300
0000
0100
0002
0000
0403
0000
0000
,
0300
2000
3004
0000
,
0003
0000
0100
0020
0000
0031
0020
0000
,
0030
4000
3400
0000
,
0300
0000
0001
0200
0000
0340
0000
0000
,
0030
0002
0003
0000
,
0001
0200
0000
0310
0200
0000
0300
0000
,
0004
0043
0000
0030
,
0100
0002
0000
0403
0000
0000
0300
0000
,
2000
3004
0000
0003
,
0100
0020
0000
0130
2000
0000
3000
0000
,
0000
0400
0000
0300
,
0010
2000
0000
3004
0000
0000
0003
0000
,
2000
3002
0000
0003
,
0001
0200
0000
0300
0020
0000
0030
0200
,
0000
0300
2000
0000
0000
0000
3000
0000
,
1000
0200
0000
0300
0020
0000
0030
2000
,
0000
3000
0002
0000
0000
0000
0003
0000
,
0001
0020
0000
0030
0200
0000
0300
0200
,
0000
0300
0020
0000
0000
0000
0030
0000
,
0010
2000
0000
3000
0020
0000
0030
0200
,
0000
0300
2000
0000
0000
0000
3000
0000
,
0020
0000
0000
0030
,
0000
0200
0000
0300
,
0002
0000
0000
2000
,
0003
3200
0000
0000
,
0320
0000
0000
0000
,
0000
0032
0000
0000
,
2003
0000
0000
3020
,
0000
0000
0000
0000
,
0000
0000
0000
0000
,
0000
0000
0000
0000
,
0000
0000
0000
0000
,
0000
0030
0000
0000
;

//--------------- dance-single - [FOR MOST THEMES] ----------------
#NOTES:
     dance-single:
     [FOR MOST THEMES]:
     Hard:
     13:
     0.318387,0.400796,0.029716,0.549749,0.052003,300,296,4,74,0,0,34,0,0,0.318387,0.400796,0.029716,0.549749,0.052003,300,296,4,74,0,0,34,0,0:
0000
0000
0000
0000
,
0000
0000
0000
0000
,
0000
0000
0000
0000
,
0000
0000
0000
0000
,
0201
0000
0310
2001
,
0000
0000
3100
0000
,
2001
0000
3010
0102
,
0000
0000
2003
0000
,
3001
0000
0100
0001
0000
0000
0001
0000
,
0100
0000
0010
0100
0000
0000
0100
0001
,
0010
0000
0100
0010
0000
0000
0001
0010
,
1000
0000
0010
0100
0000
0010
1000
0010
,
0001
0000
1000
0000
,
0001
1000
0001
1000
,
0004
4000
0000
0000
0000
0000
0000
0000
,
0000
0000
0000
3003
,
4000
0000
0000
0000
3001
0010
0100
0002
,
0000
0000
0103
0000
2000
0000
0000
0000
3001
0000
0100
0010
0004
0000
0000
0000
,
0043
0000
0000
0000
0000
0000
0000
0000
0130
0000
0001
1000
0010
0000
0002
0000
,
0000
0043
0000
0000
1030
0100
2000
0000
,
3004
0000
0000
0000
0103
1000
0100
0020
,
0000
0000
1030
0000
0200
0000
0000
0000
0340
0400
0000
0030
4300
0000
0000
0000
,
3040
0000
0000
0000
0000
0000
0000
0000
0130
0000
0001
0010
0001
0000
2000
0000
,
0000
3040
0000
0000
0031
0010
2000
0000
,
3000
0000
0000
0000
1000
0200
0000
0310
,
0200
0000
0000
0000
1300
0000
0001
0100
0004
0000
0000
0000
0403
0000
0000
0000
,
0000
0000
0000
0000
0310
0000
1000
0100
0010
0000
2000
0000
0000
0000
3040
0000
,
0000
0000
0031
1000
0020
0000
4030
0000
,
0000
0000
3001
0100
0010
0002
0000
0013
,
2000
3001
0000
4000
,
0000
0000
0000
0000
3100
0000
0010
0001
0100
0000
2000
0000
0000
0000
3400
0000
,
0000
0000
0310
0100
0002
0000
0003
1000
,
0100
0010
0000
0100
1000
0001
0000
0010
,
0100
0002
0000
0000
0000
0000
0003
0100
,
1000
0010
0000
0100
0001
1000
0000
1000
,
0100
0001
0000
0200
0000
0000
0300
1000
,
0010
0100
0000
0001
0010
1000
0000
0001
,
0100
2000
0000
0000
0000
0000
3000
0001
,
0010
0100
0000
0001
0100
1000
0000
0010
,
0100
1000
0200
0000
0302
0000
0003
0000
,
0000
0000
1000
0100
0000
0001
0100
0020
,
0000
0000
0000
0000
0030
0001
0100
0010
,
0000
1000
0001
0010
0000
0010
0100
0001
,
0000
0200
0000
0000
0300
1000
0010
0001
,
0000
0001
0010
1000
0000
0001
0010
0200
,
0000
0000
0000
0000
0300
0001
0100
0010
,
0000
0100
1000
0001
0000
0100
1000
0001
,
0020
2030
3004
0000
,
1003
0010
0100
2000
0000
3100
0002
0000
,
1003
0000
0100
0010
4000
0000
0000
0000
3040
0000
0000
0000
0000
0000
0000
0000
,
0130
0000
1000
0001
0010
0000
2000
0000
0000
0000
3040
0000
0000
0000
0000
0000
,
0031
0100
0002
0000
4003
0000
0000
0000
,
3100
0001
0100
0020
0000
0031
0200
0000
,
0340
0400
0000
0030
0304
0000
0000
0000
0043
0000
0000
0000
0000
0000
0000
0000
,
0130
0000
1000
0010
1000
0000
0002
0000
0000
0000
0043
0000
0000
0000
0000
0000
,
0130
1000
0002
0000
0003
0000
0000
0000
,
0001
0000
0200
0000
0000
0000
0310
0000
0200
0000
0000
0000
0301
0000
1000
0100
,
4000
0000
0000
0000
3400
0000
0000
0000
0000
0000
0000
0000
0310
0000
0001
0100
,
0010
0002
0000
0043
0000
0000
1030
0001
,
0020
0000
0034
0000
0000
0000
1003
0100
,
0010
2000
0000
3010
0002
0000
1003
0020
,
0000
0000
1030
0000
0004
0000
0000
0000
0000
0000
0000
0000
0103
0000
0010
1000
,
0100
0002
0000
0403
0000
0000
0310
0100
,
2000
3002
0000
0003
,
0001
0200
0000
0300
2000
0000
3000
0200
,
0000
0300
0020
0000
0000
0000
0030
0000
,
0010
2000
0000
3000
0200
0000
0300
2000
,
0000
3000
0002
0000
0000
0000
0003
0000
,
0001
0020
0000
0030
2000
0000
3000
0020
,
0000
0030
0200
0000
0000
0000
0300
0000
,
0100
0002
0000
0003
0200
0000
0300
2000
,
0000
3000
0002
0000
0000
0000
0003
0000
,
0200
0000
0000
0300
,
0000
0020
0000
0030
,
2000
0000
0000
0002
,
3000
0023
0000
0000
,
0230
0000
0000
0000
,
0000
2300
0000
0000
,
3002
0000
0000
0200
,
0000
0003
0000
0000
,
0000
0000
0000
0000
,
0000
0000
0000
0000
,
0000
0000
0000
0000
,
0300
0000
0000
0000
;

//--------------- dance-single - [FOR SIMPLY LOVE] ----------------
#NOTES:
     dance-single:
     [FOR SIMPLY LOVE]:
     Challenge:
     13:
     0.318387,0.400796,0.029716,0.549749,0.055718,300,296,4,74,0,0,34,0,0,0.318387,0.400796,0.029716,0.549749,0.055718,300,296,4,74,0,0,34,0,0:
0000
0000
0000
0000
,
0000
0000
0000
0000
,
0000
0000
0000
0000
,
0000
0000
0000
0000
,
0201
0000
0310
2001
,
0000
0000
3100
0000
,
2001
0000
3010
0102
,
0000
0000
2003
0000
,
3001
0000
0100
0001
0000
0000
0001
0000
,
0100
0000
0010
0100
0000
0000
0100
0001
,
0010
0000
0100
0010
0000
0000
0001
0010
,
1000
0000
0010
0100
0000
0010
1000
0010
,
0001
0000
1000
0000
,
0001
1000
0001
1000
,
0004
0000
0000
0000
0000
0000
0000
0000
0000
4000
0000
0000
0000
0000
0000
0000
,
3000
0000
0000
0003
,
4000
0000
0000
0000
3001
0010
0100
0002
,
0000
0000
0103
0000
2000
0000
0000
0000
3001
0000
0100
0010
0004
0000
0000
0000
,
0043
0000
0000
0000
0000
0000
0000
0000
0130
0000
0001
1000
0010
0000
0002
0000
,
0000
0043
0000
0000
1030
0100
2000
0000
,
3004
0000
0000
0000
0103
1000
0100
0020
,
0000
0000
1030
0000
0200
0000
0000
0000
0340
0400
0000
0030
4300
0000
0000
0000
,
3040
0000
0000
0000
0000
0000
0000
0000
0130
0000
0001
0010
0001
0000
2000
0000
,
0000
3040
0000
0000
0031
0010
2000
0000
,
3000
0000
0000
0000
1000
0200
0000
0310
,
0200
0000
0000
0000
1300
0000
0001
0100
0004
0000
0000
0000
0403
0000
0000
0000
,
0000
0000
0000
0000
0310
0000
1000
0100
0010
0000
2000
0000
0000
0000
3040
0000
,
0000
0000
0031
1000
0020
0000
4030
0000
,
0000
0000
3001
0100
0010
0002
0000
0013
,
2000
3001
0000
4000
,
0000
0000
0000
0000
3100
0000
0010
0001
0100
0000
2000
0000
0000
0000
3400
0000
,
0000
0000
0310
0100
0002
0000
0003
1000
,
0100
0010
0000
0100
1000
0001
0000
0010
,
0100
0002
0000
0000
0000
0000
0003
0100
,
1000
0010
0000
0100
0001
1000
0000
1000
,
0100
0001
0000
0200
0000
0000
0300
1000
,
0010
0100
0000
0001
0010
1000
0000
0001
,
0100
2000
0000
0000
0000
0000
3000
0001
,
0010
0100
0000
0001
0100
1000
0000
0010
,
0100
1000
0200
0000
0302
0000
0003
0000
,
0000
0000
1000
0100
0000
0001
0100
0020
,
0000
0000
0000
0000
0030
0001
0100
0010
,
0000
1000
0001
0010
0000
0010
0100
0001
,
0000
0200
0000
0000
0300
1000
0010
0001
,
0000
0001
0010
1000
0000
0001
0010
0200
,
0000
0000
0000
0000
0300
0001
0100
0010
,
0000
0100
1000
0001
0000
0100
1000
0001
,
0020
2030
3004
0000
,
1003
0010
0100
2000
0000
3100
0002
0000
,
1003
0000
0100
0010
4000
0000
0000
0000
3040
0000
0000
0000
0000
0000
0000
0000
,
0130
0000
1000
0001
0010
0000
2000
0000
0000
0000
3040
0000
0000
0000
0000
0000
,
0031
0100
0002
0000
4003
0000
0000
0000
,
3100
0001
0100
0020
0000
0031
0200
0000
,
0340
0400
0000
0030
0304
0000
0000
0000
0043
0000
0000
0000
0000
0000
0000
0000
,
0130
0000
1000
0010
1000
0000
0002
0000
0000
0000
0043
0000
0000
0000
0000
0000
,
0130
1000
0002
0000
0003
0000
0000
0000
,
0001
0000
0200
0000
0000
0000
0310
0000
0200
0000
0000
0000
0301
0000
1000
0100
,
4000
0000
0000
0000
3400
0000
0000
0000
0000
0000
0000
0000
0310
0000
0001
0100
,
0010
0002
0000
0043
0000
0000
1030
0001
,
0020
0000
0034
0000
0000
0000
1003
0100
,
0010
2000
0000
3010
0002
0000
1003
0020
,
0000
0000
1030
0000
0004
0000
0000
0000
0000
0000
0000
0000
0103
0000
0010
1000
,
0100
0002
0000
0403
0000
0000
0310
0100
,
2000
3002
0000
0003
,
0001
0200
0000
0300
2000
0000
3000
0200
,
0000
0300
0020
0000
0000
0000
0030
0000
,
0010
2000
0000
3000
0200
0000
0300
2000
,
0000
3000
0002
0000
0000
0000
0003
0000
,
0001
0020
0000
0030
2000
0000
3000
0020
,
0000
0030
0200
0000
0000
0000
0300
0000
,
0100
0002
0000
0003
0200
0000
0300
2000
,
0000
3000
0002
0000
0000
0000
0003
0000
,
0200
0000
0000
0300
,
0000
0020
0000
0030
,
2000
0000
0000
0002
,
3000
0023
0000
0000
,
0230
0000
0000
0000
,
0000
2300
0000
0000
,
3002
0000
0000
0200
,
0000
0003
0000
0000
,
0000
0000
0000
0000
,
0000
0000
0000
0000
,
0000
0000
0000
0000
,
0300
0000
0000
0000
;

//--------------- dance-double - [FOR MOST THEMES] ----------------
#NOTES:
     dance-double:
     [FOR MOST THEMES]:
     Hard:
     13:
     0.318387,0.399589,0.029716,0.549749,0.052003,300,296,4,74,0,0,34,0,0,0.318387,0.399589,0.029716,0.549749,0.052003,300,296,4,74,0,0,34,0,0:
00000000
00000000
00000000
00000000
,
00000000
00000000
00000000
00000000
,
00000000
00000000
00000000
00000000
,
00000000
00000000
00000000
00000000
,
00010200
00000000
00000310
00000012
,
00000000
00000000
00001003
00000000
,
00201000
00000000
00310000
21000000
,
00000000
00000000
30020000
00000000
,
10030000
00000000
01000000
00100000
00000000
00000000
01000000
00000000
,
00010000
00000000
00001000
00100000
00000000
00000000
00001000
00000100
,
00000010
00000000
00001000
00000001
00000000
00000000
00000100
00001000
,
00010000
00000000
00000100
01000000
00000000
00001000
01000000
00010000
,
00100000
00000000
01000000
00000000
,
00010000
00000100
00000010
00001000
,
00040000
00004000
00000000
00000000
00000000
00000000
00000000
00000000
,
00000000
00000000
00000000
00033000
,
00000400
00000000
00000000
00000000
00010300
00000010
00000100
00002000
,
00000000
00000000
00003100
00000000
00000002
00000000
00000000
00000000
00000013
00000000
00000100
00001000
00000040
00000000
00000000
00000000
,
00040030
00000000
00000000
00000000
00000000
00000000
00000000
00000000
00030100
00000000
00000010
00001000
00010000
00000000
00200000
00000000
,
00000000
04300000
00000000
00000000
03010000
10000000
02000000
00000000
,
03400000
00000000
00000000
00000000
00301000
00010000
00001000
20000000
,
00000000
00000000
30100000
00000000
02000000
00000000
00000000
00000000
03004000
00400000
00000000
00003000
00340000
00000000
00000000
00000000
,
40030000
00000000
00000000
00000000
00000000
00000000
00000000
00000000
31000000
00000000
00100000
00001000
00010000
00000000
00000200
00000000
,
00000000
00000340
00000000
00000000
00000130
00010000
00002000
00000000
,
00003000
00000000
00000000
00000000
00001000
02000000
00000000
03100000
,
02000000
00000000
00000000
00000000
13000000
00000000
01000000
00010000
00400000
00000000
00000000
00000000
00304000
00000000
00000000
00000000
,
00000000
00000000
00000000
00000000
00003010
00000000
00000100
00001000
00000010
00000000
00000200
00000000
00000000
00000000
00000340
00000000
,
00000000
00000000
00001030
00000001
00000020
00000000
00000034
00000000
,
00000000
00000000
00000103
00001000
00010000
02000000
00000000
03100000
,
00020000
10030000
00000000
40000000
,
00000000
00000000
00000000
00000000
31000000
00000000
00100000
00010000
01000000
00000000
00002000
00000000
00000000
00000000
00043000
00000000
,
00000000
00000000
00030100
00100000
00002000
00000000
00003000
00010000
,
00001000
00100000
00000000
00010000
01000000
00100000
00000000
00010000
,
00100000
20000000
00000000
00000000
00000000
00000000
30000000
01000000
,
00100000
00010000
00000000
00100000
01000000
00010000
00000000
00010000
,
00000100
00100000
00000000
00002000
00000000
00000000
00003000
00010000
,
00000010
00000100
00000000
00000001
00000100
00001000
00000000
00000100
,
00000010
00002000
00000000
00000000
00000000
00000000
00003000
00000001
,
00000010
00000100
00000000
00001000
00000010
00000001
00000000
00000010
,
00001000
00000001
00020000
00000000
00032000
00000000
00003000
00000000
,
00000000
00000000
00010000
00000100
00000000
00000010
00001000
00020000
,
00000000
00000000
00000000
00000000
00030000
00000100
00000010
00001000
,
00000000
00000010
00001000
00010000
00000000
00010000
01000000
00100000
,
00000000
00002000
00000000
00000000
00003000
00010000
00000010
00000100
,
00000000
00001000
00000100
00010000
00000000
01000000
00001000
00200000
,
00000000
00000000
00000000
00000000
00300000
00010000
00100000
01000000
,
00000000
00100000
00001000
00010000
00000000
00000100
00001000
00000010
,
00020000
00032000
04003000
00000000
,
03001000
00100000
01000000
00020000
00000000
01030000
20000000
00000000
,
30100000
00000000
01000000
00010000
00400000
00000000
00000000
00000000
00304000
00000000
00000000
00000000
00000000
00000000
00000000
00000000
,
01003000
00000000
00100000
00010000
00001000
00000000
00000020
00000000
00000000
00000000
00000430
00000000
00000000
00000000
00000000
00000000
,
00001300
00000001
00000200
00000000
00000340
00000000
00000000
00000000
,
00010030
00001000
00010000
00000002
00000000
00000013
00000200
00000000
,
00040300
00000040
00000000
00030000
00004030
00000000
00000000
00000000
00003004
00000000
00000000
00000000
00000000
00000000
00000000
00000000
,
00000103
00000000
00000010
00010000
00001000
00000000
02000000
00000000
00000000
00000000
03400000
00000000
00000000
00000000
00000000
00000000
,
01300000
00001000
00020000
00000000
00030000
00000000
00000000
00000000
,
00010000
00000000
00000200
00000000
00000000
00000000
00000310
00000000
00000200
00000000
00000000
00000000
00000301
00000000
00000100
00001000
,
00000040
00000000
00000000
00000000
00040030
00000000
00000000
00000000
00000000
00000000
00000000
00000000
00130000
00000000
01000000
00010000
,
00100000
02000000
00000000
03400000
00000000
00000000
00310000
10000000
,
00200000
00000000
40300000
00000000
00000000
00000000
31000000
00010000
,
00001000
00000200
00000000
00000310
00020000
00000000
00030001
00002000
,
00000000
00000000
00003001
00000000
00000004
00000000
00000000
00000000
00000000
00000000
00000000
00000000
00000103
00000000
00000010
00001000
,
00000100
00020000
00000000
00034000
00000000
00000000
01003000
00000010
,
00020000
00030200
00000000
00000300
,
00000100
00000020
00000000
00000030
00000002
00000000
00000003
00000020
,
00000000
00000030
00002000
00000000
00000000
00000000
00003000
00000000
,
00001000
00020000
00000000
00030000
02000000
00000000
03000000
00020000
,
00000000
00030000
00002000
00000000
00000000
00000000
00003000
00000000
,
00001000
02000000
00000000
03000000
00200000
00000000
00300000
02000000
,
00000000
03000000
20000000
00000000
00000000
00000000
30000000
00000000
,
10000000
02000000
00000000
03000000
00020000
00000000
00030000
00200000
,
00000000
00300000
00002000
00000000
00000000
00000000
00003000
00000000
,
02000000
00000000
00000000
03000000
,
00000000
00000200
00000000
00000300
,
00000020
00000000
00000000
00000002
,
00000030
00002003
00000000
00003000
,
00000200
00000000
00000000
00000300
,
00000000
02000000
00000000
03000000
,
00200000
00000000
00000000
20000000
,
00000000
00300000
00000000
00000000
,
00000000
00000000
00000000
00000000
,
00000000
00000000
00000000
00000000
,
00000000
00000000
00000000
30000000
;

//--------------- dance-double - [FOR SIMPLY LOVE] ----------------
#NOTES:
     dance-double:
     [FOR SIMPLY LOVE]:
     Challenge:
     13:
     0,0,0,0,0:
00000000
00000000
00000000
00000000
,
00000000
00000000
00000000
00000000
,
00000000
00000000
00000000
00000000
,
00000000
00000000
00000000
00000000
,
00010200
00000000
00000310
00000012
,
00000000
00000000
00001003
00000000
,
00201000
00000000
00310000
21000000
,
00000000
00000000
30020000
00000000
,
10030000
00000000
01000000
00100000
00000000
00000000
01000000
00000000
,
00010000
00000000
00001000
00100000
00000000
00000000
00001000
00000100
,
00000010
00000000
00001000
00000001
00000000
00000000
00000100
00001000
,
00010000
00000000
00000100
01000000
00000000
00001000
01000000
00010000
,
00100000
00000000
01000000
00000000
,
00010000
00000100
00000010
00001000
,
00040000
00000000
00000000
00000000
00000000
00000000
00000000
00000000
00000000
00004000
00000000
00000000
00000000
00000000
00000000
00000000
,
00003000
00000000
00000000
00030000
,
00000400
00000000
00000000
00000000
00010300
00000010
00000100
00002000
,
00000000
00000000
00003100
00000000
00000002
00000000
00000000
00000000
00000013
00000000
00000100
00001000
00000040
00000000
00000000
00000000
,
00040030
00000000
00000000
00000000
00000000
00000000
00000000
00000000
00030100
00000000
00000010
00001000
00010000
00000000
00200000
00000000
,
00000000
04300000
00000000
00000000
03010000
10000000
02000000
00000000
,
03400000
00000000
00000000
00000000
00301000
00010000
00001000
20000000
,
00000000
00000000
30100000
00000000
02000000
00000000
00000000
00000000
03004000
00400000
00000000
00003000
00340000
00000000
00000000
00000000
,
40030000
00000000
00000000
00000000
00000000
00000000
00000000
00000000
31000000
00000000
00100000
00001000
00010000
00000000
00000200
00000000
,
00000000
00000340
00000000
00000000
00000130
00010000
00002000
00000000
,
00003000
00000000
00000000
00000000
00001000
02000000
00000000
03100000
,
02000000
00000000
00000000
00000000
13000000
00000000
01000000
00010000
00400000
00000000
00000000
00000000
00304000
00000000
00000000
00000000
,
00000000
00000000
00000000
00000000
00003010
00000000
00000100
00001000
00000010
00000000
00000200
00000000
00000000
00000000
00000340
00000000
,
00000000
00000000
00001030
00000001
00000020
00000000
00000034
00000000
,
00000000
00000000
00000103
00001000
00010000
02000000
00000000
03100000
,
00020000
10030000
00000000
40000000
,
00000000
00000000
00000000
00000000
31000000
00000000
00100000
00010000
01000000
00000000
00002000
00000000
00000000
00000000
00043000
00000000
,
00000000
00000000
00030100
00100000
00002000
00000000
00003000
00010000
,
00001000
00100000
00000000
00010000
01000000
00100000
00000000
00010000
,
00100000
20000000
00000000
00000000
00000000
00000000
30000000
01000000
,
00100000
00010000
00000000
00100000
01000000
00010000
00000000
00010000
,
00000100
00100000
00000000
00002000
00000000
00000000
00003000
00010000
,
00000010
00000100
00000000
00000001
00000100
00001000
00000000
00000100
,
00000010
00002000
00000000
00000000
00000000
00000000
00003000
00000001
,
00000010
00000100
00000000
00001000
00000010
00000001
00000000
00000010
,
00001000
00000001
00020000
00000000
00032000
00000000
00003000
00000000
,
00000000
00000000
00010000
00000100
00000000
00000010
00001000
00020000
,
00000000
00000000
00000000
00000000
00030000
00000100
00000010
00001000
,
00000000
00000010
00001000
00010000
00000000
00010000
01000000
00100000
,
00000000
00002000
00000000
00000000
00003000
00010000
00000010
00000100
,
00000000
00001000
00000100
00010000
00000000
01000000
00001000
00200000
,
00000000
00000000
00000000
00000000
00300000
00010000
00100000
01000000
,
00000000
00100000
00001000
00010000
00000000
00000100
00001000
00000010
,
00020000
00032000
04003000
00000000
,
03001000
00100000
01000000
00020000
00000000
01030000
20000000
00000000
,
30100000
00000000
01000000
00010000
00400000
00000000
00000000
00000000
00304000
00000000
00000000
00000000
00000000
00000000
00000000
00000000
,
01003000
00000000
00100000
00010000
00001000
00000000
00000020
00000000
00000000
00000000
00000430
00000000
00000000
00000000
00000000
00000000
,
00001300
00000001
00000200
00000000
00000340
00000000
00000000
00000000
,
00010030
00001000
00010000
00000002
00000000
00000013
00000200
00000000
,
00040300
00000040
00000000
00030000
00004030
00000000
00000000
00000000
00003004
00000000
00000000
00000000
00000000
00000000
00000000
00000000
,
00000103
00000000
00000010
00010000
00001000
00000000
02000000
00000000
00000000
00000000
03400000
00000000
00000000
00000000
00000000
00000000
,
01300000
00001000
00020000
00000000
00030000
00000000
00000000
00000000
,
00010000
00000000
00000200
00000000
00000000
00000000
00000310
00000000
00000200
00000000
00000000
00000000
00000301
00000000
00000100
00001000
,
00000040
00000000
00000000
00000000
00040030
00000000
00000000
00000000
00000000
00000000
00000000
00000000
00130000
00000000
01000000
00010000
,
00100000
02000000
00000000
03400000
00000000
00000000
00310000
10000000
,
00200000
00000000
40300000
00000000
00000000
00000000
31000000
00010000
,
00001000
00000200
00000000
00000310
00020000
00000000
00030001
00002000
,
00000000
00000000
00003001
00000000
00000004
00000000
00000000
00000000
00000000
00000000
00000000
00000000
00000103
00000000
00000010
00001000
,
00000100
00020000
00000000
00034000
00000000
00000000
01003000
00000010
,
00020000
00030200
00000000
00000300
,
00000100
00000020
00000000
00000030
00000002
00000000
00000003
00000020
,
00000000
00000030
00002000
00000000
00000000
00000000
00003000
00000000
,
00001000
00020000
00000000
00030000
02000000
00000000
03000000
00020000
,
00000000
00030000
00002000
00000000
00000000
00000000
00003000
00000000
,
00001000
02000000
00000000
03000000
00200000
00000000
00300000
02000000
,
00000000
03000000
20000000
00000000
00000000
00000000
30000000
00000000
,
10000000
02000000
00000000
03000000
00020000
00000000
00030000
00200000
,
00000000
00300000
00002000
00000000
00000000
00000000
00003000
00000000
,
02000000
00000000
00000000
03000000
,
00000000
00000200
00000000
00000300
,
00000020
00000000
00000000
00000002
,
00000030
00002003
00000000
00003000
,
00000200
00000000
00000000
00000300
,
00000000
02000000
00000000
03000000
,
00200000
00000000
00000000
20000000
,
00000000
00300000
00000000
00000000
,
00000000
00000000
00000000
00000000
,
00000000
00000000
00000000
00000000
,
00000000
00000000
00000000
30000000
;
