#TITLE:We No Speak Americano;
#SUBTITLE:[3.9 port];
#ARTIST:Yolanda Be Cool & DCUP;
#TITLETRANSLIT:;
#SUBTITLETRANSLIT:;
#ARTISTTRANSLIT:;
#GENRE:Electro Swing;
#CREDIT:;
#BANNER:We No Speak Americano.png;
#BACKGROUND:We No Speak Americano-bg.png;
#LYRICSPATH:;
#CDTITLE:;
#MUSIC:We No Speak Americano.ogg;
#OFFSET:0.000;
#SAMPLESTART:18.480;
#SAMPLELENGTH:11.880;
#SELECTABLE:YES;
#DISPLAYBPM:125.000;
#BPMS:0.000=125.000,142.000=62.500,150.000=125.000,192.000=31.250,200.000=125.000;
#STOPS:3.000=-3.840
,46.500=-3.840
,55.000=-3.840
,94.500=-3.840
,103.000=-3.840
,151.000=-3.840
,205.000=2.640
,205.500=-3.120
;
#BGCHANGES:-4.000=bg.png=1.000=0=0=1=Default====,
1.000=bga.mp4=1.000=0=0=0=StretchNoLoop====,
99999=-nosongbg-=1.000=0=0=0 // don't automatically add -songbackground-
;
#KEYSOUNDS:;

//---------------dance-double - Haley Halcyon----------------
#NOTES:
     dance-double:
     Haley Halcyon:
     Medium:
     6:
     0.437,1.000,0.129,0.129,0.171:
00000000
00000000
00000000
M000000M
,
000M0000
0000M000
0M000000
00000000
00M00000
0M000000
00M00000
000M0000
,
0000M000
00000000
00000000
00000000
,
00010000
00001000
01000000
00000000
00100000
01000000
00100000
00010000
,
00001000
00010000
00000000
00010000
00001000
00000100
00000010
00000000
,
00001000
00000100
00001000
00000000
00000010
00000000
00010000
00000000
,
00001000
00000000
00000000
00001000
00100000
00010000
01000000
00000000
,
00100000
00000000
01000000
00010000
00100000
00000000
01000000
00100000
,
00020000
00000000
00030000
00000000
,
00100000
00000000
00001000
00010000
00000010
00000000
00001000
00000100
,
00010000
00000000
00000100
00010000
00001000
00000000
01000000
00001000
,
00010000
00000000
00011000
00000000
00000000
000M0000
0000M000
00000000
,
00M00000
00000000
000000M0
00000000
0M000000
00000000
00000M00
00000000
00M00000
00000000
000000M0
00000M00
00000000
00000000
00000000
00000000
,
00000000
00000000
00000000
000M0000
000M0000
000M0000
000MM000
000M0000
,
000M0000
000M0000
000M0000
000M0000
000M0000
000M0000
000M0000
000M0000
,
000M0000
000M0000
000M0000
000M0000
000MM000
000MM000
000MM000
000MM000
,
001MM000
00000000
000MM010
00000000
010MM000
00000000
000MM100
00000000
001MM000
00000000
000MM010
00000100
000MM000
00000000
000MM000
00000000
,
000MM100
00000000
000MM100
00000000
000MM100
00000000
000MM000
00000000
000MM010
00000000
010MM000
00000010
000MM000
00000000
000MM000
00000000
,
000MM010
00000000
001MM000
00000000
000MM100
00000000
010MM000
00000000
000MM010
00000000
001MM000
01000000
000MM000
00000000
000MM000
00000000
,
010MM000
00000000
010MM000
00000000
010MM000
00000000
000MM000
00000000
001MM000
00000000
000MM100
00100000
000MM000
00000000
000MM000
00000000
,
001MM000
00000000
000MM010
00000000
010MM000
00000000
000MM100
00000000
001MM000
00000000
000MM010
00000100
000MM000
00000000
000MM000
00000000
,
000MM100
00000000
000MM100
00000000
000MM100
00000000
000MM000
00000000
000MM010
00000000
010MM000
00000010
000MM000
00000000
000MM000
00000000
,
000MM010
00000000
001MM000
00000000
000MM100
00000000
010MM000
00000000
000MM010
00000000
001MM000
01000000
000MM000
00000000
000MM000
00000000
,
01100000
00000000
00101000
00000000
00011000
0M000000
00M00000
00000000
,
000M0000
00000000
00000M00
00000000
0000M000
00000000
000000M0
00000000
000M0000
00000000
00000M00
000000M0
00000000
00000000
00000000
00000000
,
000000M0
00000000
00000000
0M000000
0M000000
0M000000
0MM00000
0M000000
,
0M000000
0M000000
0M000000
0M000000
0M000000
0M000000
0M000000
0M000000
,
0M000000
0M000000
0M000000
0M000000
0MM00000
0MM00000
0MM00000
0MM00000
,
0MM10000
00000000
0MM00100
00000000
0MM01000
00000000
0MM00010
00000000
0MM10000
00000000
0MM00100
00000010
0MM00000
00000000
0MM00000
00000000
,
0MM00010
00000000
0MM00010
00000000
0MM00010
00000000
0MM00000
00000000
0MM00100
00000000
0MM10000
00001000
0MM00000
00000000
0MM00000
00000000
,
0MM10000
00000000
0MM00010
00000000
0MM01000
00000000
0MM00100
00000000
0MM10000
00000000
0MM00010
00000100
0MM00000
00000000
0MM00000
00000000
,
0MM00100
00000000
0MM00100
00000000
0MM00100
00000000
0MM00000
00000000
0MM00010
00000000
0MM10000
00001000
0MM00000
00000000
0MM00000
00000000
,
0MM10000
00000000
0MM00100
00000000
0MM01000
00000000
0MM00010
00000000
0MM10000
00000000
0MM00100
00000010
0MM00000
00000000
0MM00000
00000000
,
0MM00010
00000000
0MM00010
00000000
0MM00010
00000000
0MM00000
00000000
0MM00100
00000000
0MM10000
00001000
0MM00000
00000000
0MM00000
00000000
,
0MM10000
00000000
0MM00010
00000000
0MM01000
00000000
0MM00100
00000000
0MM10000
00000000
0MM00010
00000100
0MM00000
00000000
0MM00000
00000000
,
00000100
00000010
00010000
00001000
0M0110M0
00000000
00001000
00010000
,
01000000
00100000
00010000
01000000
00100000
00010000
00001000
00000100
,
00000010
00001000
00000100
00100000
00000010
00000000
0M000M00
00000000
,
0000M000
00000000
00M00000
00000000
000000M0
00000000
000M0000
00000000
0000M000
00000000
00M00000
000M0000
00000000
00000000
00000000
00000000
,
00000000
00000000
00000000
00000000
0M000M00
0M000M00
0M000M00
0M000M00
,
0M001M00
00000000
0M100M00
00000000
0M000M10
00000000
0M010M00
00000000
0M001M00
00000000
0M100M00
00010000
0M000M00
00000000
0M000M00
00000000
,
0M100M00
00000000
0M100M00
00000000
0M100M00
00000000
0M000M00
00000000
0M000M10
00000000
0M010M00
00001000
0M000M00
00000000
0M000M00
00000000
,
0M010M00
00000000
0M000M10
00000000
0M100M00
00000000
0M001M00
00000000
0M010M00
00000000
0M000M10
00001000
0M000M00
00000000
0M000M00
00000000
,
0M000M10
00000000
0M000M10
00000000
0M000M10
00000000
0M000M00
00000000
0M100M00
00000000
0M001M00
00010000
0M000M00
00000000
0M000M00
00000000
,
0M001M00
00000000
0M100M00
00000000
0M000M10
00000000
0M010M00
00000000
0M001M00
00000000
0M100M00
00010000
0M000M00
00000000
0M000M00
00000000
,
0M100M00
00000000
0M100M00
00000000
0M100M00
00000000
0M000M00
00000000
0M000M10
00000000
0M010M00
00001000
0M000M00
00000000
0M000M00
00000000
,
0M010M00
00000000
0M000M10
00000000
0M100M00
00000000
0M001M00
00000000
0M010M00
00000000
0M000M10
00001000
0M000M00
00000000
0M000M00
00000000
,
00000010
00001000
00000010
00001000
00000100
00010000
00001000
01000000
,
0020MMM0
02300000
03010000
00200000
00302000
00023000
00030100
00000020
,
00000230
00000000
00001300
00000000
00002000
00000000
00003010
00000000
00000010
00010000
00000010
00000000
00010000
00001000
00100000
00000000
00200000
00000000
00310000
00000000
00020000
00000000
01030000
00000000
02000000
00000000
03001000
00000000
00002000
00000000
00013000
00000000
,
0M0110M0
00000000
00100000
00001000
00010000
00000000
00000010
00010000
,
00001000
00000000
02M00200
000000M0
03000300
0M000000
000M0000
0M000000
,
00000M00
00000000
0M000000
00000000
000M0000
00000M00
00000000
00000000
00000000
00000000
00000000
00000000
00M000M0
00000000
00M000M0
00000000
,
00M000M0
00000000
00M000M0
00000000
01M000M0
00000000
00M100M0
00000000
01M000M0
00000000
00M001M0
00000000
01M000M0
00000000
00M100M0
00000100
,
00M000M0
00M010M0
01M000M0
00M010M0
00M100M0
00M100M0
00M010M0
01M000M0
,
00M001M0
00000000
00M100M0
00000000
00M001M0
00000000
00M010M0
00000000
00M001M0
00000000
01M000M0
00000000
00M001M0
00000000
00M010M0
01000000
,
00M000M0
00000000
00M000M0
00000000
00M100M0
00000000
01M000M0
00000000
00M100M0
00000000
00M010M0
00000000
00M001M0
00000000
00M010M0
00010000
,
00M000M0
00000000
00M000M0
00000000
00M001M0
00000000
00M010M0
00000000
00M001M0
00000000
01M000M0
00000000
00M001M0
00000000
00M010M0
01000000
,
00M000M0
00M100M0
00M001M0
00M100M0
00M010M0
00M010M0
00M100M0
00M001M0
,
01M000M0
00000000
00M010M0
00000000
01M000M0
00000000
00M100M0
00000000
01M000M0
00000000
00M001M0
00000000
01M000M0
00000000
00M100M0
00000100
,
00M000M0
00M000M0
00001000
00010000
00000100
01000000
00011000
00000000
,
00000000
00000000
00010000
00000100
00001000
00000010
00010000
00000000
,
00011000
00000000
00001000
00100000
00010000
01000000
00001000
00000000
,
00011000
00000000
00100000
01000000
00010000
00001000
00000100
00000000
,
00000110
00010010
00101000
00011000
,
00100100
00000000
00000000
00000000
;

//---------------dance-double - Haley Halcyon----------------
#NOTES:
     dance-double:
     Haley Halcyon:
     Hard:
     8:
     0.524,1.000,0.077,0.360,0.429:
00000000
00000000
00000000
M000000M
,
000M0000
00000000
0000M000
000M0000
00000M00
00000000
0000M000
00000000
000000M0
00000000
00000M00
00000000
000000M0
00000000
000M0000
00000000
,
0000M000
00000000
00000000
00000000
,
00010000
00000000
00001000
00010000
00000100
00000000
00001000
00000000
00000010
00000000
00000100
00000000
00000010
00000000
00010000
00000000
,
00001000
00000000
00000000
00010000
00000100
01000000
00001000
00000000
,
00010000
00000000
00001000
00010000
00100000
00000000
01000000
00000000
00010000
00000000
00100000
00000000
01000000
00000000
00010000
00000000
,
00001000
00000000
00000000
00000000
00000000
00010000
00000000
00010000
00000010
00000000
00100000
00000000
00001000
00000000
00000000
00000000
,
00010000
00001000
00010000
00000100
00000010
00000100
00001000
00000010
,
00020000
00000000
00030000
00000000
,
00001000
01000000
00010000
00100000
01000000
00100000
00010000
01000000
,
00001000
00010000
00001000
00000100
00000010
00000100
00001000
00010000
,
01000000
00000000
01100000
00000000
00000000
0000M0M0
00000M00
00000000
,
00M00000
00000000
000M0000
0M000000
00M00000
00000000
0M000000
000M0000
00M00000
00000000
00000000
0M000000
00000000
00000000
00000000
00000000
,
00000000
00000000
00000000
0000M0M0
0000M0M0
0000M0M0
0000MMM0
0000M0M0
,
0000M0M0
0000M0M0
0000M0M0
0000M0M0
0000M0M0
0000M0M0
0000M0M0
0000M0M0
,
0000M0M0
0000M0M0
0000M0M0
0000M0M0
0000MMM0
0000MMM0
0000MMM0
0000MMM0
,
0010MMM0
00000000
0001MMM0
01000000
0010MMM0
00000000
0100MMM0
00010000
0010MMM0
00000000
0000MMM0
02000000
0000MMM0
00000000
0300MMM0
00000000
,
0010MMM0
00000000
0010MMM0
00000000
0010MMM0
00000000
0000MMM0
00000000
0100MMM0
00000000
0010MMM0
00010000
0000MMM0
00000000
0000MMM0
00000000
,
0010MMM0
00000000
0001MMM0
01000000
0010MMM0
00000000
0100MMM0
00010000
0010MMM0
00000000
0000MMM0
02000000
0000MMM0
00000000
0300MMM0
00000000
,
0010MMM0
00000000
0010MMM0
00000000
0010MMM0
00000000
0000MMM0
00000000
0100MMM0
00000000
0010MMM0
00010000
0000MMM0
00000000
0100MMM0
00200000
,
0000MMM0
00300000
0100MMM0
00010000
0010MMM0
00000000
0001MMM0
01000000
0010MMM0
00000000
0000MMM0
00020000
0000MMM0
00000000
00030000
00000000
,
0010MMM0
00000000
0010MMM0
00000000
0010MMM0
00000000
0000MMM0
00000000
0100MMM0
00000000
0001MMM0
01000000
0000MMM0
00000000
0000MMM0
00000000
,
0010MMM0
00000000
0100MMM0
00010000
0010MMM0
00000000
0001MMM0
01000000
0010MMM0
00000000
0000MMM0
00020000
0000MMM0
00000000
0000MMM0
00000000
,
00100000
00000000
00000010
00000000
00031000
0M0M0000
00M00000
00000000
,
000000M0
00000000
0000M000
00000M00
000000M0
00000000
00000M00
0000M000
000000M0
00000000
00000000
00000M00
00000000
00000000
00000000
00000000
,
00000000
00000000
00000000
0M0M0000
0M0M0000
0M0M0000
0MMM0000
0M0M0000
,
0M0M0000
0M0M0000
0M0M0000
0M0M0000
0M0M0000
0M0M0000
0M0M0000
0M0M0000
,
0M0M0000
0M0M0000
0M0M0000
0M0M0000
0MMM0000
0MMM0000
0MMM0000
0MMM0000
,
0MMM0010
00000000
0MMM1000
00000100
0MMM0010
00000000
0MMM0100
00001000
0MMM0010
00000000
0MMM0000
00000200
0MMM0000
00000000
0MMM0300
00000000
,
0MMM0010
00000000
0MMM0010
00000000
0MMM0010
00000000
0MMM0000
00000000
0MMM0100
00000000
0MMM0010
00001000
0MMM0000
00000000
0MMM0000
00000000
,
0MMM0010
00000000
0MMM1000
00000100
0MMM0010
00000000
0MMM0100
00001000
0MMM0010
00000000
0MMM0000
00000200
0MMM0000
00000000
0MMM0300
00000000
,
0MMM0010
00000000
0MMM0010
00000000
0MMM0010
00000000
0MMM0000
00000000
0MMM0100
00000000
0MMM0010
00001000
0MMM0000
00000000
0MMM0100
00000020
,
0MMM0000
00000030
0MMM0100
00001000
0MMM0010
00000000
0MMM1000
00000100
0MMM0010
00000000
0MMM0000
00002000
0MMM0000
00000000
0MMM3000
00000000
,
0MMM0010
00000000
0MMM0010
00000000
0MMM0010
00000000
0MMM0000
00000000
0MMM0100
00000000
0MMM1000
00000100
0MMM0000
00000000
0MMM0000
00000000
,
0MMM0010
00000000
0MMM0100
00001000
0MMM0010
00000000
0MMM1000
00000100
0MMM0010
00000000
0MMM0000
00002000
0MMM0000
00000000
0MMM0000
00000000
,
00000010
00000000
00000000
00000000
00100000
00000000
00000000
00000000
0M0130M0
00000000
00000000
00000000
00010000
00000100
00000020
00000000
,
00000030
00000100
00001000
00000100
00010000
00001000
02000000
00000000
03000000
00100000
01000000
00100000
00010000
00001000
00000020
00000000
,
00000030
00000100
00001000
00000100
00000010
00001000
00010000
00100000
01000000
00000000
00000000
00000000
00M000M0
00000000
00000000
00000000
,
0000M000
00000000
0M000000
00000000
000M0000
00000000
0M000000
00000000
0000M000
00000000
000M0000
0M000000
00000000
00000000
00000000
00000000
,
00000000
00000000
00000000
00000000
00M000M0
00M000M0
00M000M0
00M000M0
,
00M010M0
00000000
01M000M0
00000000
00M100M0
00000000
01M000M0
00000000
00M010M0
00000000
00M100M0
02000000
00M000M0
00000000
03M000M0
00000000
,
01M000M0
00000000
01M000M0
00000000
01M000M0
00000000
00M000M0
00000000
00M100M0
00000000
00M010M0
00010000
00M000M0
00000000
00M000M0
00000000
,
00M100M0
00000000
00M001M0
00000000
00M010M0
00000000
00M001M0
00000000
00M100M0
00000000
00M010M0
00000200
00M000M0
00000000
00M003M0
00000000
,
00M001M0
00000000
00M001M0
00000000
00M001M0
00000000
00M000M0
00000000
00M010M0
00000000
00M100M0
00001000
00M000M0
00000000
00M100M0
00002000
,
00M000M0
00003000
01M000M0
00000000
00M100M0
00000000
01M000M0
00000000
00M010M0
00000000
00M100M0
02000000
00M000M0
00000000
03M000M0
00000000
,
01M000M0
00000000
01M000M0
00000000
01M000M0
00000000
00M000M0
00000000
00M100M0
00000000
00M001M0
00010000
00M000M0
00000000
00M000M0
00000000
,
00M100M0
00000000
00M001M0
00000000
00M010M0
00000000
00M001M0
00000000
00M100M0
00000000
00M010M0
00000200
00M000M0
00000000
00M003M0
00000000
,
00001000
00000100
00001000
00010000
00001000
00000100
00000010
00010000
,
00002000
00003000
00020000
00030000
01000000
00000000
00200000
00300000
00002000
00003000
00020000
00030000
00000010
00000000
00000200
00000300
,
00000020
00000000
00000000
00000000
00001030
00000000
00000000
00000000
00020000
00000000
00000000
00000000
00031000
00000000
00000000
00000000
00100000
00000000
00010000
00000000
01000000
00100000
00000000
01000000
00000000
00001000
00000000
00010000
00002000
00000000
00003000
00000000
00020000
00000000
00000100
00000000
00031000
00000000
00000000
00000000
00002000
00000000
01000000
00000000
00013000
00000000
00000000
00000000
00020000
00000000
00000010
00000000
00031000
00000000
00000000
00000000
00002000
00000000
00100000
00000000
00013000
00000000
00000000
00000000
,
00000000
00001000
00000000
00001000
00100000
00000000
01000000
00000000
00010000
00001000
00000000
00001000
01000000
00000000
00100000
00000000
,
00010000
00000000
00020020
00030030
0MMM0000
00000000
00000000
0000M000
,
00000M00
00000000
000000M0
00000000
00000M00
00000000
0000M000
00000000
000000M0
00000M00
00000000
00000000
00000000
00000000
00000000
00000000
,
0MMM0000
00000000
0MMM0000
00000000
0MMM1000
00000000
0MMM0100
00000000
0MMM0010
00000000
0MMM0100
00000000
0MMM1000
00000000
0MMM0010
00000200
,
0MMM0000
00000000
0MMM1300
00000000
0MMM0100
00000000
0MMM0010
00000000
0MMM1000
00000100
0MMM1000
00000100
0MMM1000
00000000
0MMM1000
00000000
,
0MMM0100
00000000
0MMM0100
00000000
0MMM1000
00000000
0MMM0100
00000000
0MMM0010
00000000
0MMM0100
00000000
0MMM1000
00000000
0MMM0010
00000200
,
0MMM0000
00000000
0MMM0300
00000000
0MMM1000
00000000
0MMM1000
00000000
0MMM0100
00000000
0MMM0100
00000000
0MMM0020
00000000
0MMM1030
00000100
,
0MMM0000
00000000
0MMM0010
00000200
0MMM0000
00000000
0MMM1300
00000000
0MMM0010
00000000
0MMM1000
00000000
0MMM0100
00000000
0MMM1000
00000020
,
0MMM0000
00000000
0MMM0130
00000000
0MMM1000
00000000
0MMM0100
00000000
0MMM0010
00000100
0MMM0010
00000100
0MMM0010
00000000
0MMM0010
00000000
,
0MMM1000
00000000
0MMM1000
00000000
0MMM0100
00000000
0MMM0010
00000000
0MMM0100
00000000
0MMM1000
00000000
0MMM0100
00000000
0MMM0010
00002000
,
00000000
00003000
00000010
00001000
00010000
00001000
00011000
00000000
,
00001000
00000000
00010000
00000000
00000100
00010000
00001000
00000000
00100000
00000000
00001000
02000000
00000000
00000000
03000000
00000000
,
00001000
00000000
00010000
00000000
00000010
00010000
00001000
00000000
01000000
00000000
00001000
00200000
00000000
00000000
00300000
00000000
,
00001000
00000000
00010000
00000000
00000100
00010000
00001000
00000000
00100000
00000000
00010000
00000000
01100000
00000000
00000000
00000000
,
00011000
00000110
00011000
01100000
,
00000110
00000000
00000000
00000000
;

//---------------dance-double - Haley Halcyon----------------
#NOTES:
     dance-double:
     Haley Halcyon:
     Challenge:
     10:
     0.734,1.000,0.386,0.574,0.939:
00000000
00000000
00000000
M000000M
,
000M0000
00000000
00000M00
0000M000
000000M0
00000000
00000M00
00000000
0000M000
00000000
000M0000
00000000
0M000000
00000000
00M00000
00000000
,
00000000
00000000
00000000
00000000
,
00010000
00000000
00000100
00001000
00000010
00000000
00000100
00000000
00001000
00000000
00010000
00000000
01000000
00000000
00100000
00000000
,
00010000
00000000
00000000
00000000
00000000
00000000
01000000
00000000
00000000
00000000
00000000
00000000
00000000
00000000
00000000
00000000
00010000
00000000
00000000
00000000
00000000
00010000
00000000
00000000
00100000
00000000
00000000
00001000
00000000
00000000
00010000
00000000
00000000
00000010
00000000
00000000
00001000
00000000
00000000
00000000
00000000
00000000
00000000
00000000
00000000
00000000
00000000
00000000
,
00000100
00000000
00000000
00000000
00000000
00000000
00000010
00000000
00000000
00000100
00000000
00000000
00020000
00000000
00000000
00000000
00000000
00000000
00030000
00000000
00000000
00001000
00000000
00000000
02000000
00000000
00000000
00000000
00000000
00000000
03200000
00000000
00000000
00000000
00000000
00000000
00320000
00000000
00000000
00000000
00032000
00000000
00000000
00000000
00203000
00000000
00000000
00000000
,
00000000
00000000
00000000
00000000
01300000
00000000
00000000
00000000
00000000
00000000
00000000
00000000
00000000
00000000
00000000
00000000
00010000
00000000
00000000
00000000
00000000
00010000
00000000
00000000
00000100
00000000
00000000
00001000
00000000
00000000
00000010
00000000
00000000
00000100
00000000
00000000
00001000
00000000
00000000
00000000
00000000
00000000
00000000
00000000
00000000
00000000
00000000
00000000
,
02000000
00000000
03010000
00100000
00001000
00000000
00010000
00000000
00000200
00000000
00000320
00000000
00002030
00000000
00023000
00000000
,
00230000
00000000
00000000
00300000
02000000
00000000
00000000
00000000
00000000
00000000
00000000
00000000
03000000
00000000
00000000
00000000
00000000
00000000
00000000
00000000
00000000
00000000
00000000
00000000
,
02000000
03000000
00001000
00010000
00002000
00000000
00203000
00000000
00300020
00000000
00000230
00000000
00002300
00000000
01003000
00000000
,
01000000
00000000
00000000
00000000
00100000
00000000
00000000
00000000
00000000
01000000
00000000
00000000
00010000
00000000
00000000
00100000
00000000
00000000
01000000
00000000
00000000
00010000
00000000
00000000
00001000
00000000
00000000
00000000
00000100
00000000
00000000
00000000
00000000
00000010
00000000
00000000
00001000
00000000
00000000
00000100
00000000
00000000
00000010
00000000
00000000
00001000
00000000
00000000
,
00010000
00011000
00000000
00000000
,
00000000
00000000
00000000
00000000
,
00000000
00000000
00000000
00000000
,
00M00000
0000M000
0M000000
000M0000
00M00000
0000M000
0M000000
000M0000
00M00000
0000M000
0M000000
00M00000
00000000
00000000
00000000
00000000
,
00000000
00000000
00000000
00000000
,
00100000
00001000
01000000
00010000
00100000
00001000
01000000
00010000
00100000
00001000
01000000
00200000
00000000
00000000
00300000
00000000
,
01100000
00000000
01010000
00000000
00011000
00000000
00000000
00000000
00100000
00001000
00010000
00000010
00000000
00000000
00000000
00000000
,
00000010
00010000
00000100
00001000
00000010
00010000
00000100
00001000
00000010
00010000
00000100
00000020
00000000
00000000
00000030
00000000
,
00000110
00000000
00001100
00000000
00011000
00000000
00000000
00000000
00010000
01000000
00100000
00010000
00000000
00000000
00010000
02000000
,
03000000
00001000
00100000
00010000
01000000
00001000
00100000
00010000
01000000
00001000
00100000
02000000
00000000
00000000
03000000
00000000
,
01100000
00000000
00110000
00000000
00011000
00000000
00000000
00000000
00001000
00100000
00000010
00010000
00000000
00000000
00000000
00000000
,
00000100
00010000
00000010
00001000
00000100
00010000
00000010
00001000
00000100
00010000
00000010
00000200
00000000
00000000
00000300
00000000
,
00100010
01000100
00011000
00000000
,
00000000
00000000
00000000
00000000
,
00000000
00000000
00000000
00000000
,
000M0000
0000M000
00M00000
00000M00
000M0000
0000M000
00M00000
00000M00
000M0000
0000M000
00M00000
0M000000
00000000
00000000
00000000
00000000
,
00000000
00000000
00000000
00000000
,
00010000
00001000
00100000
00000100
00010000
00001000
00100000
00000100
00010000
00001000
00100000
02000000
00000000
00000000
03000000
00000000
,
01100000
00000000
00110000
00000000
00011000
00000000
00000000
00000000
00000100
01000000
00000010
00100000
00000000
00000000
00000000
00000000
,
00001000
00010000
00000100
00100000
00001000
00010000
00000100
00100000
00001000
00010000
00000100
00000020
00000000
00000000
00000030
00000000
,
00000110
00000000
00001100
00000000
00011000
00000000
00000000
00000000
00100000
00000010
01000000
00000100
00000000
00000000
00100000
00002000
,
00003000
00010000
00000010
01000000
00001000
00010000
00000010
01000000
00001000
00010000
00000010
00000200
00000000
00000000
00000300
00000000
,
00000110
00000000
00001010
00000000
00011000
00000000
00000000
00000000
00100000
00000010
01000000
00000100
00000000
00000000
00000000
00000000
,
00010000
00001000
00100000
00000100
00010000
00001000
00100000
00000100
00010000
00001000
00100000
02000000
00000000
00000000
03000000
00000000
,
01000000
00000000
00100000
00001000
00000000
00010000
00000100
00000000
00010000
00000000
00000000
00000000
00002000
00000000
00023000
00000000
,
02030000
03200000
00320000
00032000
00003200
00000320
00002030
00023000
,
00230000
02300000
03000200
00200300
00000020
00300030
00000000
00000000
,
00M00000
000000M0
0M000000
00000M00
00M00000
000000M0
0M000000
00000M00
00M00000
000000M0
0M000000
000M0000
00000000
00000000
00000000
00000000
,
00000000
00000000
00000000
00000000
,
00100000
00000010
01000000
00000100
00100000
00000010
01000000
00000100
00100000
00000010
01000000
00020000
00000000
00000000
00030000
00000000
,
01010000
00000000
00011000
00000000
00001100
00000000
00000000
00000000
00000100
00100000
00000010
01000000
00000000
00000000
00000000
00000000
,
00000010
00100000
00000100
01000000
00000010
00100000
00000100
01000000
00000010
00100000
00000100
00002000
00000000
00000000
00003000
00000000
,
00001100
00000000
00011000
00000000
01010000
00000000
00000000
00000000
01000000
00000010
00100000
00000100
00000000
00000000
01000000
00002000
,
00003000
00100000
00000010
00010000
00001000
00100000
00000010
00010000
00001000
00100000
00000010
02000000
00000000
00000000
03000000
00000000
,
01001000
00000000
00011000
00000000
00010100
00000000
00000000
00000000
00000100
00001000
00000010
00100000
00000000
00000000
00000000
00000000
,
00000010
00100000
00001000
00010000
00000010
00100000
00001000
00010000
00000010
00100000
00000100
00002000
00000000
00000000
00003000
00000000
,
00000100
00000000
00001000
00000000
00000010
00000000
00100000
00000000
00010000
00000000
01000000
01000000
00001000
00010000
00000100
01000000
,
00MMMM10
00001000
00010100
01000000
00010000
00100000
00001010
00010000
,
00000200
00000000
00000000
00000000
00010300
00000000
00000000
00000000
02000000
00000000
00000000
00000000
03001000
00000000
00000000
00000000
01000000
00000000
00010000
00000000
00100000
00000100
00000000
00001000
00000000
00000010
00000000
00020000
00031000
00000000
00000000
00000000
02000000
00000000
00000100
00000000
03001000
00000000
00000000
00000000
00000020
00000000
01000000
00000000
00010030
00000000
00000000
00000000
00200000
00000000
00000100
00000000
00301000
00000000
00000000
00000000
00000200
00000000
01000000
00000000
00010300
00000000
00000000
00000000
,
0M0000M0
00010000
00000000
00000100
00001000
00000010
00000100
00001000
00010000
00001000
00000000
00010000
01000000
00100000
00010000
01000000
,
00100000
00000000
00000000
00000000
02000200
00000000
03000300
00000000
00000000
00000000
0000M000
000M0000
0M000000
00M00000
0000M000
000M0000
,
0M000000
00M00000
0000M000
000M0000
0M000000
0000M000
00000000
00000000
00000000
00000000
00000000
00000000
00000000
00000000
00000000
00000000
,
00000000
00000000
00000000
00000000
00001000
00010000
01000000
00100000
00001000
00010000
01000000
00100000
00001000
00010000
01000000
00002000
,
00000000
00000000
00003100
00000000
00000010
00000000
00000100
00000000
00010000
00001000
00010000
00001000
00010000
00000000
00001010
00000000
,
00011000
00000000
00001100
00000000
00010000
00001000
00000100
00000010
00010000
00001000
00000100
00000010
00010000
00001000
00000100
00020000
,
00000000
00000000
00030000
00000000
00010000
00000000
01000000
00000000
00001000
00000000
00100000
00000000
02000000
03000000
00100000
00010000
,
00000000
00000000
00010000
02000000
03000000
00001000
00010000
00000010
01000000
00001000
00010000
00000010
01000000
00001000
00010000
00200000
,
00000000
00000000
01300000
00000000
00010000
00000000
01000000
00000000
00001000
00010000
00001000
00010000
00001000
00000000
00110000
00000000
,
00011000
00000000
01010000
00000000
00001000
00010000
00000010
01000000
00001000
00010000
00000100
00100000
00001000
00010000
00000010
00000200
,
00000000
00000300
00000010
00100000
00010000
01000000
00002000
00003000
,
00100000
00000000
00001000
00000000
01000000
00100000
00010000
00100000
01000000
00010000
00100000
00001000
00010000
00000010
00001000
00000200
,
00000000
00000000
00000300
00000000
00000100
00001000
00000010
00000100
00000010
00001000
00000100
00010000
00001000
01000000
00010000
00200000
,
00000000
00000000
00300000
00000000
00000010
00001000
00000100
01000000
00010000
00100000
00000100
00001000
00000010
00000000
00000000
00000000
,
00001100
00011000
01010000
00011000
,
00100010
00000000
00000000
00000000
;
