#TITLE:Pastel [no split timing];
#SUBTITLE:;
#ARTIST:Snail’s House × Moe Shop;
#TITLETRANSLIT:;
#SUBTITLETRANSLIT:;
#ARTISTTRANSLIT:Snail's House & Moe Shop;
#GENRE:Future Funk;
#CREDIT:The Soflan Sisters;
#MUSIC:Pastel.ogg;
#BANNER:Pastel.png;
#BACKGROUND:Pastel-bg.png;
#CDTITLE:cdtitle.png;
#SAMPLESTART:93.730;
#SAMPLELENGTH:15.000;
#SELECTABLE:YES;
#OFFSET:0.006;
#BPMS:0.000=128.000
,31.500=256.000
,33.000=128.000
,33.500=256.000
,34.000=128.000
,35.000=512.000
,36.000=128.000
,67.000=512.000
,67.500=256.000
,67.750=128.000
,67.875=64.000
,67.938=16.000
,68.000=128.000
,95.500=256.000
,100.000=128.000
,100.500=512.000
,100.750=256.000
,100.875=64.000
,100.938=32.000
,101.000=128.000
,101.500=256.000
,101.625=128.000
,101.688=64.000
,101.813=128.000
,101.875=256.000
,102.250=128.000
,102.375=64.000
,102.500=256.000
,103.500=128.000
,103.625=64.000
,103.875=128.000
,104.000=256.000
,104.125=128.000
,104.188=64.000
,104.313=128.000
,104.375=256.000
,104.625=128.000
,104.688=64.000
,104.813=128.000
,104.875=256.000
,105.250=128.000
,105.375=64.000
,105.500=128.000
,106.000=256.000
,106.250=128.000
,106.375=64.000
,106.500=256.000
,107.250=128.000
,107.375=64.000
,107.500=256.000
,108.250=128.000
,108.375=64.000
,108.500=256.000
,109.625=128.000
,109.688=64.000
,109.813=128.000
,109.875=256.000
,110.000=128.000
,111.000=256.000
,111.500=128.000
,111.625=64.000
,111.875=128.000
,112.000=256.000
,112.125=128.000
,112.188=64.000
,112.313=128.000
,112.375=256.000
,112.625=128.000
,112.688=64.000
,112.813=128.000
,112.875=256.000
,113.250=128.000
,113.375=64.000
,113.500=256.000
,114.250=128.000
,114.375=64.000
,114.500=256.000
,114.750=128.000
,115.000=256.000
,115.250=128.000
,115.375=64.000
,115.500=256.000
,116.000=128.000
,116.500=512.000
,116.750=256.000
,116.875=64.000
,116.938=32.000
,117.000=128.000
,117.500=256.000
,117.625=128.000
,117.688=64.000
,117.813=128.000
,117.875=256.000
,118.250=128.000
,118.375=64.000
,118.500=256.000
,119.500=128.000
,119.625=64.000
,119.875=128.000
,120.000=256.000
,120.125=128.000
,120.188=64.000
,120.313=128.000
,120.375=256.000
,120.625=128.000
,120.688=64.000
,120.813=128.000
,120.875=256.000
,121.250=128.000
,121.375=64.000
,121.500=128.000
,122.000=256.000
,122.250=128.000
,122.375=64.000
,122.500=256.000
,123.500=128.000
,123.625=64.000
,123.875=128.000
,124.000=256.000
,124.125=128.000
,124.188=64.000
,124.313=128.000
,124.375=256.000
,124.625=128.000
,124.688=64.000
,124.813=128.000
,124.875=256.000
,125.625=128.000
,125.688=64.000
,125.813=128.000
,125.875=256.000
,126.000=128.000
,126.500=256.000
,126.625=128.000
,126.688=64.000
,126.813=128.000
,126.875=256.000
,127.125=128.000
,127.188=64.000
,127.313=128.000
,127.375=256.000
,127.625=128.000
,127.688=64.000
,127.813=128.000
,127.875=256.000
,128.250=128.000
,128.375=64.000
,128.500=256.000
,128.625=128.000
,128.688=64.000
,128.813=128.000
,128.875=256.000
,129.000=128.000
,129.125=64.000
,129.250=256.000
,130.250=128.000
,130.375=64.000
,130.500=256.000
,130.625=128.000
,130.688=64.000
,130.813=128.000
,130.875=256.000
,131.125=128.000
,131.188=64.000
,131.313=128.000
,131.375=256.000
,131.625=128.000
,131.688=64.000
,131.813=128.000
,131.875=256.000
,132.000=128.000
,164.000=512.000
,167.000=128.000
,198.000=512.000
,199.000=128.000
,230.000=512.000
,231.000=128.000
;
#STOPS:31.500=0.117
,32.000=0.118
,32.500=0.117
,33.500=0.117
,35.000=0.088
,35.250=0.088
,35.500=0.088
,35.750=0.088
,95.500=0.117
,96.000=0.117
,96.500=0.117
,97.000=0.117
,97.500=0.352
,99.000=0.059
,99.250=0.059
,99.500=0.059
,99.750=0.059
,102.750=0.117
,106.750=0.117
,107.750=0.117
,108.750=0.117
,109.250=0.117
,113.750=0.117
,114.500=0.059
,115.750=0.117
,118.750=0.118
,122.750=0.117
,125.250=0.117
,129.500=0.059
,129.750=0.059
,164.000=0.205
,164.250=0.205
,164.500=0.205
,164.750=0.205
,165.000=0.088
,165.250=0.088
,165.500=0.088
,165.750=0.088
,166.000=0.088
,166.250=0.088
,166.500=0.088
,166.750=0.088
,198.000=0.087
,198.250=0.088
,198.500=0.088
,198.750=0.088
,230.000=0.087
,230.250=0.088
,230.500=0.088
,230.750=0.088
;
#DISPLAYBPM:128.000;
#ORIGIN:;
#PREVIEWVID:;
#JACKET:Pastel-jacket.png;
#CDIMAGE:Pastel-jacket(CUnet)(auto_scale)(Level2)(x2.000000).png;
#DISCIMAGE:;
#BGCHANGES:;
#FGCHANGES:;

//--------------- dance-single - about:blank ----------------
#NOTES:
     dance-single:
     about:
     blank:
     Beginner:
     3:
0.098842,0.184144,0.007207,0.028829,0,96,95,1,4,0,0,0,0,0,0.098842,0.184144,0.007207,0.028829,0,96,95,1,4,0,0,0,0,0:
0000
0000
0000
0000
,
0000
0000
0000
0000
,
0000
0000
0000
0000
,
0000
0000
0000
0000
,
0000
0000
0000
0000
,
1000
0000
0000
0000
,
0100
0000
0000
0000
,
1000
0000
0000
0000
,
0001
0000
1000
0000
,
0001
0000
0000
0000
,
0100
0000
0000
0000
,
0010
0000
0000
0000
,
0000
0000
0000
0000
,
1000
0000
0100
0000
,
0010
0000
0001
0000
,
1000
0000
0000
0000
,
0001
0000
0000
0000
,
0100
0000
0100
0000
,
0100
0000
0000
0000
,
0010
0000
0010
0000
,
0010
0000
0000
0000
,
1000
0000
1000
0000
,
1000
0000
0000
0000
,
0001
0000
0001
0000
,
0001
0000
0000
0000
,
1000
0001
1000
0000
,
0001
1000
0001
0000
,
1000
0000
0001
0000
,
1000
0001
1000
0000
,
0010
0100
0010
0000
,
0100
0010
0100
0000
,
0010
0000
0100
0000
,
0010
0100
0010
0000
,
1000
0000
0000
0000
,
0100
0000
0000
0000
,
0010
0000
0000
0000
,
0000
0000
0000
0000
,
0001
0000
0000
0000
,
0100
0000
0000
0000
,
0010
0000
0000
0000
,
1000
0000
0000
0000
,
1001
0000
0000
1000
,
0000
1000
0000
1000
,
0000
1000
0000
0010
,
0000
0000
0000
0100
,
0000
0000
0000
0001
,
0000
0001
0000
0001
,
0000
0001
0000
0100
,
0000
0000
0000
0010
,
0000
0000
0000
1000
,
0000
1000
0000
1000
,
0000
1000
0000
0001
,
0000
0001
0000
0001
,
0000
0001
0000
0100
,
0000
0100
0000
0100
,
0000
0100
0000
0010
,
0000
0010
0000
0010
,
0000
0000
0000
1000
,
0000
0000
0000
1000
,
0000
0000
0000
0001
,
0000
0000
0000
0001
,
0000
0000
0000
0100
,
0000
0000
0000
0100
,
0000
0000
0000
0010
,
0000
0000
0000
0010
,
0000
0000
0000
2000
,
0000
0000
0000
3000
,
0000
0000
0000
0002
,
0000
0000
0000
0003
,
0000
0000
0000
0200
,
0000
0000
0000
0300
,
0000
0000
0000
0020
,
0000
0000
0000
0030
;

//--------------- dance-single - Haley Halcyon ----------------
#NOTES:
     dance-single:
     Haley Halcyon:
     Easy:
     6:
     0.265637,0.346667,0.072072,0.18018,0.007207,258,248,10,25,0,0,0,0,0,0.265637,0.346667,0.072072,0.18018,0.007207,258,248,10,25,0,0,0,0,0:
0000
0000
0000
0000
,
0000
0000
0000
0000
,
0000
0000
0000
0000
,
0000
0000
0000
0000
,
0000
0000
0000
0000
,
0001
0000
0000
0000
0000
0000
0000
0000
1000
0000
0000
0100
0000
0000
1000
0000
,
0000
0000
0000
0000
,
1000
0000
0000
0000
0000
0000
0000
0000
0001
0000
0000
0100
0000
0000
0001
0000
,
0000
0000
0000
0000
,
1000
0100
1000
0000
,
1000
0001
0100
0000
,
0010
0000
0100
0000
,
0001
0000
1000
0001
,
1000
1100
0001
0101
,
0010
0100
0010
0011
,
1000
0001
1000
0000
0001
1000
0001
0000
,
0010
0100
1000
1001
,
0001
0100
0010
0100
,
0001
0010
0100
0010
,
0001
1000
0010
1000
,
0100
0010
0100
1000
,
0001
0100
0010
0100
,
0001
1000
0100
0010
,
1000
0010
0001
0010
,
0200
0000
0000
2300
0000
0000
3001
0000
,
1000
0100
0000
0100
0010
0100
1000
0000
,
0001
0000
0010
0000
0100
0010
0001
0000
,
0010
0100
0100
0000
1000
0000
0100
0000
,
0010
0100
0010
0000
0010
0001
1000
0001
,
0000
0001
0000
0001
0100
0000
0100
0000
,
0001
1000
0010
0000
0100
0000
0100
0000
,
0001
0000
0001
0100
0010
0000
0010
0100
,
0001
0100
0001
0000
1000
0010
0010
0000
,
2000
0100
0000
0100
,
3002
0100
0000
0100
,
2003
0010
0000
0010
,
3002
0010
0000
0010
,
0203
0010
0302
0010
,
0203
0010
0302
0010
,
2003
0100
3020
0100
,
2030
0100
3020
0001
,
0000
0000
0000
1030
,
1000
0100
0000
0100
0010
0001
0000
0100
,
0010
1000
0000
0001
0010
0002
0000
0000
,
0003
0000
0001
0000
0010
0100
1000
0000
,
1001
0000
0000
0001
0100
0001
0020
0000
,
0000
0030
0001
1000
0010
2000
0000
3000
,
0001
0200
0000
0300
0001
1000
0002
0003
,
1000
0200
0000
0000
1300
0002
0000
0000
,
0010
0000
0013
1000
,
1001
0000
1000
0000
0100
0000
1000
0001
,
0010
0100
0010
0000
0001
0000
0010
0100
,
0010
0001
1000
0000
0100
0000
0010
0000
,
0010
0001
1000
0010
,
0101
0000
0001
0000
1000
0010
0100
0000
,
0001
1000
0001
0000
0100
0000
0010
1000
,
0010
0100
0001
0000
0100
0000
0001
0000
,
0001
1000
1000
0001
,
0000
1000
0000
0001
,
0000
0001
0000
0000
0000
0000
1000
0000
,
0000
0000
0001
0000
0000
0001
0000
0000
,
0000
1000
0000
0010
,
0000
0000
0100
0000
0000
0100
0000
0000
,
0000
0010
0000
0000
0000
0000
0010
0000
,
0000
0000
0100
0000
0000
0100
0000
0000
,
0000
0010
0000
0000
0000
0000
2000
0000
,
0000
0100
0000
0001
,
0000
3010
0000
0000
0000
0000
1002
0000
,
0000
0000
0100
0000
0000
1000
0000
0000
,
0000
0013
0000
2001
,
0000
0000
0100
0000
0000
0001
0000
0000
,
0000
3010
0000
0000
0000
0000
1002
0000
,
0000
0000
0100
0000
0000
0010
0000
0000
,
0000
1000
0000
1000
0000
0000
0003
0000
;

//--------------- dance-single - Haley Halcyon ----------------
#NOTES:
     dance-single:
     Haley Halcyon:
     Medium:
     8:
     0.356242,0.426667,0.100901,0.30991,0.061261,346,332,14,43,0,0,2,0,0,0.356242,0.426667,0.100901,0.30991,0.061261,346,332,14,43,0,0,2,0,0:
0000
0000
0000
0000
,
0000
0000
0000
0000
,
0000
0000
0000
0000
,
0000
0000
0000
0000
,
0000
0000
0000
0000
,
0011
0000
0000
0000
0000
0000
0000
0000
0001
0000
0000
0010
0000
0000
0100
0000
,
0000
0000
0000
0100
0000
0000
1000
0000
,
1010
0000
0000
0000
0000
0000
0000
0000
0010
0000
0000
0100
0000
0000
0004
0000
,
0000
0000
0003
2000
0000
0000
3000
0000
,
0002
0000
0003
0000
0020
0000
0031
0010
,
0001
0100
0010
1000
0001
1000
0001
0000
,
0010
0001
0010
0100
2000
3000
0001
0020
,
0000
0030
0100
0020
0030
0001
0001
1000
,
0001
0011
1000
1010
,
0001
0100
0010
1000
0001
0000
1100
0000
,
1000
0100
0001
0100
,
1000
0001
1000
0001
1000
0000
1001
0000
,
0001
0100
0010
0000
0100
0010
1000
0000
,
0010
0100
0010
1000
0001
0100
0001
0000
,
0001
0100
0010
0000
0100
0010
1000
0000
,
0001
1000
0100
0010
0001
1000
0001
0000
,
1000
0100
0010
0000
0100
0010
0001
0000
,
0010
0100
0010
0001
1000
0100
1000
0000
,
0001
0100
0010
0000
0100
0010
1000
0000
,
2000
0100
0000
3100
,
0001
0010
0000
0010
0100
0010
0001
0000
,
1000
0001
1000
0010
0001
0010
1000
0010
,
0100
0000
0001
1000
0100
0100
1000
0000
,
0001
0001
1000
0010
0100
0010
1000
0001
,
0000
0001
0000
0001
1000
0100
1000
0000
,
1000
0001
1000
0100
0010
0100
1000
0000
,
0010
0010
0100
0010
1000
0100
1000
0000
,
0010
0100
0010
1000
0010
0100
0001
0001
,
2000
0100
0000
3002
,
0000
0100
0000
2003
,
0000
0010
0000
3002
,
0000
0000
0000
0000
0000
0000
0000
0000
0000
0000
0000
0000
0000
0000
0000
0000
0000
0000
0000
0000
0000
0000
0000
0000
0100
0000
0000
0000
0000
0000
0000
0000
0000
0000
0000
0000
0000
0000
0000
0000
0000
0000
0000
0000
0000
0000
0000
0000
0000
0000
0000
0000
0000
0000
0000
0000
0000
0000
0000
0000
0000
0000
0000
0000
0000
0000
0000
0000
0000
0000
0000
0003
1000
0000
0000
0000
0000
0000
0000
0000
0000
0000
0000
0000
0000
0000
0000
0000
0000
0000
0000
0000
0000
0000
0000
0000
,
1000
1100
0001
0101
,
1000
1010
0001
0011
,
0001
0201
0310
1020
,
0130
0102
1003
1004
,
0000
0000
0000
0000
0000
0003
1000
0001
,
0010
0010
0000
0100
1000
0001
0000
0010
,
0001
1000
0000
0001
1000
0020
0000
0000
,
0130
0000
0000
0000
0100
0000
0000
0001
0000
1000
0000
0020
0000
0000
0000
0000
,
0130
0000
0000
0100
0001
1000
0002
0000
,
0010
0000
0003
0000
0000
0010
0000
0100
0000
0000
2000
0000
0000
0000
3000
0000
,
0001
0000
0200
0000
0000
0000
0300
0000
0001
0000
0010
0000
0200
0000
0000
1300
,
0000
1000
0000
0020
0000
0000
0000
0000
0130
0000
0200
0000
0000
0000
0000
0000
,
0001
0000
0000
0000
0301
0000
0001
0010
,
0100
0010
0002
0003
1000
0100
0010
0100
,
0010
0001
0010
0100
1000
0000
0001
0010
,
0100
0010
0002
0003
1000
0200
0000
0300
,
0010
0200
0300
1000
0001
0000
1000
0010
,
0100
0010
2000
3000
0001
0100
0010
0100
,
0010
1000
0010
0100
0001
0000
1000
0010
,
0100
0010
2000
3000
0001
0200
0000
0300
,
0010
0200
0000
0300
0001
1000
0001
0000
,
0100
0001
1000
0001
,
0100
0010
1000
0001
,
0100
0001
1000
0001
,
0100
0010
1000
1000
,
0100
1000
0001
1000
,
0100
0010
0001
1000
,
0100
1000
0001
1000
,
0100
0010
0001
2000
,
0000
0000
0000
0000
0000
3002
2003
0000
,
0000
0000
0000
0000
3000
0000
0001
0000
0100
0000
0100
0020
0000
0000
0000
0000
,
0000
0000
0000
0000
0000
0000
1030
0000
0001
0000
0001
0200
0000
0000
0000
0000
,
0000
0320
0000
0000
0000
2030
3200
0000
,
0300
0000
0100
1000
0000
0001
0000
0010
0000
0001
0000
2000
0000
0000
3000
0000
,
0010
0200
0000
0301
1000
0200
1000
0000
,
0000
0000
0010
0000
0000
2000
0300
0000
,
0000
3002
0000
0000
0000
0000
0003
0000
;

//--------------- dance-single - about:blank ----------------
#NOTES:
     dance-single:
     about:
     blank:
     Hard:
     11:
0.458172,0.533333,0.223423,0.266667,0.158559,445,414,31,37,0,0,0,0,0,0.458172,0.533333,0.223423,0.266667,0.158559,445,414,31,37,0,0,0,0,0:
0000
0000
0000
0000
,
0000
0000
0000
0000
,
0000
0000
0000
0000
,
0000
0000
0000
0000
,
0000
0000
0000
0000
,
0001
0000
0000
0000
0000
0000
0000
0010
0001
0000
0000
1000
0000
0000
0100
0000
,
0000
1000
0010
0010
0000
0100
0001
0000
,
1001
0000
0000
0000
0000
0000
1000
0100
1000
0000
0000
1000
0000
0000
0010
0000
,
0100
0000
0100
0000
0001
0000
0020
0000
0000
0000
0000
0000
0031
1000
0001
1000
,
0001
0000
0100
0000
0001
0000
1000
0000
0010
0000
0000
0100
0000
0000
0100
0000
,
0010
1000
0001
1000
0100
0010
0001
0000
,
1000
0100
0001
0100
1000
0010
0100
0002
,
0000
0000
0000
0000
1000
0000
2000
0000
3003
0000
0001
1000
0001
0000
0100
0000
,
0010
1010
1000
1001
,
0001
0011
0010
0110
,
0100
0100
1000
1000
0001
0001
0100
0100
,
0020
0000
0000
1030
,
1000
0000
0010
0000
0100
0000
0001
0000
0010
0000
0000
0010
0000
0000
0010
0000
,
0000
0001
1000
1000
0000
0100
1000
0010
,
0100
0000
0000
0000
0101
0000
0000
0000
0001
0000
0000
0010
0000
0000
0100
0000
,
0000
0010
0001
1000
0001
1000
0001
0000
,
0101
0000
0000
0000
1010
0000
0000
0000
0010
0000
0000
1000
0000
0000
0100
0000
,
0010
0001
1000
1000
0010
0100
0001
0100
,
0201
0000
0310
0000
1200
0000
0310
0001
,
1000
0000
1000
0000
0010
0000
0200
0000
0000
0000
0000
0000
0301
1000
0001
1000
,
0001
0100
1000
0100
0001
0100
1000
0000
,
1000
0100
0001
0100
1000
0100
0001
0000
,
1001
0000
1000
0010
0001
0010
1000
0000
,
0001
0010
1000
0010
0100
1000
0001
0000
,
1010
0000
0000
0000
0010
0000
0100
0001
0100
0000
0001
0000
1000
0000
0000
0000
,
0001
0000
0010
0001
0010
0000
0001
0000
1000
0000
0010
0000
0100
0000
0000
0000
,
0001
1000
0001
0000
0010
0000
0100
0000
1000
0001
1000
0000
0001
1000
0001
0000
,
0100
0100
0010
0010
0100
0100
0010
0010
,
1000
1100
0001
0101
,
0001
1000
0100
0100
1000
0010
0200
0000
,
0310
0010
0100
0100
0001
0001
1000
0200
,
1000
0000
1300
0020
1000
0030
1010
1000
,
0010
0000
0000
0000
0110
0000
0000
0000
0100
0000
0000
0100
0001
0000
1000
0000
,
0001
0001
0100
0010
0100
0001
1000
0000
,
0001
0010
0100
0010
0001
0100
0010
1000
,
0001
1000
0001
1000
0010
0100
0010
0100
,
0020
0230
0320
0230
0020
0000
0000
0000
0000
0000
0330
0000
0001
0000
1000
0000
,
0100
0000
1000
0000
0020
0000
0000
0100
0000
0000
0130
0000
0001
0000
1000
0000
,
0100
0100
1000
0100
0010
0100
2000
0000
,
3001
0000
0000
0001
1000
0000
0000
0010
0000
0100
0000
0001
0020
0000
0000
0000
,
0031
0000
1001
0001
1100
1000
0200
0000
,
1300
0000
0000
0000
1000
0001
0000
1000
0000
0010
0200
0000
0001
0000
0000
0000
,
0301
1000
0001
0000
0100
0000
0000
0000
0010
0000
1000
0000
0100
0000
0000
0100
,
0010
0001
2000
0000
3001
0200
0010
0000
,
0010
0000
0000
0000
0310
0000
0000
0000
0010
0100
0010
0100
0010
0000
1000
0000
,
0001
0000
0010
0000
0100
0000
0000
0100
0000
0000
0100
0000
1000
0000
0100
0000
,
0010
0001
1000
0010
0100
0000
0001
1000
,
0001
0100
0001
0010
0012
0003
2100
3000
,
1020
0030
0201
0300
1001
1000
0010
0100
,
0001
0000
0010
0000
0001
0000
0000
0001
0000
0000
0001
0000
0100
0000
0010
0000
,
0100
0001
1000
0100
0010
0000
0100
1000
,
0001
0010
0100
0010
0001
1000
0010
0100
,
0010
0000
0100
0000
0002
0000
0000
0000
1003
0001
1000
0001
1000
0000
0000
0000
,
0010
0100
0001
1000
,
0001
0010
0100
1000
,
0010
1000
0001
0100
,
0010
0100
0001
0101
,
0001
1001
1000
1010
,
0010
0110
0100
0101
,
0001
0000
1001
0000
1000
0100
1000
0000
,
0100
0010
0100
0000
0110
0000
0012
0000
,
0000
0000
0000
0000
0000
0000
0000
0000
0000
0000
1003
0010
2000
0000
0000
0000
,
0000
0000
0000
0000
0000
0000
3010
0000
0100
0000
0001
1000
0002
0000
0000
0000
,
0000
0000
0000
0000
0000
0000
0103
0000
0010
0000
1000
0020
0000
0000
0000
0000
,
0000
0000
0230
0000
0000
0000
0000
0000
0000
0000
0301
1000
0002
0000
0000
0000
,
0000
0000
0000
0103
0000
0010
0000
1000
0000
0001
0000
0200
0000
0000
0000
0000
,
0000
0320
0000
0000
,
2030
0000
0001
0000
0000
0001
0000
0000
,
0000
0020
0000
0000
0000
0000
3030
0000
;

//--------------- dance-single - The Soflan Sisters ----------------
#NOTES:
     dance-single:
     The Soflan Sisters:
     Challenge:
     14:
     0.511712,0.797297,0.201802,0.648649,0.367568,497,469,28,90,3,0,0,0,0,0.511712,0.797297,0.201802,0.648649,0.367568,497,469,28,90,3,0,0,0,0:
0000
0000
0000
0000
,
0000
0000
0000
0000
,
0000
0000
0000
0000
,
0000
0000
0000
0000
,
0000
0000
0000
0000
,
0001
0000
0000
0000
0000
0000
0000
1000
0001
0000
0000
0010
0000
0000
0100
0000
,
0000
1000
0100
0100
0000
1000
0010
0000
,
1010
0000
0000
0000
0000
0000
0010
0000
1000
0000
0000
0100
0000
0000
0001
0000
,
0100
0000
0100
0000
0010
0000
0002
0000
0000
0000
0000
0000
0103
0010
0100
0010
,
1000
0000
0001
0000
1000
0000
0100
0000
1100
0000
0000
0101
0000
0000
0002
0000
,
0010
0000
0013
0000
0001
0000
0100
0000
0010
0000
1000
0000
1000
0001
0000
0000
,
0010
0100
1000
0100
0001
0100
0010
0002
,
0000
0100
0103
2000
0000
3100
0001
0100
,
0010
0000
0000
0000
0110
0000
0000
0000
1000
0000
0000
1000
0001
0000
0100
0000
,
0010
0000
1000
0000
1010
0000
0010
0000
0100
0000
0001
0000
1000
0001
0000
0000
,
1000
0001
0100
0010
1000
0100
0010
0001
,
2000
0000
0001
0002
0000
3003
1001
0000
,
1001
0000
1000
0000
0002
0003
0100
0010
0000
0001
0000
0010
0000
0000
0200
0002
,
0000
0000
0303
0000
1001
0000
0200
0000
0000
0300
1000
0000
0100
0000
0001
0200
,
0000
0300
0010
0100
2000
0000
0000
0000
3001
0000
0000
1000
0010
0000
0200
0300
,
0020
0030
0100
0000
0001
0010
0000
0010
0000
0100
0000
0100
2000
0000
0000
3000
,
0001
0000
1000
0000
1000
0000
0010
0100
0000
1000
0000
0100
0000
0000
0001
0200
,
0000
0000
0300
0000
1001
0000
1000
0200
0000
0300
0010
0001
0000
0000
0020
0200
,
0300
0002
0000
0030
1003
1000
0010
0100
,
0100
0000
0100
0000
0100
0000
0002
0000
0000
0000
0000
0000
1003
0001
1000
0001
,
1000
0000
0010
0000
0000
0000
0100
0010
2000
0000
3100
0000
2200
0000
3300
0000
,
0001
0000
0000
0010
0000
0000
0001
0000
0000
0010
0000
0000
0200
0000
0000
0000
0000
0000
1300
0000
0100
0000
1000
0000
0002
0000
0000
0000
0000
0000
0103
0000
0000
0000
0000
0000
0002
0000
0000
0000
0000
0000
0013
0000
0000
0000
0000
0000
,
0200
0000
0000
0000
0000
0000
1300
0000
0000
0000
0000
0000
1000
0000
0000
0000
0000
0000
0001
0000
0000
1000
0000
0000
0010
0000
1000
0000
0010
0000
1000
0000
0000
0001
0000
0000
0200
0000
0000
0000
0000
0000
0300
0000
0000
0000
0000
0000
,
0001
0000
0000
0000
0000
0000
0000
1000
0000
0000
0000
0000
0001
0000
0000
0000
0000
0000
0000
1000
0000
0000
0000
0000
0002
0000
0000
0000
0000
0000
0000
0000
0000
0000
0000
0000
0013
0000
0000
0000
0000
0000
0000
0000
0000
0000
0000
0000
0200
0000
0000
0000
0000
0000
0000
0000
0000
0000
0000
0000
1300
0000
0000
0000
0000
0000
0010
0000
0000
0000
0000
0000
0200
0000
0000
0000
0000
0000
0000
0000
0000
0000
0000
0000
0301
0000
0000
0000
0000
0000
0000
0000
0000
0000
0000
0000
,
000M
0000
0001
0000
0000
0001
1000
0001
0020
0000
0130
0000
2000
0000
3000
0000
,
0001
0000
0000
0010
0000
0000
0001
0000
0000
0010
0000
0000
0200
0000
0000
0000
0000
0000
1300
0000
0100
0000
1000
0000
0002
0000
0000
0000
0000
0000
0103
0000
0000
0000
0000
0000
0202
0000
0000
0000
0000
0000
0303
0000
0000
0000
0000
0000
,
0001
0000
0000
0100
0000
0000
0001
0000
0000
0010
0000
0000
0100
0000
0000
0000
0000
0000
1000
0000
0000
0100
0000
0000
1000
0000
0001
0000
1000
0000
0001
0000
0000
0010
0000
0000
0001
0000
0000
0010
0000
0000
0001
0000
0000
0010
0000
0000
,
0002
0000
1003
0010
2000
0000
310M
0100
M002
0000
0103
0010
0100
0010
0100
0010
,
1000
0000
0000
0000
1001
0000
0000
0000
0001
0000
0000
0001
1000
0000
0010
0000
,
0100
0000
0001
1000
0001
0000
1000
0000
0010
0000
0100
0000
0100
0001
0000
0000
,
1000
0100
0010
0100
0001
1000
0010
0002
,
1000
0000
1003
0000
0020
0000
0200
0000
0330
0000
0001
1000
0001
0000
0100
0000
,
0110
0000
0000
0000
1010
0000
0000
0000
1000
0000
0000
0100
0010
0000
0001
0000
,
1000
0000
0010
1000
0010
0000
0100
0000
0001
0000
1000
0000
1000
0001
0000
0000
,
0010
0001
0100
0010
0100
1000
0100
0002
,
0000
0013
0100
2000
0001
0001
0001
0001
,
0002
0000
0000
0000
0000
0000
0000
0000
0000
0000
0000
3003
1010
0000
1000
0000
,
0001
0000
0200
0000
0000
0000
0010
0000
0310
0000
1000
0001
0000
0000
0001
0100
,
0000
0010
2000
0000
0000
0000
3001
0000
1000
0000
0020
0000
0100
0000
0000
0000
,
0130
0000
0000
0001
1000
0001
0000
0100
0000
0001
0000
2000
0000
0000
0000
0000
,
3010
0000
0000
0000
1000
0000
1000
0001
0010
0100
0010
0100
2000
0000
0000
0000
,
3010
0000
0000
0000
0100
0001
0000
0011
0000
0100
2000
0000
0001
0000
0000
0000
,
3001
0100
0001
0000
1000
0000
0000
0000
0001
0100
0010
1000
0001
0000
0000
1000
,
0000
0100
0000
0020
0000
0000
0000
0000
0000
0000
0002
0000
0000
0000
0000
0000
,
0000
0000
0033
2000
,
3100
0000
0000
0000
0020
0000
0000
0000
0230
0000
1300
0000
0002
0003
0100
0001
,
0010
0000
1000
0000
0010
0000
0200
0000
1300
0002
0000
0003
0200
0000
1300
0000
,
0200
0301
0020
0000
1030
0020
0000
0030
,
0001
0000
2000
0000
0000
0000
3001
1000
0020
0030
0200
0300
0002
0000
0000
0000
,
0103
0000
0000
0000
0020
0000
0000
0000
0230
0000
0301
0000
2000
3000
0100
1000
,
0010
0000
0001
0000
0010
0000
0200
0000
0301
2000
0000
3000
0200
0000
0301
0000
,
0200
1300
0020
0000
0031
0020
0000
0030
,
1000
0000
0002
0000
0000
0000
0103
0001
1000
0010
1000
0001
0100
0000
0000
0000
,
0001
1001
1000
1010
,
0010
1000
0100
0000
1000
0000
1100
0000
,
0100
0000
0110
0000
0010
0001
0100
0000
,
0001
1000
0100
0000
0110
0000
1001
0000
,
1000
0000
1100
0000
0100
0100
0010
0000
,
0001
0001
1000
0000
1010
0000
0101
0000
,
0001
0000
0011
0000
0100
1000
0010
0000
,
1000
0010
0100
0000
0101
0000
2001
0000
,
0000
0100
0000
3002
,
0000
0000
0100
0000
0003
0000
0100
0000
0010
0000
1000
0002
0100
0000
0000
0000
,
0000
0000
0000
0000
0013
0000
0001
0000
0100
0000
0001
2000
0000
0000
0000
0000
,
0000
3002
0100
0000
0000
0023
0230
0000
,
0000
0000
1300
0100
0000
0010
0000
0100
0000
1000
0000
0002
0000
0000
0103
0000
,
0001
2000
0000
3100
0010
0002
1000
0000
,
0000
0000
0100
0000
0000
0010
0000
0000
,
0000
1000
0000
0000
2000
0000
3003
0000
;
