#TITLE:Master of Puppets (205 BPM Edit);
#SUBTITLE:[3.9 port];
#ARTIST:Metallica;
#TITLETRANSLIT:;
#SUBTITLETRANSLIT:;
#ARTISTTRANSLIT:;
#GENRE:Metal;
#CREDIT:;
#BANNER:Master of Puppets (205 BPM Edit).png;
#BACKGROUND:Master of Puppets (205 BPM Edit)-bg.png;
#LYRICSPATH:;
#CDTITLE:cdtitle.png;
#MUSIC:Master of Puppets (205 BPM Edit).ogg;
#OFFSET:1.164;
#SAMPLESTART:79.869;
#SAMPLELENGTH:13.463;
#SELECTABLE:YES;
#DISPLAYBPM:205.000;
#BPMS:0.000=205.000,105.000=164.000,105.500=205.000,119.500=164.000,120.000=205.000,134.000=164.000,134.500=205.000,148.500=164.000,149.000=205.000,163.000=164.000,163.500=205.000,177.500=164.000,178.000=205.000,192.000=164.000,192.500=205.000,206.500=164.000,207.000=205.000,365.000=164.000,365.500=205.000,379.500=164.000,380.000=205.000,394.000=164.000,394.500=205.000,408.500=164.000,409.000=205.000,414.500=51.250;
#STOPS:277.000=0.585
,279.000=0.585
,331.000=0.585
,333.000=0.585
,349.000=0.585
,351.000=0.585
,409.500=1.061
;
#BGCHANGES:;
#KEYSOUNDS:;

//---------------dance-double - Haley Halcyon----------------
#NOTES:
     dance-double:
     Haley Halcyon:
     Challenge:
     16:
     0.832,0.835,0.499,0.492,0.113:
00000000
00000000
00000000
00000000
,
00000000
00000000
00000000
00000000
,
00011000
00001100
00000202
00000000
,
00000000
00000000
00000000
00000303
,
00001001
00000000
00001000
00000100
00000000
00010000
00000100
00000000
,
00011000
00110000
20200000
30300000
,
10000000
00000000
00100000
10000000
00000000
00010000
10000000
00000000
,
01000000
00100000
00010000
00100000
01000000
00000000
01100000
00000000
,
10010000
00000000
00010000
01000000
00000000
00001000
01000000
00000000
,
00011000
00001010
00000022
00000033
,
00000001
00000010
00000001
00000010
00000100
00001000
00000100
00001000
,
00000010
00001000
00000010
00001000
00000010
00000000
00001000
00000000
00000100
00000000
00000010
00000000
00000100
00000000
00010000
00000000
,
00001000
00010000
00100000
00001000
00010000
01000000
00001000
00010000
,
00100000
00001000
00010000
01000000
00001000
00010000
00200000
00000000
,
10300000
01000000
00010000
10000000
00100000
00010000
10000000
01000000
,
00010000
10000000
00100000
00010000
01000000
00100000
20000000
00000000
,
30010000
01000000
00100000
00010000
00001000
00100000
00010000
01000000
,
00100000
00010000
00100000
01000000
00010000
00100000
00002000
00000000
,
00013000
00001000
00000010
00010000
00001000
00000100
00010000
00001000
,
00000010
00001000
00010000
00100000
00010000
00001000
00000010
00000000
,
00000010
00001000
00010000
00100000
00010000
00001000
00000010
00000000
,
00000110
00000000
00000000
00000000
,
00000000
00000000
00000000
00000000
,
00000001
00001000
00000100
00010000
00000001
00001000
00000100
00010000
,
00000001
00000100
00000010
00000100
00001000
00010000
00000100
00001000
,
00000001
00001000
00000100
00010000
00000001
00001000
00000100
00010000
,
00000001
00000000
00000100
00000000
00000010
0000M00M
00000100
00000000
00000010
00000000
00010000
00000000
00000100
00000000
01000000
00000000
,
00001000
00010000
00000100
01000000
00001000
00010000
00000100
00001000
,
00000100
00000001
00000100
00010000
00001000
01000000
00010000
00100000
,
00001000
00000000
01000000
00000000
00010000
00000000
00100000
00000000
00001000
00000000
01000000
00000000
00001000
00000000
00100000
0M000M00
,
00001000
00100000
00110000
00000000
00010000
01000000
00000000
10100000
,
00000000
01010000
00000000
01000000
00100000
01000000
10000000
00010000
,
00100000
01000000
01010000
00000000
00010000
00100000
00000000
00101000
,
00000000
00000000
00011000
00000000
00000000
00000000
00010000
00000000
00000100
00M000M0
00010000
00000000
00000100
00000000
00020000
00000000
,
00000000
00001000
00000000
00030200
00000000
00000310
00001000
00000010
,
00000001
00000010
00001000
00000010
00000001
00000100
00001000
00000100
,
00000020
00001000
00000000
00010030
00001000
00010000
00001000
00010000
,
01000000
00000000
00100000
M00M0000
01000000
00000000
00100000
00000000
00110000
00000000
00000000
00000000
00010000
00000000
01000000
00000000
,
00000000
00011000
00000000
01010000
00000000
00001000
00010000
01000000
,
00100000
00010000
01000000
00001000
00010000
00000100
00000000
00001001
,
00000000
00000000
00001010
00000000
00000000
00000000
00000101
00000000
00000000
00000000
00000100
00000000
00000010
0000M00M
00000100
00000000
,
00000010
00000002
00000000
00000013
00000000
00000020
00000000
00001030
,
00010000
00001000
00000010
00010000
00000100
00010000
00001000
00010000
,
00100000
10000000
00020000
01030000
00000000
00001000
00010000
00001000
,
00010000
00000000
00001000
00000000
00000010
00000000
00000100
0000M00M
00000010
00000000
00000100
00000000
00010000
00000000
00000000
00000000
,
00000100
00001000
00000000
00010010
00000000
00101000
00000000
00010000
,
01000000
00000000
00001000
00100000
01000000
10000000
00010000
10000000
,
00000000
01001000
00000000
00010100
00000000
00001001
00000000
00010000
,
00000010
0000MM00
00010000
00000000
00000010
00000000
00000100
00000000
00001000
00000000
00000000
00000000
00002100
00000000
00000000
00000000
,
00010000
00000000
00003010
00000000
00001000
00010000
00001000
00000010
,
00000100
00010000
00001000
00010000
01000000
00000000
01020000
00000000
,
00001000
00000000
00000000
00000000
00130000
00000000
00000000
00000000
00100000
00000000
00010000
0M00M000
00100000
00000000
00010000
00000000
,
00001000
00010000
00001000
00010000
00001000
00010000
00001000
00010000
,
00000010
00010000
00000100
00000100
00002000
00000000
00003020
00000000
,
00010030
00001000
00000010
00000100
00020000
00000000
00000000
00030000
,
00001000
00010000
00001000
00001000
02000000
00000000
03200000
00000000
,
00310000
00001000
00100000
01000000
00020000
00000000
00032000
00000000
,
00103000
00001000
01000000
01000000
00020000
00000000
00230000
00000000
,
00301000
00010000
00100000
01000000
00002000
00000000
00000000
00003000
,
00010000
00001000
00010000
00010000
00000200
00000000
00000320
00000000
,
00001030
00010000
00000010
00000100
00002000
00000000
00023000
00000000
,
00031000
00000010
00000100
00000100
00000020
00000000
00000032
00000000
,
00000103
00001000
00010000
01000000
00200000
00000000
00300000
00000000
,
00010000
01000000
00100000
00100000
20000000
00000000
32000000
00000000
,
03010000
00001000
00000100
00000001
00000020
00000000
00002030
00000000
,
00013000
00100000
01000000
01000000
00200000
00000000
20300000
00000000
,
31000000
00010000
00001000
00000100
00000020
00000000
00000030
00000000
,
00001000
00000100
00000010
00000010
00000002
00000000
00000203
00000000
,
00001300
00001000
00001000
00000000
00010000
00010000
00010000
00000000
,
00100100
00000000
00000000
00000000
00000000
00000000
00000000
00000000
00200200
00300300
00000000
00000000
00000000
00000000
00000000
00000000
01000010
00000000
00000000
00000000
00000000
00000000
00000000
00000000
02000020
03000030
00000000
00000000
00000000
00000000
00000000
00000000
,
00100100
00000000
00000000
00000000
00000000
00000000
00001000
00000000
00000000
00010000
00000000
00000000
01000000
00000000
00000000
00000000
10000000
00000000
00000000
00000000
00100000
00000000
00000000
00000000
,
00001000
00000000
00000000
00000000
00010000
00000000
00000000
00000000
01000000
00000000
00000000
00000000
00002000
00000000
00000000
00000000
00000000
00000000
00013000
00000000
00000000
00000010
00000000
00000000
,
00000000
00000010
00001000
00000000
00000100
00000010
00010000
00000000
,
01000000
00000000
00000000
01000000
00000000
00000000
00010000
00000000
00000000
00000000
00000000
00000000
10100000
00000000
00000000
00000000
00100000
00000000
00000000
00000000
00010000
00000000
00000000
00000000
,
02000000
00000000
00000000
00000000
03010000
00000000
00100000
00000000
10000000
00000000
01000000
00000000
,
01020000
00000000
00031000
00010000
00000000
00010000
00001000
00000000
,
00100000
01000000
00001000
00010000
00000010
00001000
00010000
00000010
,
00001010
00000000
00000000
00000000
00000001
00000000
00000000
00000000
00000010
00000000
00000000
00000000
00002000
00000000
00000000
00000000
00000000
00000000
00003001
00000000
00000000
00000100
00000000
00000000
,
00000000
00010000
00001000
00000000
00201000
00000000
01300000
10000000
,
00000000
00000000
00000000
10000000
00000000
00000000
00100000
00000000
00000000
00000000
00000000
00000000
00110000
00000000
00000000
00000000
00001000
00000000
00000000
00000000
01000000
00000000
00000000
00000000
,
00100000
00000000
00010000
00001000
00000010
00000100
00001000
00000000
,
00010020
00000000
00000130
00000001
00000000
00000001
00001000
00000000
,
00000010
00000000
00000000
00000000
00010000
00000000
00000000
00000000
00001000
00000000
00000000
00000000
00000000
00000000
00000000
00000000
00100100
00000000
00000000
00000000
00000000
00000000
00000000
00000000
00200200
00300300
00000000
00000000
00000000
00000000
00000000
00000000
,
01000010
00000000
00000000
00000000
00000000
00000000
00000000
00000000
00000000
00000000
00000000
00000000
00000000
00000000
00000000
00000000
00000000
00000000
00000000
00000000
00000000
00000000
00000000
00000000
00000000
00000000
00000000
00000000
00000000
00000000
00000000
00000000
00000000
00000000
00000000
00000000
00000000
00000000
00000000
00000000
00000000
00000000
00000000
00000000
00000000
00000000
00000000
00000000
02000020
00000000
00000000
00000000
00000000
00000000
03000030
00000000
00000000
00000000
00000000
00000000
00000000
00000000
00000000
00000000
00000000
00000000
00000000
00000000
00000000
00000000
00000000
00000000
00000000
00000000
00000000
00000000
00000000
00000000
00000000
00000000
00000000
00000000
00000000
00000000
00000000
00000000
00000000
00000000
00000000
00000000
00000000
00000000
00000000
00000000
00000000
00000000
00011000
00000000
00000000
00000000
00000000
00000000
00000000
00000000
00000000
00000000
00000000
00000000
00000000
00000000
00000000
00000000
00000000
00000000
00000000
00000000
00000000
00000000
00000000
00000000
00000000
00000000
00000000
00000000
00000000
00000000
00000000
00000000
00001000
00000000
00000000
00000000
00000000
00000000
00000000
00000000
00000000
00000000
00000000
00000000
00000000
00000000
00000000
00000000
00000000
00000000
00000000
00000000
00000000
00000000
00000000
00000000
00000000
00000000
00000000
00000000
00000000
00000000
00000000
00000000
00000010
00000000
00000000
00000000
00000000
00000000
00000000
00000000
00000000
00000000
00000000
00000000
00000000
00000000
00000000
00000000
00000000
00000000
00000000
00000000
00000000
00000000
00000000
00000000
00000000
00000000
00000000
00000000
00000000
00000000
00000000
00000000
,
00000001
00000100
00001000
00000001
00000010
00010000
00001000
00000000
,
12000000
00000000
03100000
00010000
00000000
00010000
10000000
00000000
,
01000000
00000000
00010000
00000000
00001000
00000000
00000010
00000000
00000100
00000000
00010000
00000100
00010000
00000000
00001000
00000000
,
01000010
00000000
00000000
00000000
00000000
00000000
00000000
00000000
02000020
03000030
00000000
00000000
00000000
00000000
00000000
00000000
00100100
00000000
00000000
00000000
00000000
00000000
00000000
00000000
00200200
00300300
00000000
00000000
00000000
00000000
00000000
00000000
,
00011000
00001000
01000000
01000000
00010000
00010000
10000000
10000000
,
01000000
00100000
00010000
01000000
10000000
00010000
00100000
10000000
,
10010000
00010000
01000000
01000000
00100000
00100000
00010000
00010000
,
00001000
00000000
01000000
00000000
00000100
00M0M000
01000000
00000000
00000100
00000000
00011000
00000000
00010000
00000000
00000100
00000000
,
00000100
00001000
00001000
00000001
00000001
00000100
00000010
00001000
,
00000100
00000001
00001000
00000010
00000001
00001001
00001000
00000100
,
00000100
00000000
00000010
00000000
00000010
00000000
00001000
00000000
00001000
00000000
00010000
00000000
00000100
00000000
01000000
00M0M000
,
00000100
01000000
00011000
00000100
00001000
00000100
00000011
00000001
,
00000100
00000001
00001000
00000100
00000001
00000100
00010000
00000010
,
00010000
00001000
00011000
01000000
00001000
01000000
01010000
00010000
,
10000000
00000000
00010000
00000000
10000000
00000000
01000000
00000000
00010000
M000M000
01000000
00000000
00010000
00000000
00011000
00000000
,
01000000
00010000
01000000
10100000
10000000
01000000
10000000
00010000
,
01000000
10000000
01000000
00001000
00100000
00001000
00010000
00011000
,
00000100
00010000
00000100
00001100
00001000
00000001
00001000
00000001
,
00000100
00000000
00000000
00000000
00001000
00000000
000M00M0
00000000
00000100
00000000
00000000
00000000
00002000
00003000
00000000
00000000
00000000
00000000
00000000
00000000
00100000
00000000
00000000
00000000
00010000
00000000
00000000
00000000
01000000
00000000
00000000
00000000
,
00000010
00001000
00000100
00100000
00010000
02000020
00000000
00000000
,
00000000
00000000
00000000
00000000
,
00000000
03000030
00000000
00000000
00000000
00000000
00000000
00000000
;
