#VERSION:0.83;
#TITLE:Like a G6;
#SUBTITLE:;
#ARTIST:Far East Movement ft. Cataracs and Dev;
#TITLETRANSLIT:;
#SUBTITLETRANSLIT:;
#ARTISTTRANSLIT:;
#GENRE:Hip House;
#CREDIT:Haley Halcyon;
#MUSIC:Like a G6.ogg;
#BANNER:Like a G6.png;
#BACKGROUND:Like a G6-bg.png;
#CDTITLE:cdtitle.png;
#SAMPLESTART:75.860;
#SAMPLELENGTH:15.360;
#SELECTABLE:YES;
#OFFSET:-1.900;
#BPMS:0.000=62.500
,7.000=187.500
,8.500=62.500
,9.000=125.000
,23.750=625.000
,23.958=25.000
,24.000=625.000
,24.208=25.000
,24.250=625.000
,24.458=25.000
,24.500=625.000
,24.708=25.000
,24.750=625.000
,24.958=25.000
,25.000=125.000
,39.750=625.000
,39.958=25.000
,40.000=625.000
,40.208=25.000
,40.250=625.000
,40.458=25.000
,40.500=625.000
,40.708=25.000
,40.750=625.000
,40.958=25.000
,41.000=125.000
,55.500=625.000
,55.708=25.000
,55.750=625.000
,55.958=25.000
,56.000=125.000
,56.250=625.000
,56.458=25.000
,56.500=625.000
,56.708=25.000
,56.750=125.000
,87.750=625.000
,87.958=25.000
,88.000=625.000
,88.208=25.000
,88.250=625.000
,88.458=25.000
,88.500=625.000
,88.708=25.000
,88.750=625.000
,88.958=25.000
,89.000=125.000
,103.000=875.000
,103.438=17.857
,103.500=875.000
,103.938=17.857
,104.000=875.000
,104.438=17.857
,104.500=125.000
,135.000=187.500
,136.500=62.500
,137.000=125.000
,151.750=625.000
,151.958=25.000
,152.000=625.000
,152.208=25.000
,152.250=625.000
,152.458=25.000
,152.500=625.000
,152.708=25.000
,152.750=625.000
,152.958=25.000
,153.000=125.000
,167.750=625.000
,167.958=25.000
,168.000=625.000
,168.208=25.000
,168.250=625.000
,168.458=25.000
,168.500=625.000
,168.708=25.000
,168.750=625.000
,168.958=25.000
,169.000=62.500
,184.000=125.000
,216.000=187.500
,217.500=62.500
,218.000=125.000
,232.750=625.000
,232.958=25.000
,233.000=625.000
,233.208=25.000
,233.250=625.000
,233.458=25.000
,233.500=625.000
,233.708=25.000
,233.750=625.000
,233.958=25.000
,234.000=125.000
;
#STOPS:;
#DISPLAYBPM:62.500:125.000;
#BGCHANGES:;
#FGCHANGES:;

//--------------- dance-single - Haley Halcyon ----------------
#NOTEDATA:;
#STEPSTYPE:dance-single;
#DESCRIPTION:Haley Halcyon;
#DIFFICULTY:Medium;
#METER:12;
#RADARVALUES:0.565476,0.741071,0.736607,0.342262,0.31994,532,433,99,46,8,0,0.565476,0.741071,0.736607,0.342262,0.31994,532,433,99,46,8,0;
#NOTES:
1100
0000
0000
1100
0000
0000
1100
0000
0000
0000
0001
0000
0000
0100
0000
0000
0110
0000
0000
0110
0000
0000
0110
0000
0000
0000
0010
0000
1000
0000
0000
0000
,
0101
0000
0000
0101
0000
0000
0101
0000
0000
0000
1000
0000
0000
0100
0000
0000
0110
0000
0000
0110
0000
0000
0110
0000
MMMM
0000
0000
0000
0000
0000
0000
0000
,
0000
0000
0000
0000
1100
0000
0000
1100
0000
0000
1100
0000
0000
0000
0011
0000
,
0000
0101
0000
0000
0110
0000
0000
0110
0000
0000
0110
0000
0000
0000
0010
0000
,
1000
0000
0000
0000
0101
0000
0000
0101
0000
0000
0101
0000
0000
0000
1010
0000
,
0000
1100
0000
0000
0110
0000
0000
0000
2000
0000
3200
0000
0302
0000
0003
0000
,
0201
0000
0300
0000
1000
0100
1000
0000
0100
0000
0010
0000
0001
0100
0001
0000
,
0010
0000
0100
0000
1000
0010
0100
0000
0010
0000
1000
0000
0001
0010
0100
0000
,
1000
0000
0100
0010
0000
0100
0010
0000
0001
0000
1000
0000
0010
0000
0100
0000
,
2000
0000
3200
0000
0302
0023
2030
3000
,
1020
0000
0000
0000
0000
0030
0000
0000
0001
0000
0010
0000
0001
0000
0000
0000
1000
0000
0000
0000
1000
0000
0000
0000
1100
0000
0000
0000
0000
0000
1100
0000
,
0000
0000
0000
0000
1000
0010
0100
0000
0001
0000
0001
0000
0011
0000
0000
0022
,
0000
0000
0033
0000
MMMM
0000
0001
0010
0001
0000
1000
0000
0020
0000
0000
0000
,
0031
0000
0010
0000
1000
0000
1000
0100
0000
0100
0020
0000
0000
0000
0031
1000
,
0000
0001
1000
0000
1001
0000
0001
0100
0000
0100
0010
0000
1000
0000
0100
0000
,
0001
0100
0010
0001
0100
2000
3000
1100
,
0000
1000
0100
0001
1000
0001
0010
0100
,
1000
0001
0100
0010
0100
0000
0202
0000
,
0303
0000
2002
0000
3003
0220
0000
0330
,
0001
0100
1000
0000
1001
0000
1000
0100
,
0001
1000
0100
0001
0100
0010
0001
1000
,
0010
0100
1000
0100
0001
1000
0200
0300
,
0110
0001
1000
0001
0100
0010
0002
0000
,
0013
0000
1000
0010
1000
0000
0100
0000
0010
0000
1000
0000
0002
0000
0103
0000
,
0000
0100
1000
0010
1000
0100
0010
1000
,
0001
0100
1000
0001
0100
0010
1010
1010
,
1010
0010
1000
0000
1100
1000
0000
1000
,
0001
0100
0000
0000
0001
0000
0000
0000
0101
0000
0001
0000
0000
0000
0001
0000
,
1001
0000
1000
0000
1010
1000
0000
1000
,
0001
0010
0000
0000
0001
0000
0000
0000
0011
0000
0001
0000
0000
0000
0001
0000
,
1000
0100
1000
0000
1000
0000
0000
0000
1001
0000
1000
0000
0000
0000
0001
0000
,
0100
0010
0000
0000
0100
0000
0000
0000
0110
0000
0100
0000
0000
0000
0100
0000
,
1001
0000
0001
0000
1001
0001
0000
0001
,
0010
0100
0000
0000
0020
0000
0000
0000
0032
0000
1003
0000
1010
0000
0000
0000
,
0000
0000
0000
0000
0101
0000
0000
0101
0000
0000
0101
0000
0000
0000
1010
0000
,
0000
1100
0000
0000
0110
0000
0000
0110
0000
0000
0110
0000
0000
0000
0010
0000
,
0001
0000
0000
0000
1100
0000
0000
1100
0000
0000
1100
0000
0000
0000
0011
0000
,
0000
0101
0000
0000
0110
0000
0000
0000
0002
0000
0203
0000
2300
0000
3000
0000
,
1200
0000
0300
0000
0001
0100
0001
0000
0100
0000
0010
0000
1000
0100
1000
0000
,
0010
0000
0100
0000
0001
0010
0100
0000
0010
0000
0001
0000
1000
0010
0100
0000
,
0001
0000
0100
0010
0000
0100
0010
0000
1000
0000
0001
0000
0010
0000
0100
0000
,
0002
0000
0203
0000
2300
3020
0032
0013
,
1000
0000
0100
0000
1000
0100
1000
0000
0001
0000
0100
0001
0010
0100
1000
0000
,
1010
0000
0001
1000
0010
0100
0001
0000
0011
1000
1000
0001
0010
0100
1000
0000
,
1010
1000
0010
1000
0001
0100
0001
0000
1010
0000
1000
0100
0010
0001
0100
0000
,
1010
0000
1000
0100
0010
0100
1000
0000
0110
0001
0001
1000
0001
1000
0100
0000
,
0110
0000
0100
1000
0001
0000
0101
0001
,
0000
0000
0001
0000
1000
0100
0000
0000
1000
0000
0000
0000
1100
0000
1000
0000
,
0000
1000
1001
0000
0001
0000
0011
0001
,
0000
0000
0001
0000
1000
0010
0000
0000
1000
0000
0000
0000
1010
0000
1000
0000
,
0000
0000
1000
0000
0001
0100
0001
0000
0001
0000
0000
0000
1001
0000
0001
0000
,
0000
0000
1000
0000
0100
0010
0000
0000
0100
0000
0000
0000
0110
0000
0100
0000
,
0000
0100
1001
0000
1000
0000
1001
1000
,
0000
0000
1000
0000
0010
0100
0000
0000
0020
0000
0000
0000
2030
0000
3001
0000
,
0011
0000
0000
0000
0000
0000
0000
0000
1100
0000
0000
1100
0000
0000
1100
0000
,
0000
0000
0011
0000
0000
0101
0000
0000
0110
0000
0000
0110
0000
0000
0110
0000
,
0000
0000
0010
0000
1000
0000
0000
0000
0101
0000
0000
0101
0000
0000
0101
0000
,
0000
0000
1010
0000
0000
1100
0000
0000
0110
0000
0000
0000
2000
0000
3200
0000
,
0302
0000
0000
0000
0203
0000
0000
0000
1300
0100
1000
0000
0100
0000
0010
0000
,
0001
0100
0001
0000
0010
0000
0100
0000
1000
0010
0100
0000
0010
0000
1000
0000
,
0001
0010
0100
0000
1000
0000
0100
0010
0000
0100
0010
0000
0001
0000
1000
0000
,
0010
0100
2000
0000
3200
0000
0302
0023
,
2030
3000
1001
0000
0000
0000
0000
0000
;

//--------------- dance-single - Haley Halcyon ----------------
#NOTEDATA:;
#STEPSTYPE:dance-single;
#DESCRIPTION:Haley Halcyon;
#DIFFICULTY:Hard;
#METER:15;
#RADARVALUES:0.651573,0.949498,1.205357,0.46875,0.453869,613,451,162,63,120,0,0.651573,0.949498,1.205357,0.46875,0.453869,613,451,162,63,120,0;
#NOTES:
1100
0000
0000
1100
0000
0000
1100
0000
0000
0000
0011
0000
0000
0101
0000
0000
0110
0000
0000
0110
0000
0000
0110
0000
0000
0000
0110
0000
1010
0000
0000
0000
,
0101
0000
0000
0101
0000
0000
0101
0000
0000
0000
0011
0000
0000
1100
0000
0000
0110
0000
0000
0110
0000
0000
0110
0000
MMMM
0000
0000
0000
0000
0000
0000
0000
,
0000
0000
0000
0000
0101
0000
0000
0101
MMMM
0000
0101
0000
0000
0000
1010
0000
,
MMMM
1100
0000
0000
0110
0000
0000
0110
MMMM
0000
0110
0000
0000
0000
0110
0000
,
0011
0000
0001
0010
0000
0001
0010
0000
1100
0000
0100
0000
0001
0000
0100
0000
,
1100
0000
0000
0000
1010
0000
0000
0000
0011
0000
0010
0000
1010
0000
0001
0100
,
0010
1000
0010
0100
0001
0100
0002
0000
1003
0100
2000
0000
3010
0100
0020
0000
,
1030
0100
0020
0000
0031
0100
0020
0000
0031
0010
0200
0000
0301
0010
0200
0000
,
1300
0000
0100
1000
0000
0100
1000
0000
0011
0000
0010
0000
1000
0000
0010
0000
,
0011
0000
0000
0000
0101
0000
0000
0000
0010
0000
1000
0000
0200
0000
0310
0001
,
0100
1000
0001
0010
1000
0100
1000
0000
1100
0000
1100
0000
0011
0000
0000
0011
,
0000
0000
0000
0000
0010
0001
0100
0000
0101
0000
0101
0000
1010
0000
0000
2020
,
0000
0000
3030
0000
MMMM
0000
1000
0100
0010
0000
0100
0000
0002
0000
0000
0000
,
1003
0000
0010
0000
0100
0000
0100
0010
0000
0010
0002
0000
0000
0000
1003
0001
,
0000
1000
0001
0000
1001
0000
1000
0010
0000
0010
0100
0000
1000
0000
0001
0000
,
0010
0100
0001
1000
0100
0002
0003
0101
,
0000
0101
0001
0100
0010
0001
0100
0010
,
0001
1000
0100
0001
1000
0000
1001
1001
,
1001
0000
2200
0000
3000
0002
0000
0003
,
1300
1000
0020
0030
0110
0000
0001
0001
,
0021
0000
0130
0001
1000
0010
0100
1000
,
0001
0000
0100
0000
1000
0000
0100
0000
0001
0000
0100
0000
0020
0000
1030
0100
,
0010
0001
0010
0100
1000
0000
0001
0000
0100
0000
0010
0000
0002
0000
0000
0000
,
0013
0000
0100
0001
0100
0000
0010
0000
1000
0000
0100
0000
0002
0000
0103
0001
,
0000
0101
0100
0001
1000
0010
0100
1000
,
0001
0100
1000
0100
0001
0100
0110
0110
,
0110
0100
1001
0000
MMMM
1001
0000
0011
,
MMMM
1010
0000
0000
0110
0000
0000
0000
MMMM
0000
0110
0000
0000
0000
0110
0000
,
0101
0000
1001
0000
MMMM
1001
0000
1010
,
MMMM
0011
0000
0000
0110
0000
0000
0000
MMMM
0000
0110
0000
0000
0000
0110
0000
,
1000
0100
1000
0000
1100
0000
0000
0000
MMMM
0000
1100
0000
0000
0000
0011
0000
,
MMMM
0101
0000
0000
1010
0000
0000
0000
MMMM
0000
1010
0000
0000
0000
1010
0000
,
1001
0000
0101
0000
MMMM
0101
0000
1010
,
MMMM
1100
0000
0000
0022
0000
0000
0000
0000
0000
0000
0033
MMMM
0000
0000
0000
,
0000
0000
0000
0000
1100
0000
0000
1100
MMMM
0000
1100
0000
0000
0000
0011
0000
,
MMMM
0101
0000
0000
0110
0000
0000
0110
MMMM
0000
0110
0000
0000
0000
0110
0000
,
1010
0000
1000
0010
0000
1000
0010
0000
0101
0000
0100
0000
1000
0000
0100
0000
,
0101
0000
0000
0000
0011
0000
0000
0000
1010
0000
0010
0000
0011
0000
1000
0100
,
0010
0001
0010
0100
1000
0100
2000
0000
3001
0100
0002
0000
0013
0100
0020
0000
,
0031
0100
0020
0000
1030
0100
0020
0000
1030
0010
0200
0000
1300
0010
0200
0000
,
0301
0000
0100
0001
0000
0100
0001
0000
1010
0000
0010
0000
0001
0000
0010
0000
,
1010
0000
0000
0000
1100
0000
0000
0000
0010
0000
0001
0000
0200
0000
0310
1000
,
0100
0000
0001
0000
1000
0000
0010
0000
0002
0000
0003
0002
0000
0003
0002
0000
0003
0000
0020
0000
0030
0200
0000
0300
0002
0000
0003
0002
0000
0003
0002
0000
,
0003
0000
0002
0000
0203
0000
0300
0000
2000
0000
3000
2000
0000
3000
2000
0000
3000
0000
0020
0000
0030
0200
0000
0300
2000
0000
3000
2000
0000
3000
2000
0000
,
3000
0000
0100
0000
0001
0000
1000
0000
1100
0000
0100
0000
0010
0000
0011
0000
0002
0000
0103
0000
0010
0100
0010
0000
1010
0000
1000
0000
1200
0000
0000
0300
,
0110
0000
0000
0000
0011
0000
1000
0000
0011
0000
0001
0000
0200
0000
0000
0300
0110
0000
1010
0000
1010
0000
0001
0000
1010
0000
1000
0000
0200
0000
0000
0300
,
0110
0000
0000
MMMM
1001
0000
MMMM
1001
,
0000
0000
1010
0000
MMMM
0011
0000
0000
0110
0000
0000
0000
MMMM
0000
0110
0000
,
0000
0110
1100
0000
1001
0000
MMMM
1001
,
0000
0000
0011
0000
MMMM
1010
0000
0000
0110
0000
0000
0000
MMMM
0000
0110
0000
,
0000
0000
0110
0000
0001
0100
0001
0000
0101
0000
0000
0000
MMMM
0000
0101
0000
,
0000
0000
1010
0000
MMMM
1100
0000
0000
0011
0000
0000
0000
MMMM
0000
0011
0000
,
0000
0011
1001
0000
1100
0000
MMMM
1100
,
0000
0000
0011
0000
MMMM
0101
0000
0000
2020
0000
0000
0000
0000
0000
0000
3030
,
MMMM
0000
0000
0000
0000
0000
0000
0000
0101
0000
0000
0101
MMMM
0000
0101
0000
,
0000
0000
1010
0000
MMMM
1100
0000
0000
0110
0000
0000
0110
MMMM
0000
0110
0000
,
0000
0000
0110
0000
0011
0000
0001
0010
0000
0001
0010
0000
1100
0000
0100
0000
,
0001
0100
1100
0000
1010
0000
0011
0010
,
1010
0000
0001
0100
0010
1000
0010
0100
0001
0100
2000
0000
3001
0010
2000
0000
,
3100
0010
2000
0000
3001
0100
0020
0000
0031
0100
0020
0000
1030
0100
0002
0000
,
1003
0010
0200
0000
1300
0000
0100
1000
0000
0100
1000
0000
1010
0000
0010
0000
,
0001
0010
1010
0000
1100
0000
0010
0001
,
0200
0000
0000
0300
0110
0000
0000
0000
0000
0000
0000
0000
0000
0000
0000
0000
;
