#TITLE:Language;
#SUBTITLE:;
#ARTIST:Porter Robinson;
#TITLETRANSLIT:;
#SUBTITLETRANSLIT:;
#ARTISTTRANSLIT:;
#GENRE:Electro House;
#CREDIT:;
#MUSIC:Language [HaleyHalcyon].ogg;
#BANNER:Language [HaleyHalcyon].png;
#BACKGROUND:Language [HaleyHalcyon]-bg.png;
#CDTITLE:;
#SAMPLESTART:37.507;
#SAMPLELENGTH:15.000;
#SELECTABLE:YES;
#OFFSET:-0.007;
#BPMS:0.000=128.000
,80.000=64.000
,80.125=192.000
,80.875=64.000
,81.125=192.000
,81.875=64.000
,82.125=192.000
,82.875=64.000
,83.125=192.000
,83.875=64.000
,84.125=192.000
,84.875=64.000
,85.125=192.000
,85.875=64.000
,86.125=192.000
,86.875=64.000
,87.125=192.000
,87.875=64.000
,88.125=192.000
,88.875=64.000
,89.125=192.000
,89.875=64.000
,90.125=192.000
,90.875=64.000
,91.125=192.000
,91.875=64.000
,92.125=192.000
,92.875=64.000
,93.125=192.000
,93.875=64.000
,94.125=192.000
,94.875=64.000
,95.125=192.000
,95.875=64.000
,96.125=192.000
,96.875=64.000
,97.125=192.000
,97.875=64.000
,98.125=192.000
,98.875=64.000
,99.125=192.000
,99.875=64.000
,100.125=192.000
,100.875=64.000
,101.125=192.000
,101.875=64.000
,102.125=192.000
,102.875=64.000
,103.125=192.000
,103.875=64.000
,104.125=192.000
,104.875=64.000
,105.000=256.000
,106.000=64.000
,106.125=192.000
,106.875=64.000
,107.000=256.000
,108.000=64.000
,108.125=192.000
,108.875=64.000
,109.000=256.000
,110.000=64.000
,110.125=192.000
,110.875=64.000
,111.000=128.000
,208.000=64.000
,208.125=192.000
,208.875=64.000
,209.125=192.000
,209.875=64.000
,210.125=192.000
,210.875=64.000
,211.125=192.000
,211.875=64.000
,212.125=192.000
,212.875=64.000
,213.125=192.000
,213.875=64.000
,214.125=192.000
,214.875=64.000
,215.125=192.000
,215.875=64.000
,216.125=192.000
,216.875=64.000
,217.125=192.000
,217.875=64.000
,218.125=192.000
,218.875=64.000
,219.125=192.000
,219.875=64.000
,220.125=192.000
,220.875=64.000
,221.125=192.000
,221.875=64.000
,222.125=192.000
,222.875=64.000
,223.125=192.000
,223.875=64.000
,224.125=192.000
,224.875=64.000
,225.125=192.000
,225.875=64.000
,226.125=192.000
,226.875=64.000
,227.125=192.000
,227.875=64.000
,228.125=192.000
,228.875=64.000
,229.125=192.000
,229.875=64.000
,230.125=192.000
,230.875=64.000
,231.125=192.000
,231.875=64.000
,232.125=192.000
,232.875=64.000
,233.000=256.000
,234.000=64.000
,234.125=192.000
,234.875=64.000
,235.125=192.000
,235.875=64.000
,236.000=256.000
,237.000=64.000
,237.125=192.000
,237.875=64.000
,238.125=192.000
,238.875=64.000
,239.000=128.000
;
#STOPS:105.000=0.117
,105.500=0.117
,107.000=0.117
,107.500=0.117
,109.000=0.117
,109.500=0.117
,233.000=0.059
,233.250=0.059
,233.500=0.059
,233.750=0.059
,236.000=0.059
,236.250=0.059
,236.500=0.059
,236.750=0.059
;
#DISPLAYBPM:64.000:128.000;
#BGCHANGES:0.000=Language [HaleyHalcyon].mp4=1.000=1=0=1===CrossFade==,
99999.000=-nosongbg-=1.000=0=0=0=StretchNoLoop====
;
#FGCHANGES:;

//--------------- dance-single - Haley Halcyon ----------------
#NOTES:
     dance-single:
     Haley Halcyon:
     Easy:
     8:
     0,0,0,0,0:
0000
0000
0000
0000
,
0000
0000
0000
0000
,
0000
0000
0000
0000
,
0000
0000
0000
0000
,
1000
0001
1000
0001
1000
0001
1000
0000
,
0001
1000
0001
1000
0001
1000
0001
0000
,
0010
0100
0010
0100
0010
0000
0001
0000
,
0100
0010
0100
0010
0100
0000
0001
0000
,
1000
0000
0100
1000
0000
0001
1000
0000
,
0010
1000
0000
0001
1000
0100
0010
0000
,
0001
0000
0100
0001
0000
1000
0001
0000
,
0010
0001
0000
1000
0001
0100
0010
0000
,
1000
0000
0100
0010
0000
0100
0001
0000
,
0100
0010
0000
0100
1000
0010
0100
0000
,
0001
0000
0100
0010
0000
0100
1000
0000
,
0100
0010
0000
0100
0001
0010
0100
0000
,
1000
0100
1000
0001
0100
0001
1000
0100
,
1000
0001
0100
0001
1000
0010
0100
0000
,
0001
0010
0001
0010
0100
1000
0100
1000
,
0010
0100
0000
0010
0100
0000
0001
1000
,
0001
0100
0001
0100
0001
0100
0001
0000
,
1000
0100
1000
0100
1000
0100
1000
0000
,
0001
0010
0001
0000
1000
0100
1000
0000
,
0010
0100
0010
0000
1000
0100
1000
0100
,
1000
0001
1000
0001
1000
0001
1000
0000
,
0001
0100
0001
0100
0001
0100
0001
0000
,
0010
0100
0010
0000
0001
0100
0001
0000
,
1000
0100
1000
0000
0100
0010
0100
0000
,
1000
0100
1000
0001
1000
0100
1000
0000
,
0001
0100
0001
1000
0001
0100
0001
0000
,
0010
0100
0010
0000
0001
1000
0001
0000
,
0100
0010
0100
0000
0001
1000
0001
1000
,
0002
0000
0000
2003
0000
0000
0000
0000
,
3000
0000
0000
0010
,
0200
0000
0000
0302
0000
0000
0000
0000
,
0023
0000
0230
2300
0000
0000
0000
3001
,
0000
1000
0000
0000
0000
0000
0000
0000
,
0000
0000
0000
0010
0000
0000
0100
0000
,
0000
0001
0000
0000
0000
0000
0000
0000
,
0000
0000
0000
0000
0000
1000
0001
0010
,
0000
0100
0000
1000
0000
0010
0000
0100
,
0000
0001
0000
0010
0000
0001
0000
0000
,
0000
0000
0000
0000
0000
0000
0000
1000
,
0000
0000
0000
0000
0000
0000
0001
0100
,
0000
0010
0000
0000
0000
0000
0000
0000
,
0000
0000
0000
1000
0000
0000
0100
0000
,
0000
0010
0000
0000
0000
0000
0000
0000
,
0000
0000
0000
0000
0000
0001
0100
0001
,
0000
1000
0000
0100
0000
0010
0000
0001
,
0000
0010
0000
0100
0000
1000
0000
0000
,
0001
0001
0001
0001
,
1000
0100
1000
0100
1000
0100
1000
0001
,
1000
0010
1000
0001
1000
0010
1000
0000
,
0001
0010
0001
1000
0001
0010
0001
0000
,
1000
0100
1000
0000
0010
0100
0010
0000
,
0001
0010
0001
0000
0010
0100
0010
0100
,
0001
0100
0001
1000
0001
0100
0001
0000
,
1000
0100
1000
0001
1000
0100
1000
0000
,
0001
0010
0001
0000
1000
0100
0010
0100
,
1000
0001
1000
0000
0100
0010
0001
1000
,
0001
0100
0001
1000
0001
0100
0001
0000
,
1000
0100
1000
0001
1000
0100
1000
0000
,
0010
0100
0001
0010
0100
1000
0001
0000
,
0010
0100
1000
0010
0100
0001
1000
0000
,
0001
0000
0000
1000
0000
0000
0000
0000
,
0000
0000
0000
0010
,
0100
0000
0000
0001
0000
0000
0000
0000
,
0010
0000
0100
1000
0000
0000
0000
0000
,
0001
0000
0100
0010
1000
0000
0001
0000
,
1000
0000
0100
0010
0001
0000
1000
0000
,
1001
0000
0000
0000
;

//--------------- dance-single - Haley Halcyon ----------------
#NOTES:
     dance-single:
     Haley Halcyon:
     Medium:
     12:
     0.482896,0.688739,0.276093,0.805892,0.123122,453,416,37,108,0,0,0.482896,0.688739,0.276093,0.805892,0.123122,453,416,37,108,0,0:
0000
0000
0000
0000
,
0000
0000
0000
0000
,
0000
0000
0000
0000
,
0000
0000
0000
0000
,
1000
0010
1000
0010
1000
0010
1000
0010
,
1000
0001
1000
0001
1000
0001
1000
0001
,
0010
0001
0010
0001
0010
0100
0010
0100
,
1000
0100
0010
0001
1000
0001
1000
0001
,
2000
3000
0001
0010
0001
0000
0020
0030
0001
1000
0001
0000
2000
3000
0010
0100
,
0010
0000
0200
0300
0001
0010
0001
0000
0020
0030
0001
1000
0001
0000
0000
0000
,
1000
0010
0000
0010
1000
0000
0001
0010
0000
0010
0001
0000
1000
0100
0000
0100
,
1000
0000
0001
0100
0000
0100
0001
0000
1000
0100
0000
0100
0020
0000
0000
0030
,
0001
1000
0001
0100
0010
0100
0001
0010
,
0001
1000
0100
1000
0001
0100
0001
0100
,
0001
1000
0000
1000
0010
0000
1000
0001
0000
0001
0010
0000
0001
1000
0000
1000
,
0100
0000
1000
0001
0000
0001
0100
0000
0010
1000
0000
1000
0200
0000
0320
0000
,
0032
0203
0302
2003
3002
0203
0302
2003
,
3020
0230
0320
2030
3200
0320
0230
2300
,
3002
0023
0032
2003
3002
0023
0032
2003
,
3001
0000
0010
0100
1000
0000
0010
0100
0000
0100
0001
0000
1000
0000
0001
0000
,
0001
1000
0010
1000
0001
1000
0010
1000
,
0001
0100
0010
0100
0001
0100
0010
0100
,
0001
1000
0001
0010
0100
0010
0001
0010
,
0100
0001
0100
1000
0001
1000
0001
1000
,
0010
0100
0010
1000
0010
0100
0010
1000
,
0100
0010
0100
1000
0100
0010
0100
1000
,
0001
0100
0001
0001
1000
0100
1000
1000
,
0010
0100
0010
0010
0100
0001
1001
1000
,
2100
3000
0000
0000
0100
0000
0000
0000
0110
0000
0000
0000
0020
0030
0000
0000
0110
0000
0000
0000
0100
0000
0000
0000
1100
0000
0000
0000
1000
0000
0000
0000
,
1001
0000
0000
0000
0001
0000
0000
0000
0101
0000
0000
0000
0100
0000
0000
0000
0110
0000
0000
0000
0100
0000
0000
0000
0201
0300
0000
0000
0001
0000
0000
0000
,
0012
0003
0000
0000
0010
0000
0000
0000
0110
0000
0000
0000
0200
0300
0000
0000
0101
0000
0000
0000
0001
0000
0000
0000
0102
0003
0000
0000
0100
0000
0000
0000
,
0110
0000
0000
0000
0020
0030
0000
0000
0011
0000
0000
0000
0002
0003
0000
0000
1001
0000
0000
0000
1000
0000
0000
0000
1010
0000
0000
0000
0100
0000
0000
0000
,
1002
0000
0000
2003
0000
0000
0000
0000
,
0000
0000
0000
3200
,
0320
0000
0000
2030
0000
0000
0000
0000
,
3020
0000
0032
2003
0000
0000
0000
0010
,
3000
0002
0000
0000
0000
0000
0000
0000
,
0003
0000
0000
0200
0000
0000
0320
0000
,
0000
0000
0000
0000
0000
0000
0000
0000
0000
0000
0000
0000
0000
0000
0000
0000
0000
0000
0000
0000
0000
0000
0000
0000
2030
0000
0000
0000
0000
0000
0000
0000
0000
0000
0000
0000
0000
0000
0000
0000
0000
0000
0000
0000
0000
0000
0000
0000
0000
0000
0000
0000
0000
0000
0000
0000
0000
0000
0000
0000
0000
0000
0000
0000
0000
0000
0000
0000
0000
0000
0000
0000
0000
0000
0000
0000
0000
0000
0000
0000
0000
0000
0000
0000
0000
0000
0000
0000
0000
0000
0000
0000
0000
0000
0000
0000
0000
0000
0000
0000
0000
0000
0000
0000
0000
0000
0000
0000
0000
0000
0000
0000
0000
0000
0000
0000
0000
0000
0000
0000
0000
0000
0000
0000
0000
0000
0000
0000
0000
0000
0000
0000
0000
0000
0000
0000
0000
0000
0000
0000
0000
0000
0000
0000
0000
0000
0000
0000
0000
0000
0000
0000
0000
0000
0000
0000
0000
0000
0000
0000
0000
0000
0000
0000
0000
0000
0000
0000
0000
0000
0000
0000
0000
0000
0000
0000
0000
0000
0000
0000
0000
0000
0000
0000
0000
0000
0000
0000
0000
0000
0000
3000
,
0000
0000
0000
0000
0000
0001
1000
0200
,
0000
0320
0000
2030
0000
3002
0000
0203
,
0000
0320
0000
0032
0000
2000
0000
0000
,
0000
0000
0000
0000
3003
0000
0000
0200
,
0000
0000
0300
0000
0000
0000
0001
0001
,
0000
2000
0000
0000
0000
0000
0000
0000
,
3000
0000
0000
0200
0000
0000
0320
0000
,
0000
0032
0000
0000
0000
0000
0000
0000
,
0003
0000
0000
0000
0000
1000
0001
0200
,
0000
0302
0000
2003
0000
3020
0000
0032
,
0000
0023
0000
2030
0000
0002
3000
0000
,
2003
3000
0000
0000
0000
0000
0000
0000
0002
0003
0000
0000
0000
0000
0000
0000
2000
3000
0000
0000
0000
0000
0000
0000
0002
0003
0000
0000
0000
0000
0000
0000
2000
0000
3000
0000
0000
0000
0000
0000
0002
0000
0003
0000
0000
0000
0000
0000
2000
0000
0000
3000
0000
0000
0000
0000
0002
0000
0000
0003
0000
0000
0000
0000
,
0020
0000
0000
0000
0030
0000
0000
0000
0002
0000
0000
0000
0003
0000
0000
0000
0020
0000
0000
0000
0000
0030
0000
0000
0002
0000
0000
0000
0000
0003
0000
0000
0020
0000
0000
0000
0000
0000
0030
0000
0002
0000
0000
0000
0000
0000
0003
0000
1100
0000
0000
0000
0000
0000
0000
0000
1000
0000
0000
0000
0000
0000
0000
0000
,
1000
0001
0010
0001
1000
0001
0010
0001
,
1000
0100
0010
0100
1000
0100
0010
0100
,
1000
0001
1000
0010
0100
0010
1000
0010
,
0100
1000
0100
0001
1000
0001
1000
0001
,
0010
0100
0010
0001
0010
0100
0010
0001
,
0100
0010
0100
0001
0100
0010
0100
0001
,
1000
0000
0100
0000
1000
0010
0100
0000
0002
0000
0000
0000
0203
0000
0000
0000
,
0310
0100
0000
0001
2000
3000
2000
3000
0100
0000
1000
0000
1001
0000
0001
0000
,
0102
0003
0000
0000
0100
0000
0000
0000
0110
0000
0000
0000
0020
0030
0000
0000
0110
0000
0000
0000
0100
0000
0000
0000
0101
0000
0000
0000
0001
0000
0000
0000
,
1001
0000
0000
0000
1000
0000
0000
0000
1100
0000
0000
0000
0100
0000
0000
0000
0110
0000
0000
0000
0100
0000
0000
0000
1200
0300
0000
0000
1000
0000
0000
0000
,
2010
3000
0000
0000
0010
0000
0000
0000
0110
0000
0000
0000
0200
0300
0000
0000
1100
0000
0000
0000
1000
0000
0000
0000
2100
3000
0000
0000
0100
0000
0000
0000
,
0110
0000
0000
0000
0020
0030
0000
0000
1010
0000
0000
0000
2000
3000
0000
0000
1001
0000
0000
0000
0001
0000
0000
0000
0011
0000
0000
0000
0100
0000
0000
0000
,
2001
0000
0000
3002
0000
0000
0000
0000
,
0000
0000
0000
0203
,
0320
0000
0000
2030
0000
0000
0000
0000
,
3200
0000
0320
0032
0000
0000
0003
0000
,
1000
0000
0010
0000
0100
0000
0010
0000
1000
0000
0000
1000
0010
0000
0100
0000
,
0001
0000
0010
0000
0100
0000
0010
0000
0001
0000
0000
0001
0010
0000
0100
0000
,
2000
0000
0000
0000
,
3000
0000
0000
0000
;

//--------------- dance-single - Haley Halcyon ----------------
#NOTES:
     dance-single:
     Haley Halcyon:
     Hard:
     15:
     0.526601,0.821189,0.313402,0.679039,0.205204,494,452,42,91,0,0,0.526601,0.821189,0.313402,0.679039,0.205204,494,452,42,91,0,0:
0000
0000
0000
0000
,
0000
0000
0000
0000
,
0000
0000
0000
0000
,
0000
0000
0000
0000
,
1000
0100
1000
0100
1000
0100
1000
0100
,
1000
0001
1000
0001
1000
0001
1000
0001
,
0100
0001
0100
0001
0100
0010
0100
0010
,
0100
1000
0100
0001
1000
0001
1000
0001
,
2000
3000
0001
0100
0010
0000
0200
0300
0001
1000
0100
0000
2000
3000
0001
0010
,
0100
0000
0020
0030
0001
1000
0010
0000
0200
0300
0001
0010
1000
0000
0000
0000
,
0010
0001
1000
0001
0010
0000
0001
0100
0010
0100
0001
0000
1000
0100
0010
0100
,
1000
0000
0001
0100
0010
0100
0001
0000
1000
0010
0100
0010
0002
0000
0000
0003
,
0010
1000
1100
0100
0010
0011
0001
0100
,
0110
0010
1000
1001
0001
0010
0011
0001
,
1000
0001
0100
0010
1000
0000
0001
0100
0010
1000
0001
0000
1000
0100
0010
0001
,
1000
0000
0010
0100
0001
1000
0010
0000
1000
0001
0010
0100
0002
0003
0200
0300
,
1000
0010
1000
0010
0002
0003
0010
1000
0010
1000
0200
0300
0001
0100
0001
0100
,
0020
0030
1000
0010
1000
0010
0002
0003
0100
0010
0100
0010
1000
0001
1000
0001
,
0100
0001
1000
0010
0100
0001
1000
0100
0010
0001
0100
0010
1000
0001
1000
0010
,
0002
0000
0013
1000
0100
0010
2000
3000
0010
0001
0100
0010
2000
0000
3001
0000
,
0001
1000
0100
1000
0001
1000
0100
1000
,
0001
0010
0100
0010
0001
0010
0100
0010
,
0001
1000
0001
0100
0010
0100
0001
0100
,
0010
0001
0010
1000
0001
1000
0001
1000
,
0100
0010
0100
1000
0100
0010
0100
1000
,
0010
0100
0010
1000
0010
0100
0010
1000
,
0001
0010
0001
0001
1000
0010
1000
1000
,
0100
0010
0100
0100
0010
0001
1001
1000
,
2010
3000
0000
0000
0010
0000
0000
0000
0110
0000
0000
0000
0200
0300
0000
0000
0110
0000
0000
0000
0010
0000
0000
0000
1010
0000
0000
0000
1000
0000
0000
0000
,
1001
0000
0000
0000
0001
0000
0000
0000
0011
0000
0000
0000
0010
0000
0000
0000
0110
0000
0000
0000
0010
0000
0000
0000
0021
0030
0000
0000
0001
0000
0000
0000
,
0102
0003
0000
0000
0100
0000
0000
0000
0110
0000
0000
0000
0020
0030
0000
0000
0011
0000
0000
0000
0001
0000
0000
0000
0012
0003
0000
0000
0010
0000
0000
0000
,
0110
0000
0000
0000
0200
0300
0000
0000
0101
0000
0000
0000
0002
0003
0000
0000
1001
0000
0000
0000
1000
0000
0000
0000
1100
0000
0000
0000
0010
0000
0000
0000
,
1002
0000
0000
2003
0000
0000
0000
0000
,
0000
0000
0000
3020
,
0230
0000
0000
2300
0000
0000
0000
0000
,
3200
0000
0302
2003
0000
0000
0000
0100
,
3000
0002
0000
0000
0000
0000
0000
0000
,
0003
0000
0000
0020
0000
0000
0230
0000
,
0000
0000
0000
0000
0000
0000
0000
0000
0000
0000
0000
0000
0000
0000
0000
0000
0000
0000
0000
0000
0000
0000
0000
0000
2300
0000
0000
0000
0000
0000
0000
0000
0000
0000
0000
0000
0000
0000
0000
0000
0000
0000
0000
0000
0000
0000
0000
0000
0000
0000
0000
0000
0000
0000
0000
0000
0000
0000
0000
0000
0000
0000
0000
0000
0000
0000
0000
0000
0000
0000
0000
0000
0000
0000
0000
0000
0000
0000
0000
0000
0000
0000
0000
0000
0000
0000
0000
0000
0000
0000
0000
0000
0000
0000
0000
0000
0000
0000
0000
0000
0000
0000
0000
0000
0000
0000
0000
0000
0000
0000
0000
0000
0000
0000
0000
0000
0000
0000
0000
0000
0000
0000
0000
0000
0000
0000
0000
0000
0000
0000
0000
0000
0000
0000
0000
0000
0000
0000
0000
0000
0000
0000
0000
0000
0000
0000
0000
0000
0000
0000
0000
0000
0000
0000
0000
0000
0000
0000
0000
0000
0000
0000
0000
0000
0000
0000
0000
0000
0000
0000
0000
0000
0000
0000
0000
0000
0000
0000
0000
0000
0000
0000
0000
0000
0000
0000
0000
0000
0000
0000
0000
3000
,
0000
0000
0000
0000
0000
0001
1000
0020
,
0000
0230
0000
2300
0000
3002
0000
0023
,
0000
0230
0000
0302
0000
2000
0000
0000
,
0000
0000
0000
0000
3003
0000
0000
0020
,
0000
0000
0030
0000
0000
0000
0001
0001
,
0000
2000
0000
0000
0000
0000
0000
0000
,
3000
0000
0000
0020
0000
0000
0230
0000
,
0000
0302
0000
0000
0000
0000
0000
0000
,
0003
0000
0000
0000
0000
1000
0001
0020
,
0000
0032
0000
2003
0000
3200
0000
0302
,
0000
0203
0000
2300
0000
0002
3000
0000
,
2003
3000
0000
0000
0000
0000
0000
0000
0002
0003
0000
0000
0000
0000
0000
0000
2000
3000
0000
0000
0000
0000
0000
0000
0002
0003
0000
0000
0000
0000
0000
0000
2000
0000
3000
0000
0000
0000
0000
0000
0002
0000
0003
0000
0000
0000
0000
0000
2000
0000
0000
3000
0000
0000
0000
0000
0002
0000
0000
0003
0000
0000
0000
0000
,
0200
0000
0000
0000
0300
0000
0000
0000
0002
0000
0000
0000
0003
0000
0000
0000
0200
0000
0000
0000
0000
0300
0000
0000
0002
0000
0000
0000
0000
0003
0000
0000
0200
0000
0000
0000
0000
0000
0300
0000
0002
0000
0000
0000
0000
0000
0003
0000
1010
0000
0000
0000
0000
0000
0000
0000
1000
0000
0000
0000
0000
0000
0000
0000
,
1000
0001
0100
0001
1000
0001
0100
0001
,
1000
0010
0100
0010
1000
0010
0100
0010
,
1000
0001
1000
0100
0010
0100
1000
0100
,
0010
1000
0010
0001
1000
0001
1000
0001
,
0100
0010
0100
0001
0100
0010
0100
0001
,
0010
0100
0010
0001
0010
0100
0010
0001
,
1000
0000
0010
0000
1000
0100
0010
0100
2000
0000
0000
0000
3020
0000
0000
0000
,
0031
0010
0100
0010
2000
0000
0000
3000
0010
0000
1000
0000
1001
0000
0001
0000
,
0012
0003
0000
0000
0010
0000
0000
0000
0110
0000
0000
0000
0200
0300
0000
0000
0110
0000
0000
0000
0010
0000
0000
0000
0011
0000
0000
0000
0001
0000
0000
0000
,
1001
0000
0000
0000
1000
0000
0000
0000
1010
0000
0000
0000
0010
0000
0000
0000
0110
0000
0000
0000
0010
0000
0000
0000
1020
0030
0000
0000
1000
0000
0000
0000
,
2100
3000
0000
0000
0100
0000
0000
0000
0110
0000
0000
0000
0020
0030
0000
0000
1010
0000
0000
0000
1000
0000
0000
0000
2010
3000
0000
0000
0010
0000
0000
0000
,
0110
0000
0000
0000
0200
0300
0000
0000
1100
0000
0000
0000
2000
3000
0000
0000
1001
0000
0000
0000
0001
0000
0000
0000
0101
0000
0000
0000
0010
0000
0000
0000
,
2001
0000
0000
3002
0000
0000
0000
0000
,
0000
0000
0000
0023
,
0230
0000
0000
0302
0000
0000
0000
0000
,
2003
0000
3020
0032
0000
0000
0003
0000
,
1000
0000
0100
0000
0010
0000
0100
0000
1000
0000
0100
0010
0001
0000
1000
0000
,
0001
0000
0100
0000
0010
0000
0100
0000
0001
0000
0100
0010
1000
0000
0001
0000
,
2000
0000
0000
0000
,
3000
0000
0000
0000
;
