#TITLE:Here to Stay;
#SUBTITLE:;
#ARTIST:Zomboy ft. Lady Chann;
#TITLETRANSLIT:;
#SUBTITLETRANSLIT:;
#ARTISTTRANSLIT:;
#GENRE:Dubstep;
#CREDIT:;
#MUSIC:Here to Stay.ogg;
#BANNER:Here to Stay.png;
#BACKGROUND:Here to Stay-bg.png;
#JACKET:Here to Stay-jacket.jpg;
#CDTITLE:cdtitle.png;
#SAMPLESTART:0.000;
#SAMPLELENGTH:0.000;
#SELECTABLE:YES;
#OFFSET:-0.002;
#BPMS:0.000=27.500
,4.000=110.000
,18.000=660.000
,18.875=16.000
,19.000=110.000
,68.000=660.000
,69.000=636.000
,69.625=16.000
,69.750=32.000
,70.000=110.000
,84.000=27.500
,88.000=110.000
,102.000=660.000
,102.875=16.000
,103.000=110.000
,152.000=660.000
,153.000=636.000
,153.625=16.000
,153.750=32.000
,154.000=110.000
,184.000=660.000
,185.000=636.000
,185.625=16.000
,185.750=32.000
,186.000=110.000
,200.000=660.000
,201.000=636.000
,201.625=16.000
,201.750=32.000
;
#STOPS:;
#DISPLAYBPM:110.000;
#BGCHANGES:;
#FGCHANGES:;

//--------------- dance-single - Haley Halcyon ----------------
#NOTES:
     dance-single:
     Haley Halcyon:
     Beginner:
     4:
     0,0,0,0,0:
0000
0000
0000
0000
,
1000
1000
0100
0010
,
0001
0001
0100
0010
,
1000
0001
1000
0001
,
0010
0010
0010
0000
,
1001
1000
0001
0100
,
0001
1000
0001
0100
,
0010
0010
1000
0001
,
0010
0010
0001
1000
,
1001
0001
1000
0100
,
1000
0001
1000
0100
,
0010
0010
0001
1000
,
0010
0010
1000
0001
,
1001
1000
0010
0100
,
0001
0100
0010
1000
,
1001
0001
0010
0100
,
1000
0100
0010
0001
,
2002
3003
0000
0000
,
1000
0010
0100
0001
,
1001
0001
0010
0100
,
1000
0100
0010
0001
,
2002
0000
0000
0000
0000
0000
0000
0000
0000
0000
0000
0000
0000
0000
0000
3003
,
1000
1000
0001
0001
,
0010
0010
0100
0100
,
1000
0001
1000
0001
,
0010
0010
0010
0000
,
1001
1000
0100
1000
,
0001
1000
0100
0010
,
0001
0100
0010
0100
,
0001
0100
0010
1000
,
1001
0001
0100
0001
,
1000
0001
0100
0010
,
1000
0100
0010
0100
,
1000
0100
0010
0001
,
1001
1000
0010
0100
,
0001
0010
0100
1000
,
1001
0001
0010
0100
,
1000
0010
0100
0001
,
2002
3003
0000
0000
,
1000
0100
0010
0001
,
1001
1000
0100
0010
,
0001
0100
0010
1000
,
1001
0001
0100
0100
,
0010
0010
1000
1000
,
1001
1000
0100
0100
,
0010
0010
0001
0001
,
2002
3003
0000
0000
,
1000
0010
0100
0001
,
1001
0001
0010
0010
,
0001
0010
0100
1000
,
2002
3003
0000
0000
;

//--------------- dance-single - Haley Halcyon ----------------
#NOTES:
     dance-single:
     Haley Halcyon:
     Easy:
     8:
     0,0,0,0,0:
0000
0000
0000
0000
,
1000
0001
1000
0001
0010
0100
1000
0000
,
0001
1000
0001
1000
0010
0100
0001
0000
,
1000
0100
1000
0100
0010
0001
0010
0001
,
1000
0010
1000
0010
0100
0000
0000
0000
,
0001
0000
1000
0100
1000
0100
0010
0010
,
0001
0000
1000
0100
1000
0100
0020
0000
,
0031
0100
0010
0100
0001
1000
0010
0000
,
1000
0100
0010
0100
1000
0001
0100
0100
,
0001
0000
1000
0010
1000
0010
0100
0100
,
0001
0000
1000
0010
1000
0010
0200
0000
,
0301
0010
0100
0010
0001
1000
0100
0000
,
1000
0010
0100
0010
1000
0001
0010
0010
,
0001
0000
0100
0010
1000
0000
0010
0100
,
0001
1000
0001
1000
0100
0010
0001
0001
,
1000
0000
0100
0010
0001
0000
0010
0100
,
1000
0001
1000
0001
0100
0010
1000
1000
,
0002
0003
0000
0000
,
1000
0100
0010
0100
1000
0001
0100
0010
,
1000
0000
0010
0100
0001
0000
0100
0010
,
1000
0001
1000
0001
0010
0010
0100
0100
,
2000
0000
0000
0000
0000
0000
0000
0000
0000
0000
0000
0000
0000
0000
0000
3000
,
0001
0100
0001
0100
0010
1000
0001
0000
,
1000
0100
1000
0100
0010
0001
1000
0000
,
0100
1000
0100
1000
0001
0010
0001
0010
,
0100
0010
0100
0010
0001
0000
0000
0000
,
1001
0000
1000
0100
1000
0100
0010
0010
,
1001
0000
0001
0100
0001
0100
0020
0000
,
1030
0100
0010
0100
1000
0001
0100
0000
,
0001
0100
0010
0100
0001
1000
0100
0100
,
1001
0000
0001
0100
0001
0100
0010
0010
,
1001
0000
1000
0100
1000
0100
0020
0000
,
0031
0100
0010
0100
0001
1000
0100
0000
,
1000
0100
0010
0100
1000
0001
0100
0100
,
1001
0000
1000
0100
0010
0000
0100
1000
,
0001
0100
0010
1000
0100
0010
0100
0100
,
1001
0000
0001
0100
0010
0000
0100
0001
,
1000
0100
0010
0001
0100
0010
0100
0100
,
2002
3003
0000
0000
,
1000
0010
0100
0001
0010
0100
0010
0010
,
1001
0000
0001
0100
0010
0000
1000
0100
,
0010
0001
0100
0010
1000
1000
0001
0001
,
1000
0100
1000
0100
0010
0100
0010
0100
,
1000
0001
0010
0001
1000
0010
0100
0000
,
0001
0100
0001
0100
0010
0100
0010
0100
,
0001
1000
0010
1000
0001
0100
0010
1000
,
0002
0003
0000
0000
,
1000
0100
0010
0100
0010
0001
1000
0100
,
1000
0010
1000
0010
0100
0001
0100
0001
,
1000
0010
0100
0001
0010
0100
1000
0100
,
0022
0033
0000
0000
;

//--------------- dance-single - Haley Halcyon ----------------
#NOTES:
     dance-single:
     Haley Halcyon:
     Medium:
     12:
     0,0,0,0,0:
0000
0000
0000
0000
,
1000
0100
1000
0010
0001
0010
1000
0000
,
0001
0100
0001
0010
1000
0010
0001
0000
,
1000
0100
1000
0100
0010
0001
0010
0001
,
0100
0010
0100
0010
0100
0010
0100
0010
0100
0000
0000
0000
0000
0000
0000
0000
,
1001
0000
1000
0100
0001
0100
1000
0001
,
1001
0000
0001
0100
1000
0100
0002
0000
,
1003
0000
0010
0000
1000
0100
1000
0000
0001
0100
0001
0000
0010
0000
0110
0000
,
0001
0000
0010
0000
0001
0100
0001
0000
1000
0100
1000
0100
0010
0000
0010
0000
,
1001
0000
1000
0010
0001
0010
1000
0001
,
1001
0000
0001
0010
1000
0010
0002
0000
,
1003
0000
0100
0000
1000
0010
1000
0000
0001
0010
0001
0000
0100
0000
0010
0000
,
1000
0000
0100
0000
0010
0001
0010
0000
0100
0000
1000
0000
0001
1000
0001
1000
,
0001
0000
0000
0000
0200
0000
0320
0000
2030
0000
3000
0000
0010
0100
0001
0000
,
1000
0000
0001
0000
1000
0001
1000
0000
0100
1000
0100
1000
0001
0000
0100
0000
,
0001
0000
0000
0000
0020
0000
0230
0000
2300
0000
3000
0000
0100
0010
0001
0000
,
1000
0000
0001
0000
1000
0001
1000
0000
0010
1000
0010
1000
0001
0000
0010
0000
,
2200
3300
0000
0000
,
1000
0000
0010
0100
0001
0100
0010
0000
1000
0100
1000
0100
0010
0000
0001
0000
,
0011
0000
0000
0000
0020
0000
0230
0000
2300
0000
3000
0000
0100
0010
0001
0000
,
1000
0000
0010
0100
0010
1000
0010
0000
0100
0000
0001
0000
0010
0001
0010
0000
,
2002
0000
0000
0000
0000
0000
0000
0000
0000
0000
0000
0000
0000
0000
0000
3003
,
1000
0010
0100
0010
0001
0010
1000
0000
,
0001
0010
0100
0010
1000
0010
0001
0000
,
1000
0010
0100
0001
1000
0100
0010
0001
,
0100
0010
0100
0010
0100
0010
0100
0010
0100
0000
0000
0000
0000
0000
0000
0000
,
1001
0000
0001
0100
1000
0100
0001
0001
,
1000
0000
0001
0100
1000
0001
0020
0000
,
1030
0000
1010
0000
0100
0001
0010
0000
0100
0010
0100
0000
1000
0000
0001
0000
,
0100
0000
0101
0000
0100
0010
1000
0000
0100
0010
0100
0010
0001
0000
1000
0000
,
1001
0000
0001
0010
1000
0010
0001
0001
,
1001
0000
0001
0010
1000
0001
0200
0000
,
1300
0000
1010
0000
0010
0100
0001
0000
0010
0001
0010
0000
0100
0000
1000
0000
,
0001
0000
0011
0000
0010
0100
1000
0000
0010
0100
0010
0000
1000
0010
1000
0010
,
1000
0000
0000
0000
0200
0000
0320
0000
0032
0000
0003
0000
0010
0100
1000
0000
,
0001
0000
1000
0000
0001
1000
0001
0000
0100
0001
0100
0001
1000
0000
0100
0000
,
1000
0000
0000
0000
0020
0000
0230
0000
0302
0000
0003
0000
0100
0010
1000
0000
,
0001
0000
1000
0000
0001
1000
0001
0000
0010
0001
0010
0001
1000
0000
0010
0000
,
0202
0303
0000
0000
,
0001
0000
0010
0100
1000
0100
0010
0000
0001
0100
0001
0100
0010
0000
1000
0000
,
1010
0000
0000
0000
0020
0000
0230
0000
0302
0000
0003
0000
0100
0010
1000
0000
,
0001
0000
0010
0100
0010
0001
0010
0000
0100
0000
1000
0000
0010
1000
0010
0000
,
1000
0100
0010
0100
1000
0010
0100
0010
,
1000
0100
0001
0100
0010
1000
0010
0001
,
0101
0100
0010
1000
0010
0100
0001
0010
,
0100
1000
0100
0001
1000
0010
0001
0100
,
0202
0303
0000
0000
,
1000
0100
0010
1000
0010
0100
0001
0100
,
1100
1000
0010
0100
1000
0001
0010
0100
,
1000
0000
0001
0000
0010
0000
1000
0000
0001
0010
0001
0010
0100
0000
1000
0000
,
0202
0303
0000
0000
;

//--------------- dance-single - Haley Halcyon ----------------
#NOTES:
     dance-single:
     Haley Halcyon:
     Hard:
     15:
     0,0,0,0,0:
0000
0000
0000
0000
,
1000
0100
0010
0100
1000
0000
0100
0000
0001
0000
0100
0000
1000
0000
0000
0000
,
0001
0000
0100
0001
0010
0000
0100
0001
0100
1000
0000
1000
0001
0000
1000
0000
,
0001
0010
0100
1000
0001
0100
0010
1000
0001
0010
0100
1000
0010
0100
0001
1000
,
0010
0100
0010
0100
0010
0100
0010
0100
0010
0000
0000
0000
0000
0000
0000
0000
,
2200
0000
3300
0000
1000
0100
0010
0100
1000
0100
0010
0100
1000
0000
1000
0000
,
0202
0000
0303
0000
0001
0100
0010
0100
0001
0100
0001
0000
2000
0000
0000
0000
,
3001
0000
1100
0000
0100
1000
0010
0000
0100
0010
1000
0000
0001
0000
0011
0000
,
1000
0000
0101
0000
0100
0001
0010
0000
1000
0010
0100
0010
0001
0000
1000
0000
,
0202
0000
0303
0000
0001
0100
0010
0100
0001
0100
0010
0100
0001
0000
0001
0000
,
2200
0000
3300
0000
1000
0100
0010
0100
1000
0100
1000
0000
0002
0000
0000
0000
,
1003
0000
0101
0000
0100
0001
0010
0000
0100
0010
0001
0000
1000
0000
1010
0000
,
0001
0000
1100
0000
0100
1000
0010
0000
0001
0010
0100
0010
1000
0001
1000
0001
,
2000
0000
3000
0000
0101
0000
0011
0000
1100
0000
0000
0000
0100
0010
0001
0000
,
0010
0100
1000
0001
0010
0100
0002
0000
0103
0001
0100
0001
0200
0000
2300
0000
,
3002
0000
0003
0000
1100
0000
1010
0000
0101
0000
0000
0000
0100
0010
1000
0000
,
0010
0100
0001
1000
0010
0100
2000
0000
3100
1000
0100
1000
0200
0000
0302
0000
,
2003
0000
0000
0000
3000
0000
0000
0000
0000
0000
0000
0000
0001
1000
0100
1000
,
0002
0000
0013
0100
1000
0010
0200
0000
1300
0100
1000
0100
0020
0000
2030
0000
,
3002
0000
0003
0000
1100
0000
0101
0000
0011
0000
0000
0000
0001
0100
0010
0000
,
1000
0010
0100
0001
0010
0100
1000
0000
0020
0000
0032
0000
1003
0100
0002
0000
,
2000
0000
0000
0000
0000
0000
0000
0000
0000
0000
0000
0000
0000
0000
0000
3003
,
0001
0100
0010
0100
0001
0000
0100
0000
1000
0000
0100
0000
0001
0000
0000
0000
,
1000
0000
0100
1000
0010
0000
0100
1000
0100
0001
0000
0001
1000
0000
0001
0000
,
1000
0010
0100
0001
1000
0100
0010
0001
1000
0010
0100
0001
0010
0100
1000
0001
,
0010
0100
0010
0100
0010
0100
0010
0100
0010
0000
0000
0000
0000
0000
0000
0000
,
0202
0000
0303
0000
0001
0100
0010
0100
1000
0100
0010
0100
0001
0000
0001
0000
,
2200
0000
3300
0000
1000
0100
0010
0100
0001
0100
1000
0000
0002
0000
0000
0000
,
1003
0000
0101
0000
0100
0001
0010
0000
1000
0010
0001
0000
1000
0000
1010
0000
,
0001
0000
1100
0000
0100
1000
0010
0000
0001
0010
0100
0010
1000
0000
0001
0000
,
2200
0000
3300
0000
1000
0100
0010
0100
0001
0100
0010
0100
1000
0000
1000
0000
,
0202
0000
0303
0000
0001
0100
0010
0100
1000
0100
0001
0000
2000
0000
0000
0000
,
3001
0000
0021
0000
0130
1000
0010
0000
0100
0010
1000
0000
0001
0000
0011
0000
,
1000
0000
1020
0000
0130
0001
0010
0000
1000
0010
0100
0010
0001
1000
0001
1000
,
0002
0000
0003
0000
1100
0000
1010
0000
0101
0000
0000
0000
0100
0010
1000
0000
,
0010
0100
0001
1000
0010
0100
2000
0000
3100
1000
0100
1000
0200
0000
0302
0000
,
2003
0000
3000
0000
0101
0000
0011
0000
1100
0000
0000
0000
0100
0010
0001
0000
,
0010
0100
1000
0001
0010
0100
0002
0000
0103
0001
0100
0001
0200
0000
2300
0000
,
3002
0000
0000
0000
0003
0000
0000
0000
0000
0000
0000
0000
1000
0001
0100
0001
,
2000
0000
3010
0100
0001
0010
0200
0000
0301
0100
0001
0100
0020
0000
0032
0000
,
2003
0000
3000
0000
0101
0000
1100
0000
1010
0000
0000
0000
1000
0100
0010
0000
,
0001
0010
0100
1000
0010
0100
0001
0000
0020
0000
2030
0000
3001
0100
2000
0000
,
3002
0000
0013
0000
1100
0000
0001
1000
0010
1000
0100
0010
1000
0010
0100
0010
,
0002
0000
0103
0000
0010
1000
0001
0100
0001
0010
0100
0001
1000
0001
0100
0010
,
0002
0000
0103
0000
1010
0000
1000
0100
0010
1000
0010
0100
0010
0001
1000
0010
,
2000
0000
3100
0000
0001
0010
0001
1000
0100
0010
0001
0100
1000
0100
0001
0010
,
0200
0000
0000
0000
0300
0000
0000
0000
0000
0000
0000
0000
1000
0001
0100
0001
,
2000
0000
3010
0000
0101
0000
0001
0010
0100
0001
0100
1000
0010
0100
0001
1000
,
0002
0000
0013
0000
1100
0000
1000
0100
0010
0100
0001
0100
0010
0001
0100
0001
,
2000
0000
3100
0000
0010
0001
0100
0010
0001
0010
1000
0100
0010
0000
0001
0100
,
2000
3000
0000
0000
;

//--------------- dance-single - Haley Halcyon ----------------
#NOTES:
     dance-single:
     Haley Halcyon:
     Challenge:
     17:
     0,0,0,0,0:
0000
0000
0000
0000
,
1000
0000
0000
0001
0000
0000
0010
0000
0000
0100
0000
0000
0001
0000
0000
0000
0100
0000
0000
0000
0010
0000
0000
0000
0001
0000
0000
1000
0000
0000
0100
0000
0000
0000
0000
0000
1100
0000
0000
0000
0000
0000
0011
0000
0000
0000
0000
0000
,
1000
0000
0000
0000
0000
0000
0010
0000
0000
0100
0000
0000
1000
0000
0000
0000
0100
0000
0000
0000
0001
0000
0000
0000
1000
0000
0000
0100
0000
0000
0000
0000
0000
0010
0000
0000
0100
0000
0000
0000
0000
0000
1001
0000
0000
0000
0000
0000
,
1000
0010
0100
0010
1000
0100
0010
0100
0010
0001
0100
0001
0010
0100
0010
0001
,
1000
0010
1000
0010
0100
0010
0100
0010
0001
0010
0001
0010
0100
0010
0100
0010
1000
0000
0000
0000
0000
0000
0000
0000
0000
0000
0000
0000
0010
0000
1000
0000
,
2002
0000
3003
0000
0001
0010
1000
0010
0001
0010
1000
0010
0011
0000
0101
0000
,
0220
0000
0330
0000
1000
0010
0001
0010
1000
0010
0100
0000
0022
0000
0033
0000
,
1100
0000
1010
0000
0100
0001
0010
0000
1000
0010
0001
0000
1020
0000
0130
0000
,
0201
0000
0320
0000
0031
0010
1000
0000
0001
0010
0100
0010
2000
3000
0020
0030
,
2002
0000
3003
0000
1000
0100
0001
0100
1000
0100
0001
0100
1000
0000
1000
0000
,
0202
0000
0303
0000
0001
0100
1000
0100
0001
0100
0010
0000
2020
0000
3030
0000
,
1100
0000
0011
0000
0100
0001
0010
0000
1000
0010
0001
0000
2001
0000
3200
0300
,
0120
0000
2030
0000
3010
0001
0100
0000
0010
1000
0100
0001
1000
0010
1000
0010
,
0002
0000
0003
0000
1100
0000
1001
0000
0022
0000
0033
0000
0001
0010
0200
0000
,
1300
0000
0010
0000
0100
0000
0010
0000
1000
0000
0100
0000
0020
0000
0000
0000
0031
0010
0001
0010
0001
0000
1000
0000
2020
0000
3030
0000
0202
0000
0303
0000
,
2002
0000
3003
0000
0101
0000
1001
0000
2020
0000
3030
0000
1000
0010
0200
0000
,
0301
0000
0010
0000
0100
0000
0010
0000
0001
0000
0100
0000
0020
0000
0000
0000
1030
0010
1000
0010
1000
0000
0001
0000
0022
0000
0033
0000
2200
0000
3300
0000
,
2002
0000
0000
0000
0000
0000
3003
0000
0000
1000
0001
1000
0010
0100
0001
1000
,
0002
0000
0000
0000
0013
0000
0001
0000
0100
0000
0010
0000
2000
0000
0000
0000
3100
0010
0100
0010
0100
0000
1000
0000
2002
0000
3003
0000
0202
0000
0303
0000
,
0220
0000
0330
0000
0202
0303
2002
3003
2020
0000
3030
0000
1000
0100
0020
0000
,
0130
1000
0010
0100
1000
0100
0002
0003
0101
0000
1010
0000
1000
0100
0010
0000
,
2002
0000
0000
0000
0000
0000
0000
0000
0000
0000
0000
0000
0000
0000
0000
3003
,
1000
0000
0000
0100
0000
0000
0010
0000
0000
0001
0000
0000
1000
0000
0000
0000
0001
0000
0000
0000
0100
0000
0000
0000
1000
0000
0000
0100
0000
0000
0010
0000
0000
0100
0000
0000
0001
0000
0000
0000
0000
0000
1001
0000
0000
0000
0000
0000
,
2000
0000
0000
3000
0000
0000
0010
0000
0000
1000
0000
0000
0001
0000
0000
0000
0100
0000
0000
0000
1000
0000
0000
0000
0001
0000
0000
0010
0000
0000
0000
0000
0000
0010
0000
0000
1000
0000
0000
0000
0000
0000
1001
0000
0000
0000
0000
0000
,
0001
0100
0001
0010
0100
1000
0010
1000
0100
0010
0100
1000
0010
0100
0001
1000
,
0001
0100
0001
0100
0010
0100
0010
0100
1000
0100
1000
0100
0010
0100
0010
0100
0001
0000
0000
0000
0000
0000
0000
0000
0000
0000
0000
0000
0000
0000
0000
0000
,
2020
0000
3030
0000
1000
0100
0001
0100
1000
0010
0001
0010
1000
0000
1000
0000
,
0022
0000
0033
0000
0001
0100
1000
0100
0001
0010
0100
0000
0002
0000
0000
0000
,
0103
0000
1100
0000
0010
0001
0100
0000
1000
0100
0001
0000
2010
0000
3200
0300
,
0120
0000
2030
0000
3010
0001
0100
0000
1000
0001
1000
0001
0020
0000
2030
3000
,
0022
0000
0033
0000
0001
0100
1000
0100
0001
0010
1000
0010
0002
0003
0002
0003
,
2020
0000
3030
0000
1000
0100
0001
0100
1000
0010
0100
0000
2000
0000
0000
0000
,
3100
0000
0101
0000
0001
0010
0100
0000
0001
0100
1000
0000
1020
0000
0230
0300
,
0201
0000
1300
0000
0100
0010
1000
0000
0001
1000
0010
0100
1000
0100
1000
0100
,
0002
0000
0003
0000
1010
0000
1001
0000
0202
0000
0303
0000
0001
0100
0020
0000
,
1030
0000
0100
0000
0010
0000
0100
0000
1000
0000
0010
0000
0200
0000
0000
0000
0301
0100
0001
0100
0001
0000
1000
0000
2200
0000
3300
0000
0022
0000
0033
0000
,
2002
0000
3003
0000
0011
0000
1001
0000
2200
0000
3300
0000
1000
0100
0020
0000
,
0031
0000
0100
0000
0010
0000
0100
0000
0001
0000
0010
0000
0200
0000
0000
0000
1300
0100
1000
0100
1000
0000
0001
0000
0202
0000
0303
0000
2020
0000
3030
0000
,
2002
0000
0000
0000
0000
0000
3003
0000
0000
1000
0001
1000
0100
0010
0001
1000
,
0002
0000
0000
0000
0103
0000
0001
0000
0010
0000
0100
0000
2000
0000
0000
0000
3010
0100
0010
0100
0010
0000
1000
0000
2002
0000
3003
0000
0022
0000
0033
0000
,
0220
0000
0330
0000
0022
0033
2002
3003
2200
0000
3300
0000
1000
0010
0200
0000
,
0310
1000
0100
0010
1000
0010
0002
0003
0011
0000
1100
0000
1000
0010
0100
0000
,
2001
0000
3100
0000
0110
0000
0010
0001
0100
1000
0100
0010
0001
0010
1000
0001
,
2000
0000
3100
0000
0010
0001
0100
0010
0001
1000
0100
0010
1000
0100
0020
0030
,
1002
0000
0103
0000
0110
0000
0010
1000
0100
0001
0100
0010
1000
0010
0001
1000
,
0002
0000
0103
0000
0010
1000
0100
0010
1000
0001
0100
0010
0001
0100
0020
0030
,
2002
0000
0000
0000
0000
0000
3003
0000
0000
0001
1000
0100
0001
0100
1000
0001
,
0102
0000
1003
0000
1200
0000
0310
0100
0001
1000
0010
0001
0100
1000
0001
0010
,
2000
0000
3100
0000
0011
0000
0001
0100
1000
0001
0010
1000
0100
0010
0100
1000
,
2001
0000
3100
0000
0010
0100
1000
0010
0001
0010
1000
0100
0001
1000
0010
0001
,
2000
0000
0000
3000
0000
0000
0000
0000
;

//--------------- dance-double - Haley Halcyon ----------------
#NOTES:
     dance-double:
     Haley Halcyon:
     Challenge:
     18:
     0,0,0,0,0:
00000000
00000000
00000000
00000000
,
00001000
00000000
00000000
00010000
00000000
00000000
00000100
00000000
00000000
00001000
00000000
00000000
00000010
00000000
00000000
00000000
00000100
00000000
00000000
00000000
00001000
00000000
00000000
00000000
00000100
00000000
00000000
00000000
00000000
00000000
00000010
00000000
00000000
00000000
00000000
00000000
00000001
00000000
00000000
00000000
00000000
00000000
00000010
00000000
00000000
00000000
00000000
00000000
,
00000100
00000000
00000000
00000000
00000000
00000000
00000001
00000000
00000000
00000010
00000000
00000000
00000100
00000000
00000000
00000000
00010000
00000000
00000000
00000000
00001000
00000000
00000000
00000000
00000000
00000000
00000000
00100000
00000000
00000000
00000000
00000000
00000000
01000000
00000000
00000000
10000000
00000000
00000000
00000000
00000000
00000000
00010000
00000000
00000000
00000000
00000000
00000000
,
10000000
00100000
10000000
00100000
01000000
00010000
01000000
00010000
00100000
00001000
00100000
00001000
00010000
00000100
00010000
00000100
,
00001000
00000100
00001000
00000100
00001000
00000100
00001000
00000100
00001000
00000100
00001000
00000100
00001000
00000100
00001000
00000100
00001000
00000000
00000000
00000000
00000000
00000000
00000000
00000000
00000000
00000000
00000000
00000000
00001000
00000000
00000001
00000000
,
00020002
00000000
00030003
00000000
00000001
00001000
00000010
00010000
00001000
00100000
00010000
10000000
00100000
00000000
00100000
00000000
,
20002000
00000000
30003000
00000000
10000000
00010000
00100000
00001000
00010000
00000010
00000100
00000000
00000220
00000000
00000030
00000000
,
00000301
00000000
00000011
00000000
00000100
00001000
00000010
00000000
00000100
00001000
00010000
00000000
00101000
00000000
01010000
00000000
,
10000000
00000000
10100000
00000000
01000000
00010000
00100000
00000000
01000000
00010000
00001000
00010000
01000000
00000000
10000000
00000000
,
20002000
00000000
30003000
00000000
10000000
00010000
00100000
00001000
00010000
00000010
00001000
00000001
00000010
00000000
00000010
00000000
,
00020002
00000000
00030003
00000000
00000001
00001000
00000010
00010000
00001000
00100000
01000000
00000000
02200000
00000000
00300000
00000000
,
13000000
00000000
10100000
00000000
01000000
00010000
00100000
00000000
01000000
00010000
00001000
00000000
00010010
00000000
00001100
00000000
,
00000001
00000000
00000011
00000000
00000100
00001000
00000010
00000000
00000100
00001000
00010000
00001000
00000100
00000010
00001000
00000010
,
00020000
00000000
00030000
00000000
00010001
00000000
01000100
00000000
10001000
00000000
00000000
00000000
10000000
01000000
00010000
00000000
,
01000000
00000000
00100000
00000000
00010000
00000000
00100000
00000000
01000000
00000000
00010000
00000000
00002000
00000000
00000000
00000000
01003000
00001000
01000000
00001000
01000000
00000000
00010000
00000000
00110000
00000000
00000000
00000000
01100000
00000000
00000000
00000000
,
20020000
00000000
30030000
00000000
10001000
00000000
00100010
00000000
00010001
00000000
00000000
00000000
00000001
00000010
00001000
00000000
,
00000010
00000000
00001000
00000000
00010000
00000000
00001000
00000000
00000010
00000000
00000100
00000000
00020000
00000000
00000000
00000000
00030100
00010000
00000100
00010000
00000100
00000000
00001000
00000000
00001010
00000000
00000000
00000000
00010100
00000000
00000000
00000000
,
02000002
00000000
00000000
00000000
03000003
00000000
00000000
00000000
00000000
01000000
00000100
01000000
00000010
00010000
00001000
01000000
,
00200000
00000000
00000000
00000000
10300000
00000000
01000000
00000000
00010000
00000000
00001000
00000000
00200000
00000000
00000000
00000000
00300100
00010000
00000100
00010000
00000100
00000000
00010000
00000000
00000100
00000000
00000000
00000000
01001000
00000000
00000000
00000000
,
20000200
00000000
30000300
00000000
10000000
00100000
00010000
00000000
00000020
00000000
00000030
00000000
00000010
00000100
00000001
00000000
,
00000020
00000000
00000031
00000100
00001000
00010000
00000010
00000000
00010010
00000000
01001000
00000000
00100000
00000010
00010000
00000000
,
02000200
00000000
00000000
00000000
00000000
00000000
00000000
00000000
00000000
00000000
00000000
00000000
00000000
00000000
00000000
03000300
,
00010000
00000000
00000000
00001000
00000000
00000000
01000000
00000000
00000000
00010000
00000000
00000000
00100000
00000000
00000000
00000000
01000000
00000000
00000000
00000000
00010000
00000000
00000000
00000000
01000000
00000000
00000000
00000000
00000000
00000000
00100000
00000000
00000000
00000000
00000000
00000000
10000000
00000000
00000000
00000000
00000000
00000000
00100000
00000000
00000000
00000000
00000000
00000000
,
01000000
00000000
00000000
00000000
00000000
00000000
10000000
00000000
00000000
00100000
00000000
00000000
01000000
00000000
00000000
00000000
00001000
00000000
00000000
00000000
00010000
00000000
00000000
00000000
00000000
00000000
00000000
00000010
00000000
00000000
00000000
00000000
00000000
00000100
00000000
00000000
00000001
00000000
00000000
00000000
00000000
00000000
00001000
00000000
00000000
00000000
00000000
00000000
,
00000001
00000010
00000001
00000010
00000100
00001000
00000100
00001000
00000010
00010000
00000010
00010000
00001000
01000000
00001000
01000000
,
00010000
01000000
00010000
01000000
00010000
01000000
00010000
01000000
00010000
01000000
00010000
01000000
00010000
01000000
00010000
01000000
00010000
00000000
00000000
00000000
00000000
00000000
00000000
00000000
00000000
00000000
00000000
00000000
00000000
00000000
00000000
00000000
,
20002000
00000000
30003000
00000000
10000000
00010000
00100000
00001000
00010000
00000010
00001000
00000001
00000010
00000000
00000010
00000000
,
00020002
00000000
00030003
00000000
00000001
00001000
00000010
00010000
00001000
00100000
01000000
00000000
02200000
00000000
00300000
00000000
,
13000000
00000000
10100000
00000000
01000000
00010000
00100000
00000000
01000000
00010000
00001000
00000000
00010010
00000000
00001100
00000000
,
00000001
00000000
00000011
00000000
00000100
00001000
00000010
00000000
00000100
00001000
00010000
00001000
00000100
00000000
00000001
00000000
,
00020002
00000000
00030003
00000000
00000001
00001000
00000010
00010000
00001000
00100000
00010000
10000000
00100000
00000000
00100000
00000000
,
20002000
00000000
30003000
00000000
10000000
00010000
00100000
00001000
00010000
00000010
00000100
00000000
00000220
00000000
00000030
00000000
,
00000301
00000000
00000011
00000000
00000100
00001000
00000010
00000000
00000100
00001000
00010000
00000000
00101000
00000000
01010000
00000000
,
10000000
00000000
10100000
00000000
01000000
00010000
00100000
00000000
01000000
00010000
00001000
00010000
01000000
00100000
00010000
00100000
,
00002000
00000000
00003000
00000000
10001000
00000000
01000100
00000000
00010001
00000000
00000000
00000000
00000001
00000100
00001000
00000000
,
00000100
00000000
00000010
00000000
00001000
00000000
00000010
00000000
00000100
00000000
00001000
00000000
00020000
00000000
00000000
00000000
00030100
00010000
00000100
00010000
00000100
00000000
00001000
00000000
00000010
00000000
00000000
00000000
00000110
00000000
00000000
00000000
,
00002002
00000000
00003003
00000000
00010001
00000000
00100010
00000000
10001000
00000000
00000000
00000000
10000000
00100000
00010000
00000000
,
00100000
00000000
00010000
00000000
00001000
00000000
00010000
00000000
00100000
00000000
01000000
00000000
00002000
00000000
00000000
00000000
01003000
00001000
01000000
00001000
01000000
00000000
00010000
00000000
00100000
00000000
00000000
00000000
01001000
00000000
00000000
00000000
,
20000200
00000000
00000000
00000000
30000300
00000000
00000000
00000000
00000000
00000100
01000000
00000100
00100000
00001000
00010000
00000100
,
00000020
00000000
00000000
00000000
00000031
00000000
00000100
00000000
00001000
00000000
00010000
00000000
00000020
00000000
00000000
00000000
01000030
00001000
01000000
00001000
01000000
00000000
00001000
00000000
01000000
00000000
00000000
00000000
00010100
00000000
00000000
00000000
,
02000002
00000000
03000003
00000000
00000001
00000010
00001000
00000000
00200000
00000000
00300000
00000000
00100000
01000000
10000000
00000000
,
00200000
00000000
10300000
01000000
00010000
00001000
00100000
00000000
00101000
00000000
00010100
00000000
00000010
00100000
00001000
00000000
,
02000100
00000000
03010000
00100000
01000000
00010000
10000000
00100000
01000000
00010000
01000000
00100000
00001000
00010000
00000010
00000100
,
00002000
00000000
00003100
00001000
00000100
00000010
00000001
00001000
00000100
00000001
00000100
00000010
00001000
00000100
01000000
00010000
,
20000000
00000000
31000000
00100000
10000000
00100000
01000000
00010000
10000000
00010000
01000000
00100000
00001000
00010000
00000010
00001000
,
00000002
00000000
00000103
00000010
00000001
00001000
00000100
00001000
00000001
00000010
00001000
00000100
00010000
00001000
00100000
02000000
,
00020000
00000000
00000000
00000000
03030000
00000000
00000000
00000000
00000000
01000000
00010000
01000000
10000000
00100000
01000000
00010000
,
20000000
00000000
30100000
00010000
00001000
00100000
00010000
10000000
01000000
00010000
00001000
00100000
00001000
00010000
00000010
00000100
,
00000002
00000000
00001003
00000010
00000100
00000010
00010000
00001000
00000010
00001000
00100000
00010000
01000000
00100000
00010000
00000010
,
00000200
00000000
00000310
00010000
00001000
00000010
00000100
00010000
00100000
00010000
00100000
00010000
00000010
00001000
00100000
20000000
,
00002000
30003000
00000000
00000000
;
