#VERSION:0.83;
#TITLE:Disco Nights;
#SUBTITLE:;
#ARTIST:Relect;
#TITLETRANSLIT:;
#SUBTITLETRANSLIT:;
#ARTISTTRANSLIT:;
#GENRE:House;
#CREDIT:Haley Halcyon;
#MUSIC:Disco Nights.ogg;
#BANNER:Disco Nights.png;
#BACKGROUND:Disco Nights-bg.png;
#CDTITLE:cdtitle.png;
#SAMPLESTART:45.938;
#SAMPLELENGTH:15.000;
#SELECTABLE:YES;
#OFFSET:0.000;
#BPMS:0.000=120.000;
#STOPS:;
#SPEEDS:0.000=1.000=0.000=0;
#SCROLLS:0.000=1.000;
#TICKCOUNTS:0.000=4;
#TIMESIGNATURES:0.000=4=4;
#LABELS:0.000=Song Start;
#COMBOS:0.000=1;
#DISPLAYBPM:128.000;
#ORIGIN:DANCERUSH STARDOM;
#PREVIEWVID:;
#JACKET:Disco Nights-jacket.png;
#CDIMAGE:;
#DISCIMAGE:;
#BGCHANGES:;
#FGCHANGES:;

//--------------- dance-single - ----------------
#NOTEDATA:;
#STEPSTYPE:dance-single;
#DESCRIPTION:;
#DIFFICULTY:Beginner;
#METER:2;
#RADARVALUES:0,0,0,0,0,0,0,0,0,0,0,0,0,0,0,0,0,0,0,0,0,0,0,0,0,0,0,0;
#BPMS:0.000=128.000
,34.000=512.000
,35.000=128.000
,66.000=512.000
,66.500=128.000
,67.000=512.000
,67.500=128.000
,68.000=512.000
,68.500=128.000
,69.000=512.000
,69.500=128.000
,70.000=512.000
,70.500=128.000
,71.000=512.000
,71.500=128.000
,72.000=512.000
,72.500=128.000
,73.000=512.000
,73.500=128.000
,74.000=512.000
,74.500=128.000
,75.000=512.000
,75.500=128.000
,76.000=512.000
,76.500=128.000
,77.000=512.000
,77.500=128.000
,78.000=512.000
,78.500=128.000
,79.000=512.000
,79.500=128.000
,80.000=512.000
,80.500=128.000
,81.000=512.000
,81.500=128.000
;
#STOPS:34.000=0.176
,34.500=0.176
,66.000=0.176
,67.000=0.176
,68.000=0.176
,69.000=0.176
,70.000=0.176
,71.000=0.176
,72.000=0.176
,73.000=0.176
,74.000=0.176
,75.000=0.176
,76.000=0.176
,77.000=0.176
,78.000=0.176
,79.000=0.176
,80.000=0.176
,81.000=0.176
;
#SPEEDS:0.000=1.000=1.000=0,
82.000=0.950=0.250=0,
82.250=1.000=0.750=0,
83.000=0.950=0.250=0,
83.250=1.000=0.750=0,
84.000=0.925=0.250=0,
84.250=1.000=0.750=0,
85.000=0.975=0.250=0,
85.250=1.000=0.750=0,
86.000=0.900=0.250=0,
86.250=1.000=0.750=0,
87.000=0.900=0.250=0,
87.250=1.000=0.750=0,
88.000=0.800=0.250=0,
88.250=1.000=0.750=0,
89.000=0.950=0.250=0,
89.250=1.000=0.750=0,
90.000=0.800=0.250=0,
90.250=1.000=0.750=0,
91.000=0.800=0.250=0,
91.250=1.000=0.750=0,
92.000=0.700=0.250=0,
92.250=1.000=0.750=0,
93.000=0.850=0.250=0,
93.250=1.000=0.750=0,
94.000=0.800=0.250=0,
94.250=1.000=0.750=0,
95.000=0.800=0.250=0,
95.250=1.000=0.750=0,
96.000=0.700=0.250=0,
96.250=1.000=0.750=0,
97.000=0.850=0.250=0,
97.250=1.000=0.750=0,
99.000=0.800=0.250=0,
99.250=1.000=0.750=0,
100.000=0.700=0.250=0,
100.250=1.000=0.750=0,
101.000=0.850=0.250=0,
101.250=1.000=0.750=0,
102.000=0.800=0.250=0,
102.250=1.000=0.750=0,
103.000=0.600=0.167=0,
103.333=1.000=0.167=0,
103.500=0.650=0.167=0,
103.833=1.000=0.167=0,
104.000=0.700=0.167=0,
104.333=1.000=0.167=0,
104.500=0.750=0.167=0,
104.833=1.000=0.167=0,
105.000=0.800=0.167=0,
105.333=1.000=0.167=0,
105.500=0.850=0.167=0,
105.833=1.000=0.167=0,
107.000=0.800=0.250=0,
107.250=1.000=0.750=0,
108.000=0.850=0.250=0,
108.250=1.000=0.750=0,
109.000=0.700=0.250=0,
109.250=1.000=0.750=0,
110.000=0.800=0.250=0,
110.250=1.000=0.750=0,
111.000=0.600=0.167=0,
111.333=1.000=0.167=0,
111.500=0.650=0.167=0,
111.833=1.000=0.167=0,
112.000=0.700=0.167=0,
112.333=1.000=0.167=0,
112.500=0.750=0.167=0,
112.833=1.000=0.167=0,
113.000=0.800=0.167=0,
113.333=1.000=0.167=0,
113.500=0.850=0.167=0,
113.833=1.000=0.167=0,
115.000=0.800=0.250=0,
115.250=1.000=0.750=0,
116.000=0.700=0.250=0,
116.250=1.000=0.750=0,
117.000=0.850=0.250=0,
117.250=1.000=0.750=0,
118.000=0.800=0.250=0,
118.250=1.000=0.750=0,
119.000=0.600=0.167=0,
119.333=1.000=0.167=0,
119.500=0.650=0.167=0,
119.833=1.000=0.167=0,
120.000=0.700=0.167=0,
120.333=1.000=0.167=0,
120.500=0.750=0.167=0,
120.833=1.000=0.167=0,
121.000=0.800=0.167=0,
121.333=1.000=0.167=0,
121.500=0.850=0.167=0,
121.833=1.000=0.167=0,
131.000=0.800=0.250=0,
131.250=1.000=0.750=0,
132.000=0.700=0.250=0,
132.250=1.000=0.750=0,
133.000=0.850=0.250=0,
133.250=1.000=0.750=0,
134.000=0.800=0.250=0,
134.250=1.000=0.750=0,
135.000=0.600=0.167=0,
135.333=1.000=0.167=0,
135.500=0.650=0.167=0,
135.833=1.000=0.167=0,
136.000=0.700=0.167=0,
136.333=1.000=0.167=0,
136.500=0.750=0.167=0,
136.833=1.000=0.167=0,
137.000=0.800=0.167=0,
137.333=1.000=0.167=0,
137.500=0.850=0.167=0,
137.833=1.000=0.167=0,
139.000=0.800=0.250=0,
139.250=1.000=0.750=0,
140.000=0.850=0.250=0,
140.250=1.000=0.750=0,
141.000=0.700=0.250=0,
141.250=1.000=0.750=0,
142.000=0.800=0.250=0,
142.250=1.000=0.750=0,
143.000=0.600=0.167=0,
143.333=1.000=0.167=0,
143.500=0.650=0.167=0,
143.833=1.000=0.167=0,
144.000=0.700=0.167=0,
144.333=1.000=0.167=0,
144.500=0.750=0.167=0,
144.833=1.000=0.167=0,
145.000=0.800=0.167=0,
145.333=1.000=0.167=0,
145.500=0.850=0.167=0,
145.833=1.000=0.167=0,
147.000=0.800=0.250=0,
147.250=1.000=0.750=0,
148.000=0.700=0.250=0,
148.250=1.000=0.750=0,
149.000=0.850=0.250=0,
149.250=1.000=0.750=0,
150.000=0.800=0.250=0,
150.250=1.000=0.750=0,
151.000=0.600=0.167=0,
151.333=1.000=0.167=0,
151.500=0.650=0.167=0,
151.833=1.000=0.167=0,
152.000=0.700=0.167=0,
152.333=1.000=0.167=0,
152.500=0.750=0.167=0,
152.833=1.000=0.167=0,
153.000=0.800=0.167=0,
153.333=1.000=0.167=0,
153.500=0.850=0.167=0,
153.833=1.000=0.167=0,
155.000=0.800=0.250=0,
155.250=1.000=0.750=0,
156.000=0.850=0.250=0,
156.250=1.000=0.750=0,
157.000=0.700=0.250=0,
157.250=1.000=0.750=0,
158.000=0.800=0.250=0,
158.250=1.000=0.750=0,
159.000=0.800=0.167=0,
159.333=1.000=0.167=0,
159.500=0.750=0.167=0,
159.833=1.000=0.167=0,
160.000=0.700=0.167=0,
160.333=1.000=0.167=0,
160.500=0.650=0.167=0,
160.833=1.000=0.167=0,
161.000=0.600=0.167=0,
161.333=1.000=0.167=0,
161.500=0.550=0.167=0,
161.833=1.000=0.167=0
;
#SCROLLS:0.000=1.000,
82.000=3.250,
82.125=0.250,
82.500=3.250,
82.625=0.250,
83.000=3.250,
83.125=0.250,
83.500=3.250,
83.625=0.250,
84.000=3.250,
84.125=0.250,
84.500=3.250,
84.625=0.250,
85.000=3.250,
85.125=0.250,
85.500=3.250,
85.625=0.250,
86.000=3.250,
86.125=0.250,
86.500=3.250,
86.625=0.250,
87.000=3.250,
87.125=0.250,
87.500=3.250,
87.625=0.250,
88.000=3.250,
88.125=0.250,
88.500=3.250,
88.625=0.250,
89.000=3.250,
89.125=0.250,
89.500=3.250,
89.625=0.250,
90.000=3.250,
90.125=0.250,
90.500=3.250,
90.625=0.250,
91.000=3.250,
91.125=0.250,
91.500=3.250,
91.625=0.250,
92.000=3.250,
92.125=0.250,
92.500=3.250,
92.625=0.250,
93.000=3.250,
93.125=0.250,
93.500=3.250,
93.625=0.250,
94.000=2.000,
94.063=0.500,
94.188=1.000,
94.333=2.000,
94.396=0.500,
94.500=2.000,
94.563=0.500,
94.688=1.000,
94.833=2.000,
94.896=0.500,
95.000=2.000,
95.063=0.500,
95.188=1.000,
95.333=2.000,
95.396=0.500,
95.500=2.000,
95.563=0.500,
95.688=1.000,
95.833=2.000,
95.896=0.500,
96.000=2.000,
96.063=0.500,
96.188=1.000,
96.333=2.000,
96.396=0.500,
96.500=2.000,
96.563=0.500,
96.688=1.000,
96.833=2.000,
96.896=0.500,
97.000=2.000,
97.063=0.500,
97.188=1.000,
97.333=2.000,
97.396=0.500,
97.500=2.000,
97.563=0.500,
97.688=1.000,
97.833=2.000,
97.896=0.500,
98.000=2.000,
98.500=0.000,
103.000=0.500,
106.000=2.000,
107.000=1.000,
114.000=2.000,
115.000=1.000,
130.000=2.000,
131.000=1.000,
133.500=4.000,
133.625=0.000,
134.000=1.000,
138.000=2.000,
139.000=1.000,
146.000=2.000,
147.000=1.000,
154.000=2.000,
155.000=1.000
;
#TICKCOUNTS:0.000=1;
#TIMESIGNATURES:0.000=4=4;
#LABELS:0.000=Song Start;
#COMBOS:0.000=1;
#DISPLAYBPM:128.000;
#CHARTNAME:;
#CHARTSTYLE:;
#CREDIT:Best @ 1~1.5x;
#NOTES:
0000
0000
1000
0000
,
1000
0000
0001
0000
,
0001
0000
1000
0000
,
1000
0000
0001
0000
,
0001
0000
1000
0000
,
0100
0000
1000
0000
,
0100
0000
0010
0000
,
0001
0000
0010
0000
,
0001
0000
1000
0000
,
1000
0000
0001
0000
,
0001
0000
0010
0000
,
0100
0000
0010
0000
,
0100
0000
1000
0000
,
1000
0000
0001
0000
,
0001
0000
0100
0000
,
0010
0000
0100
0000
,
0010
0000
1000
0000
,
1000
0000
0001
0000
,
0001
0000
1000
0000
,
1000
0000
0001
0000
,
0001
0000
0010
0000
,
0100
0000
1000
0000
,
0010
0000
0100
0000
,
0001
0000
1000
0000
,
0001
0000
0000
0000
2002
3003
0000
0000
,
0000
0000
0000
0000
,
0000
0000
2002
3003
,
0010
0000
0100
0000
,
1000
0000
2002
3003
,
1000
0000
0010
0000
,
0100
0000
0001
0000
,
0001
0000
1000
0000
,
1000
0000
2002
3003
,
0000
0000
0100
0000
,
0010
0000
2002
3003
,
0001
0000
0010
0000
,
0100
0000
2002
3003
,
1000
0000
0010
0000
,
0100
0000
2002
3003
,
0001
0000
0100
0000
,
0100
0000
0001
0000
,
1000
0000
0001
0000
,
1000
0000
0010
0000
,
0100
0000
0010
0000
,
0100
0000
0001
0000
,
0010
0000
0001
0000
,
0010
0000
0100
0000
,
1000
0000
0100
0000
,
1000
0000
0002
0000
,
0000
0000
0000
0000
,
0000
0000
0003
0000
;

//--------------- dance-single - ----------------
#NOTEDATA:;
#STEPSTYPE:dance-single;
#DESCRIPTION:;
#DIFFICULTY:Easy;
#METER:4;
#RADARVALUES:0.219139,0.443431,0,0.25397,0.294605,151,151,0,25,0,0,6,0,176,0.219139,0.443431,0,0.25397,0.294605,151,151,0,25,0,0,6,0,176;
#BPMS:0.000=128.000
,34.000=512.000
,35.000=128.000
,66.000=512.000
,66.500=128.000
,67.000=512.000
,67.500=128.000
,68.000=512.000
,68.500=128.000
,69.000=512.000
,69.500=128.000
,70.000=512.000
,70.500=128.000
,71.000=512.000
,71.500=128.000
,72.000=512.000
,72.500=128.000
,73.000=512.000
,73.500=128.000
,74.000=512.000
,74.500=128.000
,75.000=512.000
,75.500=128.000
,76.000=512.000
,76.500=128.000
,77.000=512.000
,77.500=128.000
,78.000=512.000
,78.500=128.000
,79.000=512.000
,79.500=128.000
,80.000=512.000
,80.500=128.000
,81.000=512.000
,81.500=128.000
,360.000=512.000
,361.000=128.000
;
#STOPS:34.000=0.176
,34.500=0.176
,66.000=0.176
,67.000=0.176
,68.000=0.176
,69.000=0.176
,70.000=0.176
,71.000=0.176
,72.000=0.176
,73.000=0.176
,74.000=0.176
,75.000=0.176
,76.000=0.176
,77.000=0.176
,78.000=0.176
,79.000=0.176
,80.000=0.176
,81.000=0.176
,360.000=0.352
;
#WARPS:98.000=5.125,
103.250=5.125,
108.500=5.125,
113.750=5.125,
119.000=5.500,
132.000=5.125,
137.250=5.125,
142.500=5.125,
147.750=5.125,
153.000=5.500,
166.000=5.125,
171.250=5.125,
176.500=5.125,
181.750=5.125,
187.000=5.500,
208.000=5.125,
213.250=5.125,
218.500=5.125,
223.750=5.125,
229.000=5.500,
242.000=5.125,
247.250=5.125,
252.500=5.125,
257.750=5.125,
263.000=5.500,
276.000=5.125,
281.250=5.125,
286.500=5.125,
291.750=5.125,
297.000=5.500,
310.000=5.125,
315.250=5.125,
320.500=5.125,
325.750=5.125,
331.000=5.500,
376.000=4.000
;
#SPEEDS:0.000=1.000=1.000=0,
82.000=0.950=0.250=0,
82.250=1.000=0.750=0,
83.000=0.950=0.250=0,
83.250=1.000=0.750=0,
84.000=0.925=0.250=0,
84.250=1.000=0.750=0,
85.000=0.975=0.250=0,
85.250=1.000=0.750=0,
86.000=0.900=0.250=0,
86.250=1.000=0.750=0,
87.000=0.900=0.250=0,
87.250=1.000=0.750=0,
88.000=0.800=0.250=0,
88.250=1.000=0.750=0,
89.000=0.950=0.250=0,
89.250=1.000=0.750=0,
90.000=0.800=0.250=0,
90.250=1.000=0.750=0,
91.000=0.800=0.250=0,
91.250=1.000=0.750=0,
92.000=0.700=0.250=0,
92.250=1.000=0.750=0,
93.000=0.850=0.250=0,
93.250=1.000=0.750=0,
94.000=0.800=0.250=0,
94.250=1.000=0.750=0,
95.000=0.800=0.250=0,
95.250=1.000=0.750=0,
96.000=0.700=0.250=0,
96.250=1.000=0.750=0,
97.000=0.850=0.250=0,
97.250=1.000=0.750=0,
125.000=0.800=0.250=0,
125.250=1.000=0.750=0,
126.000=0.700=0.250=0,
126.250=1.000=0.750=0,
127.000=0.850=0.250=0,
127.250=1.000=0.750=0,
128.000=0.800=0.250=0,
128.250=1.000=0.750=0,
129.000=0.600=0.167=0,
129.333=1.000=0.167=0,
129.500=0.650=0.167=0,
129.833=1.000=0.167=0,
130.000=0.700=0.167=0,
130.333=1.000=0.167=0,
130.500=0.750=0.167=0,
130.833=1.000=0.167=0,
131.000=0.800=0.167=0,
131.333=1.000=0.167=0,
131.500=0.850=0.167=0,
131.833=1.000=0.167=0,
159.000=0.800=0.250=0,
159.250=1.000=0.750=0,
160.000=0.850=0.250=0,
160.250=1.000=0.750=0,
161.000=0.700=0.250=0,
161.250=1.000=0.750=0,
162.000=0.800=0.250=0,
162.250=1.000=0.750=0,
163.000=0.600=0.167=0,
163.333=1.000=0.167=0,
163.500=0.650=0.167=0,
163.833=1.000=0.167=0,
164.000=0.700=0.167=0,
164.333=1.000=0.167=0,
164.500=0.750=0.167=0,
164.833=1.000=0.167=0,
165.000=0.800=0.167=0,
165.333=1.000=0.167=0,
165.500=0.850=0.167=0,
165.833=1.000=0.167=0,
193.000=0.800=0.250=0,
193.250=1.000=0.750=0,
194.000=0.700=0.250=0,
194.250=1.000=0.750=0,
195.000=0.850=0.250=0,
195.250=1.000=0.750=0,
196.000=0.800=0.250=0,
196.250=1.000=0.750=0,
197.000=0.600=0.167=0,
197.333=1.000=0.167=0,
197.500=0.650=0.167=0,
197.833=1.000=0.167=0,
198.000=0.700=0.167=0,
198.333=1.000=0.167=0,
198.500=0.750=0.167=0,
198.833=1.000=0.167=0,
199.000=0.800=0.167=0,
199.333=1.000=0.167=0,
199.500=0.850=0.167=0,
199.833=1.000=0.167=0,
235.000=0.800=0.250=0,
235.250=1.000=0.750=0,
236.000=0.700=0.250=0,
236.250=1.000=0.750=0,
237.000=0.850=0.250=0,
237.250=1.000=0.750=0,
238.000=0.800=0.250=0,
238.250=1.000=0.750=0,
239.000=0.600=0.167=0,
239.333=1.000=0.167=0,
239.500=0.650=0.167=0,
239.833=1.000=0.167=0,
240.000=0.700=0.167=0,
240.333=1.000=0.167=0,
240.500=0.750=0.167=0,
240.833=1.000=0.167=0,
241.000=0.800=0.167=0,
241.333=1.000=0.167=0,
241.500=0.850=0.167=0,
241.833=1.000=0.167=0,
269.000=0.800=0.250=0,
269.250=1.000=0.750=0,
270.000=0.850=0.250=0,
270.250=1.000=0.750=0,
271.000=0.700=0.250=0,
271.250=1.000=0.750=0,
272.000=0.800=0.250=0,
272.250=1.000=0.750=0,
273.000=0.600=0.167=0,
273.333=1.000=0.167=0,
273.500=0.650=0.167=0,
273.833=1.000=0.167=0,
274.000=0.700=0.167=0,
274.333=1.000=0.167=0,
274.500=0.750=0.167=0,
274.833=1.000=0.167=0,
275.000=0.800=0.167=0,
275.333=1.000=0.167=0,
275.500=0.850=0.167=0,
275.833=1.000=0.167=0,
303.000=0.800=0.250=0,
303.250=1.000=0.750=0,
304.000=0.700=0.250=0,
304.250=1.000=0.750=0,
305.000=0.850=0.250=0,
305.250=1.000=0.750=0,
306.000=0.800=0.250=0,
306.250=1.000=0.750=0,
307.000=0.600=0.167=0,
307.333=1.000=0.167=0,
307.500=0.650=0.167=0,
307.833=1.000=0.167=0,
308.000=0.700=0.167=0,
308.333=1.000=0.167=0,
308.500=0.750=0.167=0,
308.833=1.000=0.167=0,
309.000=0.800=0.167=0,
309.333=1.000=0.167=0,
309.500=0.850=0.167=0,
309.833=1.000=0.167=0,
337.000=0.800=0.250=0,
337.250=1.000=0.750=0,
338.000=0.850=0.250=0,
338.250=1.000=0.750=0,
339.000=0.700=0.250=0,
339.250=1.000=0.750=0,
340.000=0.800=0.250=0,
340.250=1.000=0.750=0,
341.000=0.800=0.167=0,
341.333=1.000=0.167=0,
341.500=0.750=0.167=0,
341.833=1.000=0.167=0,
342.000=0.700=0.167=0,
342.333=1.000=0.167=0,
342.500=0.650=0.167=0,
342.833=1.000=0.167=0,
343.000=0.600=0.167=0,
343.333=1.000=0.167=0,
343.500=0.550=0.167=0,
343.833=1.000=0.167=0,
380.000=0.063=8.000=0,
388.000=1.000=0.000=0
;
#SCROLLS:0.000=1.000,
82.000=3.250,
82.125=0.250,
82.500=3.250,
82.625=0.250,
83.000=3.250,
83.125=0.250,
83.500=3.250,
83.625=0.250,
84.000=3.250,
84.125=0.250,
84.500=3.250,
84.625=0.250,
85.000=3.250,
85.125=0.250,
85.500=3.250,
85.625=0.250,
86.000=3.250,
86.125=0.250,
86.500=3.250,
86.625=0.250,
87.000=3.250,
87.125=0.250,
87.500=3.250,
87.625=0.250,
88.000=3.250,
88.125=0.250,
88.500=3.250,
88.625=0.250,
89.000=3.250,
89.125=0.250,
89.500=3.250,
89.625=0.250,
90.000=3.250,
90.125=0.250,
90.500=3.250,
90.625=0.250,
91.000=3.250,
91.125=0.250,
91.500=3.250,
91.625=0.250,
92.000=3.250,
92.125=0.250,
92.500=3.250,
92.625=0.250,
93.000=3.250,
93.125=0.250,
93.500=3.250,
93.625=0.250,
94.000=2.000,
94.063=0.500,
94.188=1.000,
94.333=2.000,
94.396=0.500,
94.500=2.000,
94.563=0.500,
94.688=1.000,
94.833=2.000,
94.896=0.500,
95.000=2.000,
95.063=0.500,
95.188=1.000,
95.333=2.000,
95.396=0.500,
95.500=2.000,
95.563=0.500,
95.688=1.000,
95.833=2.000,
95.896=0.500,
96.000=2.000,
96.063=0.500,
96.188=1.000,
96.333=2.000,
96.396=0.500,
96.500=2.000,
96.563=0.500,
96.688=1.000,
96.833=2.000,
96.896=0.500,
97.000=2.000,
97.063=0.500,
97.188=1.000,
97.333=2.000,
97.396=0.500,
97.500=2.000,
97.563=0.500,
97.688=1.000,
97.833=2.000,
97.896=0.500,
98.021=1.000,
103.000=16.000,
103.125=0.000,
103.271=1.000,
108.250=16.000,
108.375=0.000,
108.521=1.000,
113.500=16.000,
113.625=0.000,
113.771=1.000,
118.750=16.000,
118.875=0.000,
119.021=1.000,
124.375=16.000,
124.500=2.000,
125.000=0.000,
129.000=0.500,
132.021=1.000,
137.000=16.000,
137.125=0.000,
137.271=1.000,
142.250=16.000,
142.375=0.000,
142.521=1.000,
147.500=16.000,
147.625=0.000,
147.771=1.000,
152.750=16.000,
152.875=0.000,
153.021=1.000,
158.375=16.000,
158.500=2.000,
159.000=1.000,
171.000=16.000,
171.125=0.000,
171.271=1.000,
176.250=16.000,
176.375=0.000,
176.521=1.000,
181.500=16.000,
181.625=0.000,
181.771=1.000,
186.750=16.000,
186.875=0.000,
187.021=1.000,
192.375=16.000,
192.500=2.000,
193.000=1.000,
213.000=16.000,
213.125=0.000,
213.271=1.000,
218.250=16.000,
218.375=0.000,
218.521=1.000,
223.500=16.000,
223.625=0.000,
223.771=1.000,
228.750=16.000,
228.875=0.000,
229.021=1.000,
234.375=16.000,
234.500=2.000,
235.000=1.000,
237.500=4.000,
237.625=0.000,
238.000=1.000,
247.000=16.000,
247.125=0.000,
247.271=1.000,
252.250=16.000,
252.375=0.000,
252.521=1.000,
257.500=16.000,
257.625=0.000,
257.771=1.000,
262.750=16.000,
262.875=0.000,
263.021=1.000,
268.375=16.000,
268.500=2.000,
269.000=1.000,
281.000=16.000,
281.125=0.000,
281.271=1.000,
286.250=16.000,
286.375=0.000,
286.521=1.000,
291.500=16.000,
291.625=0.000,
291.771=1.000,
296.750=16.000,
296.875=0.000,
297.021=1.000,
302.375=16.000,
302.500=2.000,
303.000=1.000,
315.000=16.000,
315.125=0.000,
315.271=1.000,
320.250=16.000,
320.375=0.000,
320.521=1.000,
325.500=16.000,
325.625=0.000,
325.771=1.000,
330.750=16.000,
330.875=0.000,
331.021=1.000,
336.375=16.000,
336.500=2.000,
337.000=1.000,
379.000=32.000,
380.000=0.400
;
#TICKCOUNTS:0.000=1;
#TIMESIGNATURES:0.000=4=4;
#LABELS:0.000=Song Start;
#COMBOS:0.000=1;
#DISPLAYBPM:128.000;
#CHARTNAME:;
#CHARTSTYLE:;
#CREDIT:Best @ 1~2x;
#NOTES:
0000
0000
1000
0001
,
0000
0001
0000
0001
,
0000
0001
0000
1000
,
0000
1000
0000
1000
,
0000
1000
0100
0010
,
0000
0010
0000
0010
,
0000
0010
0000
0100
,
0000
0100
0000
0100
,
0000
0100
1000
1000
,
0001
0001
0010
0010
,
0100
0100
1000
1000
,
0001
0001
0100
0100
,
0010
0010
0000
1000
,
0010
0010
0100
0100
,
0001
0001
1000
1000
,
0100
0100
0010
0010
,
0001
0001
1000
0100
,
1000
0100
1000
0100
,
1000
0100
0010
0001
,
0010
0001
0010
0001
,
0010
0001
1000
1000
,
0010
0100
0001
0001
,
0010
0100
1000
1000
,
0100
0010
0001
0001
,
0100
0010
4000
3101
,
1010
0000
0000
0000
0101
0000
0000
0000
1010
0000
0000
0000
0000
2020
3030
0000
,
0000
0202
0303
0000
0000
2020
3030
0000
0000
0202
0303
0000
0000
2020
3030
0000
,
0000
2020
3030
0202
0303
2020
3030
0202
,
0303
0000
2020
0000
3030
0000
0000
2020
0000
0000
3030
0202
0000
0000
0303
2020
,
0000
0000
3030
0202
0000
0000
0303
2020
0000
0000
3030
0000
2020
0000
0000
0000
,
3232
2323
3232
2323
,
3030
0000
0000
0000
,
0000
0000
0000
0000
,
0004
1003
0010
0100
,
0001
0000
0000
0000
0000
0000
0000
0000
0000
2000
3000
0000
0000
0020
0030
0000
,
0000
0200
0300
0000
0000
0002
0003
0000
0000
0000
0000
0000
0000
0000
2000
0000
,
3000
0020
0030
0200
0300
0002
0003
0000
,
0000
0000
0000
2000
0000
0000
3000
0020
0000
0000
0030
0200
0000
0000
0300
0002
,
0000
0003
0000
0000
2000
0000
3020
0000
,
0230
0302
0003
2000
,
3020
0230
0302
4003
,
0000
0000
3004
0103
,
0010
1000
0001
0000
,
0000
0200
0300
0000
0000
0020
0030
0000
0000
2000
3000
0000
0000
0002
0003
0000
,
0000
0000
0000
0200
0300
0020
0030
2000
,
3000
0000
0002
0000
0003
0000
0000
0000
0000
0000
0000
0200
0000
0000
0300
0020
,
0000
0000
0030
2000
0000
0000
3000
0002
0000
0000
0003
0000
0000
0000
0000
0000
,
0200
0320
2030
3002
,
0003
0200
0320
2030
,
3002
0043
0000
0000
,
0130
1000
0001
0100
,
0010
0100
0001
1000
,
0004
0103
1000
0100
,
0001
0000
0000
0000
0000
0000
0000
0000
0000
0200
0300
0000
0000
2000
3000
0000
,
0000
0200
0300
0000
0000
0002
0003
0000
0000
0000
0000
0000
0000
0000
0200
0000
,
0300
2000
3000
0200
0300
0002
0003
0000
,
0000
0000
0000
0200
0000
0000
0300
2000
0000
0000
3000
0200
0000
0000
0300
0002
,
0000
0003
0000
0000
0200
0000
2300
0000
,
3200
0302
0003
0200
,
2300
3200
0302
4003
,
0000
0000
3004
0013
,
1000
0010
0001
0000
,
0000
0020
0030
0000
0000
2000
3000
0000
0000
0020
0030
0000
0000
0002
0003
0000
,
0000
0000
0000
0020
0030
2000
3000
0020
,
0030
0000
0002
0000
0003
0000
0000
0000
0000
0000
0000
0020
0000
0000
0030
2000
,
0000
0000
3000
0020
0000
0000
0030
0002
0000
0000
0003
0000
0000
0000
0000
0000
,
0020
2030
3020
0032
,
0003
0020
2030
3020
,
0032
4003
0000
0000
,
3004
0103
1000
0001
,
0010
0000
0000
0000
0000
0000
0000
0000
0000
0200
0300
0000
0000
2000
3000
0000
,
0000
0002
0003
0000
0000
0020
0030
0000
0000
0000
0000
0000
0000
0000
0200
0000
,
0300
2000
3000
0002
0003
0020
0030
0000
,
0000
0000
0000
0200
0000
0000
0300
2000
0000
0000
3000
0002
0000
0000
0003
0020
,
0000
0030
0000
0000
0200
0000
2300
0000
,
3002
0023
0030
0200
,
2300
3002
0023
4030
,
0000
0000
3004
0013
,
1000
0001
0100
0000
,
0000
0020
0030
0000
0000
2000
3000
0000
0000
0002
0003
0000
0000
0200
0300
0000
,
0000
0000
0000
0020
0030
2000
3000
0002
,
0003
0000
0200
0000
0300
0000
0000
0000
0000
0000
0000
0020
0000
0000
0030
2000
,
0000
0000
3000
0002
0000
0000
0003
0200
0000
0000
0300
0000
0000
0000
0000
0000
,
0020
2030
3002
0203
,
0300
0020
2030
3002
,
0203
4300
0000
0000
,
3001
0100
0010
0100
,
0001
0100
0010
1000
,
1000
0100
0010
0100
,
1000
0100
0010
0001
,
0000
1000
0010
0100
,
0010
1000
0100
0010
,
0001
0100
0010
0100
,
0001
0010
0100
1000
,
0001
0000
0000
0000
,
0002
0000
0000
0000
,
0000
0000
0000
0000
,
0003
0000
0000
0000
;

//--------------- dance-single - ----------------
#NOTEDATA:;
#STEPSTYPE:dance-single;
#DESCRIPTION:;
#DIFFICULTY:Medium;
#METER:8;
#RADARVALUES:0.354106,0.788321,0.010159,0.731432,0.457145,244,243,1,72,0,0,0,0,221,0.354106,0.788321,0.010159,0.731432,0.457145,244,243,1,72,0,0,0,0,221;
#BPMS:0.000=128.000
,34.000=512.000
,35.000=128.000
,66.000=512.000
,66.500=128.000
,67.000=512.000
,67.500=128.000
,68.000=512.000
,68.500=128.000
,69.000=512.000
,69.500=128.000
,70.000=512.000
,70.500=128.000
,71.000=512.000
,71.500=128.000
,72.000=512.000
,72.500=128.000
,73.000=512.000
,73.500=128.000
,74.000=512.000
,74.500=128.000
,75.000=512.000
,75.500=128.000
,76.000=512.000
,76.500=128.000
,77.000=512.000
,77.500=128.000
,78.000=512.000
,78.500=128.000
,79.000=512.000
,79.500=128.000
,80.000=512.000
,80.500=128.000
,81.000=512.000
,81.500=128.000
,360.000=512.000
,361.000=128.000
;
#STOPS:34.000=0.176
,34.500=0.176
,66.000=0.176
,67.000=0.176
,68.000=0.176
,69.000=0.176
,70.000=0.176
,71.000=0.176
,72.000=0.176
,73.000=0.176
,74.000=0.176
,75.000=0.176
,76.000=0.176
,77.000=0.176
,78.000=0.176
,79.000=0.176
,80.000=0.176
,81.000=0.176
,360.000=0.352
;
#WARPS:98.000=5.125,
103.250=5.125,
108.500=5.125,
113.750=5.125,
119.000=5.500,
132.000=5.125,
137.250=5.125,
142.500=5.125,
147.750=5.125,
153.000=5.500,
166.000=5.125,
171.250=5.125,
176.500=5.125,
181.750=5.125,
187.000=5.500,
208.000=5.125,
213.250=5.125,
218.500=5.125,
223.750=5.125,
229.000=5.500,
242.000=5.125,
247.250=5.125,
252.500=5.125,
257.750=5.125,
263.000=5.500,
276.000=5.125,
281.250=5.125,
286.500=5.125,
291.750=5.125,
297.000=5.500,
310.000=5.125,
315.250=5.125,
320.500=5.125,
325.750=5.125,
331.000=5.500,
376.000=4.000
;
#SPEEDS:0.000=1.000=1.000=0,
82.000=0.950=0.250=0,
82.250=1.000=0.750=0,
83.000=0.950=0.250=0,
83.250=1.000=0.750=0,
84.000=0.925=0.250=0,
84.250=1.000=0.750=0,
85.000=0.975=0.250=0,
85.250=1.000=0.750=0,
86.000=0.900=0.250=0,
86.250=1.000=0.750=0,
87.000=0.900=0.250=0,
87.250=1.000=0.750=0,
88.000=0.800=0.250=0,
88.250=1.000=0.750=0,
89.000=0.950=0.250=0,
89.250=1.000=0.750=0,
90.000=0.800=0.250=0,
90.250=1.000=0.750=0,
91.000=0.800=0.250=0,
91.250=1.000=0.750=0,
92.000=0.700=0.250=0,
92.250=1.000=0.750=0,
93.000=0.850=0.250=0,
93.250=1.000=0.750=0,
94.000=0.800=0.250=0,
94.250=1.000=0.750=0,
95.000=0.800=0.250=0,
95.250=1.000=0.750=0,
96.000=0.700=0.250=0,
96.250=1.000=0.750=0,
97.000=0.850=0.250=0,
97.250=1.000=0.750=0,
125.000=0.800=0.250=0,
125.250=1.000=0.750=0,
126.000=0.700=0.250=0,
126.250=1.000=0.750=0,
127.000=0.850=0.250=0,
127.250=1.000=0.750=0,
128.000=0.800=0.250=0,
128.250=1.000=0.750=0,
129.000=0.600=0.167=0,
129.333=1.000=0.167=0,
129.500=0.650=0.167=0,
129.833=1.000=0.167=0,
130.000=0.700=0.167=0,
130.333=1.000=0.167=0,
130.500=0.750=0.167=0,
130.833=1.000=0.167=0,
131.000=0.800=0.167=0,
131.333=1.000=0.167=0,
131.500=0.850=0.167=0,
131.833=1.000=0.167=0,
159.000=0.800=0.250=0,
159.250=1.000=0.750=0,
160.000=0.850=0.250=0,
160.250=1.000=0.750=0,
161.000=0.700=0.250=0,
161.250=1.000=0.750=0,
162.000=0.800=0.250=0,
162.250=1.000=0.750=0,
163.000=0.600=0.167=0,
163.333=1.000=0.167=0,
163.500=0.650=0.167=0,
163.833=1.000=0.167=0,
164.000=0.700=0.167=0,
164.333=1.000=0.167=0,
164.500=0.750=0.167=0,
164.833=1.000=0.167=0,
165.000=0.800=0.167=0,
165.333=1.000=0.167=0,
165.500=0.850=0.167=0,
165.833=1.000=0.167=0,
193.000=0.800=0.250=0,
193.250=1.000=0.750=0,
194.000=0.700=0.250=0,
194.250=1.000=0.750=0,
195.000=0.850=0.250=0,
195.250=1.000=0.750=0,
196.000=0.800=0.250=0,
196.250=1.000=0.750=0,
197.000=0.600=0.167=0,
197.333=1.000=0.167=0,
197.500=0.650=0.167=0,
197.833=1.000=0.167=0,
198.000=0.700=0.167=0,
198.333=1.000=0.167=0,
198.500=0.750=0.167=0,
198.833=1.000=0.167=0,
199.000=0.800=0.167=0,
199.333=1.000=0.167=0,
199.500=0.850=0.167=0,
199.833=1.000=0.167=0,
235.000=0.800=0.250=0,
235.250=1.000=0.750=0,
236.000=0.700=0.250=0,
236.250=1.000=0.750=0,
237.000=0.850=0.250=0,
237.250=1.000=0.750=0,
238.000=0.800=0.250=0,
238.250=1.000=0.750=0,
239.000=0.600=0.167=0,
239.333=1.000=0.167=0,
239.500=0.650=0.167=0,
239.833=1.000=0.167=0,
240.000=0.700=0.167=0,
240.333=1.000=0.167=0,
240.500=0.750=0.167=0,
240.833=1.000=0.167=0,
241.000=0.800=0.167=0,
241.333=1.000=0.167=0,
241.500=0.850=0.167=0,
241.833=1.000=0.167=0,
269.000=0.800=0.250=0,
269.250=1.000=0.750=0,
270.000=0.850=0.250=0,
270.250=1.000=0.750=0,
271.000=0.700=0.250=0,
271.250=1.000=0.750=0,
272.000=0.800=0.250=0,
272.250=1.000=0.750=0,
273.000=0.600=0.167=0,
273.333=1.000=0.167=0,
273.500=0.650=0.167=0,
273.833=1.000=0.167=0,
274.000=0.700=0.167=0,
274.333=1.000=0.167=0,
274.500=0.750=0.167=0,
274.833=1.000=0.167=0,
275.000=0.800=0.167=0,
275.333=1.000=0.167=0,
275.500=0.850=0.167=0,
275.833=1.000=0.167=0,
303.000=0.800=0.250=0,
303.250=1.000=0.750=0,
304.000=0.700=0.250=0,
304.250=1.000=0.750=0,
305.000=0.850=0.250=0,
305.250=1.000=0.750=0,
306.000=0.800=0.250=0,
306.250=1.000=0.750=0,
307.000=0.600=0.167=0,
307.333=1.000=0.167=0,
307.500=0.650=0.167=0,
307.833=1.000=0.167=0,
308.000=0.700=0.167=0,
308.333=1.000=0.167=0,
308.500=0.750=0.167=0,
308.833=1.000=0.167=0,
309.000=0.800=0.167=0,
309.333=1.000=0.167=0,
309.500=0.850=0.167=0,
309.833=1.000=0.167=0,
337.000=0.800=0.250=0,
337.250=1.000=0.750=0,
338.000=0.850=0.250=0,
338.250=1.000=0.750=0,
339.000=0.700=0.250=0,
339.250=1.000=0.750=0,
340.000=0.800=0.250=0,
340.250=1.000=0.750=0,
341.000=0.800=0.167=0,
341.333=1.000=0.167=0,
341.500=0.750=0.167=0,
341.833=1.000=0.167=0,
342.000=0.700=0.167=0,
342.333=1.000=0.167=0,
342.500=0.650=0.167=0,
342.833=1.000=0.167=0,
343.000=0.600=0.167=0,
343.333=1.000=0.167=0,
343.500=0.550=0.167=0,
343.833=1.000=0.167=0,
380.000=0.063=8.000=0,
388.000=1.000=0.000=0
;
#SCROLLS:0.000=1.000,
82.000=3.250,
82.125=0.250,
82.500=3.250,
82.625=0.250,
83.000=3.250,
83.125=0.250,
83.500=3.250,
83.625=0.250,
84.000=3.250,
84.125=0.250,
84.500=3.250,
84.625=0.250,
85.000=3.250,
85.125=0.250,
85.500=3.250,
85.625=0.250,
86.000=3.250,
86.125=0.250,
86.500=3.250,
86.625=0.250,
87.000=3.250,
87.125=0.250,
87.500=3.250,
87.625=0.250,
88.000=3.250,
88.125=0.250,
88.500=3.250,
88.625=0.250,
89.000=3.250,
89.125=0.250,
89.500=3.250,
89.625=0.250,
90.000=3.250,
90.125=0.250,
90.500=3.250,
90.625=0.250,
91.000=3.250,
91.125=0.250,
91.500=3.250,
91.625=0.250,
92.000=3.250,
92.125=0.250,
92.500=3.250,
92.625=0.250,
93.000=3.250,
93.125=0.250,
93.500=3.250,
93.625=0.250,
94.000=2.000,
94.063=0.500,
94.188=1.000,
94.333=2.000,
94.396=0.500,
94.500=2.000,
94.563=0.500,
94.688=1.000,
94.833=2.000,
94.896=0.500,
95.000=2.000,
95.063=0.500,
95.188=1.000,
95.333=2.000,
95.396=0.500,
95.500=2.000,
95.563=0.500,
95.688=1.000,
95.833=2.000,
95.896=0.500,
96.000=2.000,
96.063=0.500,
96.188=1.000,
96.333=2.000,
96.396=0.500,
96.500=2.000,
96.563=0.500,
96.688=1.000,
96.833=2.000,
96.896=0.500,
97.000=2.000,
97.063=0.500,
97.188=1.000,
97.333=2.000,
97.396=0.500,
97.500=2.000,
97.563=0.500,
97.688=1.000,
97.833=2.000,
97.896=0.500,
98.021=1.000,
103.000=16.000,
103.125=0.000,
103.271=1.000,
108.250=16.000,
108.375=0.000,
108.521=1.000,
113.500=16.000,
113.625=0.000,
113.771=1.000,
118.750=16.000,
118.875=0.000,
119.021=1.000,
124.375=16.000,
124.500=2.000,
125.000=0.000,
129.000=0.250,
132.021=1.000,
137.000=16.000,
137.125=0.000,
137.271=1.000,
142.250=16.000,
142.375=0.000,
142.521=1.000,
147.500=16.000,
147.625=0.000,
147.771=1.000,
152.750=16.000,
152.875=0.000,
153.021=1.000,
158.375=16.000,
158.500=2.000,
159.000=1.000,
171.000=16.000,
171.125=0.000,
171.271=1.000,
176.250=16.000,
176.375=0.000,
176.521=1.000,
181.500=16.000,
181.625=0.000,
181.771=1.000,
186.750=16.000,
186.875=0.000,
187.021=1.000,
192.375=16.000,
192.500=2.000,
193.000=1.000,
213.000=16.000,
213.125=0.000,
213.271=1.000,
218.250=16.000,
218.375=0.000,
218.521=1.000,
223.500=16.000,
223.625=0.000,
223.771=1.000,
228.750=16.000,
228.875=0.000,
229.021=1.000,
234.375=16.000,
234.500=2.000,
235.000=1.000,
237.500=4.000,
237.625=0.000,
238.000=1.000,
247.000=16.000,
247.125=0.000,
247.271=1.000,
252.250=16.000,
252.375=0.000,
252.521=1.000,
257.500=16.000,
257.625=0.000,
257.771=1.000,
262.750=16.000,
262.875=0.000,
263.021=1.000,
268.375=16.000,
268.500=2.000,
269.000=1.000,
281.000=16.000,
281.125=0.000,
281.271=1.000,
286.250=16.000,
286.375=0.000,
286.521=1.000,
291.500=16.000,
291.625=0.000,
291.771=1.000,
296.750=16.000,
296.875=0.000,
297.021=1.000,
302.375=16.000,
302.500=2.000,
303.000=1.000,
315.000=16.000,
315.125=0.000,
315.271=1.000,
320.250=16.000,
320.375=0.000,
320.521=1.000,
325.500=16.000,
325.625=0.000,
325.771=1.000,
330.750=16.000,
330.875=0.000,
331.021=1.000,
336.375=16.000,
336.500=2.000,
337.000=1.000,
379.000=32.000,
380.000=0.400
;
#TICKCOUNTS:0.000=1;
#TIMESIGNATURES:0.000=4=4;
#LABELS:0.000=Song Start;
#COMBOS:0.000=1;
#DISPLAYBPM:128.000;
#CHARTNAME:;
#CHARTSTYLE:;
#CREDIT:Best @ 2~3x;
#NOTES:
0000
0000
2000
0100
,
3002
0100
2003
0010
,
3002
0010
0203
1000
,
0302
2003
3200
0001
,
2300
0000
3001
1000
0200
0000
0010
0000
,
0001
0000
1300
0001
0200
0000
0010
0000
,
1000
0000
0301
1000
0100
0000
0010
0001
,
0100
0000
0010
1000
0100
0000
0001
0100
,
1000
0001
1000
0001
0100
0100
0001
0000
,
0100
0010
1000
0000
0010
0100
1000
0000
,
0100
0001
1000
0000
0200
0000
0302
0000
,
0023
2030
3002
0100
,
2003
0000
3010
0000
1000
0100
0010
0000
,
1000
0010
0001
0000
0010
0100
0001
0000
,
0100
1000
0001
0000
0200
0000
2300
0000
,
3020
0032
2003
0100
,
3002
0010
0203
2300
,
3200
2300
3002
0023
,
0230
0000
0301
1000
0200
0000
0302
0000
,
0203
0302
2003
3020
,
0230
0000
1300
0001
0200
0000
2300
0000
,
3002
2003
3200
0302
,
2003
0000
3200
0000
0301
0100
0001
0100
,
0010
0100
1000
0100
1000
0001
1000
0001
,
0010
0100
1000
0001
1000
0001
1000
0001
,
1000
0000
0001
0000
1000
0000
0001
0000
1000
0000
0000
0000
0000
1000
0000
0001
,
0000
1000
0000
0001
0000
1000
0000
0001
0000
1000
0000
0001
0000
1000
0000
0000
,
0000
1000
0001
1000
0001
1000
0001
1000
,
0001
0000
1000
0000
0000
0000
0000
1000
0000
0001
0000
1000
0000
0001
0000
1000
,
0000
0001
0000
1000
0000
0001
0000
1000
0000
0000
0000
0000
1000
0000
0001
0000
,
1000
0001
1000
0001
1000
0001
1000
0001
,
0000
0000
0000
0000
,
0000
0000
0000
0000
,
4000
3000
0000
0000
0200
0000
0000
0000
0302
0000
0000
0000
0023
0000
0000
0000
,
0030
0000
0000
0000
0000
4000
0000
3000
0000
0200
0000
0000
0000
0302
0000
0000
,
0000
0023
0000
0000
0000
2030
0000
0000
0000
3001
4000
0000
0000
0000
3200
0000
,
0000
0000
0302
0000
0000
0000
0023
0000
0000
0000
2030
0000
0000
0000
3001
4000
,
0000
0000
0000
0200
0000
3000
0000
0302
0000
0000
0000
0023
0000
0000
0000
2030
,
0000
0000
0000
3001
4000
0000
0000
0000
0200
0000
0000
0000
3302
0000
0000
0000
,
0023
0000
2030
3000
0000
0000
0200
0000
,
0302
0000
0023
0000
2030
0000
3001
0100
,
0001
0000
0100
0000
0001
0000
0100
0000
0004
0003
0000
0000
0200
0000
0000
0000
,
2300
0000
0000
0000
3020
0000
0000
0000
0030
0000
0000
0000
0000
0004
0000
0003
,
0000
0200
0000
0000
0000
2300
0000
0000
0000
3020
0000
0000
0000
0032
0000
0000
,
0000
1003
0004
0000
0000
0000
0203
0000
0000
0000
2300
0000
0000
0000
3020
0000
,
0000
0000
0032
0000
0000
0000
1003
0004
0000
0000
0000
0200
0000
0003
0000
2300
,
0000
0000
0000
3020
0000
0000
0000
0032
0000
0000
0000
1003
0004
0000
0000
0000
,
0200
0000
2303
0000
3020
0000
0032
0003
,
0000
0200
2300
3020
,
0032
0000
1003
0100
1000
0100
1000
0100
,
2000
0010
3002
0100
,
1003
0100
0001
0000
1000
0010
0001
0000
,
4000
3000
0000
0000
0020
0000
0000
0000
0032
0000
0000
0000
0023
0000
0000
0000
,
2030
0000
0000
0000
3001
4000
0000
3000
0000
0020
0000
0000
0000
0032
0000
0000
,
0000
0023
0000
0000
0000
2030
0000
0000
0000
3001
4000
0000
0000
0000
3020
0000
,
0000
0000
0032
0000
0000
0000
0023
0000
0000
0000
2030
0000
0000
0000
3001
4000
,
0000
0000
0000
0020
0000
3000
0000
0032
0000
0000
0000
0023
0000
0000
0000
2030
,
0000
0000
0000
3001
4000
0000
0000
0000
0020
0000
0000
0000
3032
0000
0000
0000
,
0023
2030
3001
0020
,
0032
0000
0023
0000
2030
0000
3001
0010
,
0100
0000
1000
0000
0010
0000
0100
0000
0004
0003
0000
0000
0020
0000
0000
0000
,
2030
0000
0000
0000
3020
0000
0000
0000
0032
0000
0000
0000
1003
0004
0000
0003
,
0000
0020
0000
0000
0000
2030
0000
0000
0000
3020
0000
0000
0000
0032
0000
0000
,
0000
1003
0004
0000
0000
0000
0023
0000
0000
0000
2030
0000
0000
0000
3020
0000
,
0000
0000
0032
0000
0000
0000
1003
0004
0000
0000
0000
0020
0000
0003
0000
2030
,
0000
0000
0000
3020
0000
0000
0000
0032
0000
0000
0000
1003
0004
0000
0000
0000
,
0020
2033
3020
0032
,
1003
0020
2030
3020
,
0032
0000
1003
0010
0100
0001
0010
0100
,
4000
3000
0000
0000
0200
0000
0000
0000
0302
0000
0000
0000
2003
0000
0000
0000
,
3020
0000
0000
0000
0031
4000
0000
3000
0000
0200
0000
0000
0000
0302
0000
0000
,
0000
2003
0000
0000
0000
3020
0000
0000
0000
0031
4000
0000
0000
0000
3200
0000
,
0000
0000
0302
0000
0000
0000
2003
0000
0000
0000
3020
0000
0000
0000
0031
4000
,
0000
0000
0000
0200
0000
3000
0000
0302
0000
0000
0000
2003
0000
0000
0000
3020
,
0000
0000
0000
0031
4000
0000
0000
0000
0200
0000
0000
0000
3302
0000
0000
0000
,
2003
3020
0031
0200
,
0302
0000
2003
0000
3020
0000
0031
0100
,
0010
0000
1000
0000
0100
0000
0010
0000
0004
0003
0000
0000
0200
0000
0000
0000
,
2300
0000
0000
0000
3002
0000
0000
0000
0023
0000
0000
0000
1030
0004
0000
0003
,
0000
0200
0000
0000
0000
2300
0000
0000
0000
3002
0000
0000
0000
0023
0000
0000
,
0000
1030
0004
0000
0000
0000
0203
0000
0000
0000
2300
0000
0000
0000
3002
0000
,
0000
0000
0023
0000
0000
0000
1030
0004
0000
0000
0000
0200
0000
0000
0000
2303
,
0000
0000
0000
3002
0000
0000
0000
0023
0000
0000
0000
1030
0004
0000
0000
0000
,
0200
2303
3002
0023
,
1030
0200
2300
3002
,
0023
0000
1030
0010
1000
0010
1000
0010
,
1000
0001
0100
0010
1000
0100
1000
0000
,
0001
0010
0100
0000
0001
0100
1000
0000
,
0001
1000
0010
0100
0001
1000
0100
0000
,
0001
0100
1000
0000
0010
0100
0001
0000
,
0000
0000
1001
0000
1000
0100
0010
0000
,
1000
0010
0001
0000
0100
0010
1000
0000
,
0001
0100
1000
0000
0100
0001
1000
0000
,
1000
0100
0001
0100
0010
0001
0100
0010
,
1000
0000
0000
0000
,
2000
0000
0000
0000
,
0000
0000
0000
0000
,
3000
0000
0000
0000
;

//--------------- dance-single - ----------------
#NOTEDATA:;
#STEPSTYPE:dance-single;
#DESCRIPTION:;
#DIFFICULTY:Hard;
#METER:12;
#RADARVALUES:0.449889,1.083942,0.274287,0.904132,1.015878,310,283,27,89,0,0,20,0,391,0.449889,1.083942,0.274287,0.904132,1.015878,310,283,27,89,0,0,20,0,391;
#BPMS:0.000=128.000
,34.000=512.000
,35.000=128.000
,66.000=512.000
,66.500=128.000
,67.000=512.000
,67.500=128.000
,68.000=512.000
,68.500=128.000
,69.000=512.000
,69.500=128.000
,70.000=512.000
,70.500=128.000
,71.000=512.000
,71.500=128.000
,72.000=512.000
,72.500=128.000
,73.000=512.000
,73.500=128.000
,74.000=512.000
,74.500=128.000
,75.000=512.000
,75.500=128.000
,76.000=512.000
,76.500=128.000
,77.000=512.000
,77.500=128.000
,78.000=512.000
,78.500=128.000
,79.000=512.000
,79.500=128.000
,80.000=512.000
,80.500=128.000
,81.000=512.000
,81.500=128.000
,360.000=512.000
,361.000=128.000
;
#STOPS:34.000=0.176
,34.500=0.176
,66.000=0.176
,67.000=0.176
,68.000=0.176
,69.000=0.176
,70.000=0.176
,71.000=0.176
,72.000=0.176
,73.000=0.176
,74.000=0.176
,75.000=0.176
,76.000=0.176
,77.000=0.176
,78.000=0.176
,79.000=0.176
,80.000=0.176
,81.000=0.176
,360.000=0.352
;
#WARPS:98.000=5.125,
103.250=5.125,
108.500=5.125,
113.750=5.125,
119.000=5.500,
132.000=5.125,
137.250=5.125,
142.500=5.125,
147.750=5.125,
153.000=5.500,
166.000=5.125,
171.250=5.125,
176.500=5.125,
181.750=5.125,
187.000=5.500,
208.000=5.125,
213.250=5.125,
218.500=5.125,
223.750=5.125,
229.000=5.500,
242.000=5.125,
247.250=5.125,
252.500=5.125,
257.750=5.125,
263.000=5.500,
276.000=5.125,
281.250=5.125,
286.500=5.125,
291.750=5.125,
297.000=5.500,
310.000=5.125,
315.250=5.125,
320.500=5.125,
325.750=5.125,
331.000=5.500,
376.000=4.000
;
#SPEEDS:0.000=1.000=1.000=0,
82.000=0.950=0.250=0,
82.250=1.000=0.750=0,
83.000=0.950=0.250=0,
83.250=1.000=0.750=0,
84.000=0.925=0.250=0,
84.250=1.000=0.750=0,
85.000=0.975=0.250=0,
85.250=1.000=0.750=0,
86.000=0.900=0.250=0,
86.250=1.000=0.750=0,
87.000=0.900=0.250=0,
87.250=1.000=0.750=0,
88.000=0.800=0.250=0,
88.250=1.000=0.750=0,
89.000=0.950=0.250=0,
89.250=1.000=0.750=0,
90.000=0.800=0.250=0,
90.250=1.000=0.750=0,
91.000=0.800=0.250=0,
91.250=1.000=0.750=0,
92.000=0.700=0.250=0,
92.250=1.000=0.750=0,
93.000=0.850=0.250=0,
93.250=1.000=0.750=0,
94.000=0.800=0.250=0,
94.250=1.000=0.750=0,
95.000=0.800=0.250=0,
95.250=1.000=0.750=0,
96.000=0.700=0.250=0,
96.250=1.000=0.750=0,
97.000=0.850=0.250=0,
97.250=1.000=0.750=0,
125.000=0.800=0.250=0,
125.250=1.000=0.750=0,
126.000=0.700=0.250=0,
126.250=1.000=0.750=0,
127.000=0.850=0.250=0,
127.250=1.000=0.750=0,
128.000=0.800=0.250=0,
128.250=1.000=0.750=0,
129.000=0.600=0.167=0,
129.333=1.000=0.167=0,
129.500=0.650=0.167=0,
129.833=1.000=0.167=0,
130.000=0.700=0.167=0,
130.333=1.000=0.167=0,
130.500=0.750=0.167=0,
130.833=1.000=0.167=0,
131.000=0.800=0.167=0,
131.333=1.000=0.167=0,
131.500=0.850=0.167=0,
131.833=1.000=0.167=0,
159.000=0.800=0.250=0,
159.250=1.000=0.750=0,
160.000=0.850=0.250=0,
160.250=1.000=0.750=0,
161.000=0.700=0.250=0,
161.250=1.000=0.750=0,
162.000=0.800=0.250=0,
162.250=1.000=0.750=0,
163.000=0.600=0.167=0,
163.333=1.000=0.167=0,
163.500=0.650=0.167=0,
163.833=1.000=0.167=0,
164.000=0.700=0.167=0,
164.333=1.000=0.167=0,
164.500=0.750=0.167=0,
164.833=1.000=0.167=0,
165.000=0.800=0.167=0,
165.333=1.000=0.167=0,
165.500=0.850=0.167=0,
165.833=1.000=0.167=0,
193.000=0.800=0.250=0,
193.250=1.000=0.750=0,
194.000=0.700=0.250=0,
194.250=1.000=0.750=0,
195.000=0.850=0.250=0,
195.250=1.000=0.750=0,
196.000=0.800=0.250=0,
196.250=1.000=0.750=0,
197.000=0.600=0.167=0,
197.333=1.000=0.167=0,
197.500=0.650=0.167=0,
197.833=1.000=0.167=0,
198.000=0.700=0.167=0,
198.333=1.000=0.167=0,
198.500=0.750=0.167=0,
198.833=1.000=0.167=0,
199.000=0.800=0.167=0,
199.333=1.000=0.167=0,
199.500=0.850=0.167=0,
199.833=1.000=0.167=0,
235.000=0.800=0.250=0,
235.250=1.000=0.750=0,
236.000=0.700=0.250=0,
236.250=1.000=0.750=0,
237.000=0.850=0.250=0,
237.250=1.000=0.750=0,
238.000=0.800=0.250=0,
238.250=1.000=0.750=0,
239.000=0.600=0.167=0,
239.333=1.000=0.167=0,
239.500=0.650=0.167=0,
239.833=1.000=0.167=0,
240.000=0.700=0.167=0,
240.333=1.000=0.167=0,
240.500=0.750=0.167=0,
240.833=1.000=0.167=0,
241.000=0.800=0.167=0,
241.333=1.000=0.167=0,
241.500=0.850=0.167=0,
241.833=1.000=0.167=0,
269.000=0.800=0.250=0,
269.250=1.000=0.750=0,
270.000=0.850=0.250=0,
270.250=1.000=0.750=0,
271.000=0.700=0.250=0,
271.250=1.000=0.750=0,
272.000=0.800=0.250=0,
272.250=1.000=0.750=0,
273.000=0.600=0.167=0,
273.333=1.000=0.167=0,
273.500=0.650=0.167=0,
273.833=1.000=0.167=0,
274.000=0.700=0.167=0,
274.333=1.000=0.167=0,
274.500=0.750=0.167=0,
274.833=1.000=0.167=0,
275.000=0.800=0.167=0,
275.333=1.000=0.167=0,
275.500=0.850=0.167=0,
275.833=1.000=0.167=0,
303.000=0.800=0.250=0,
303.250=1.000=0.750=0,
304.000=0.700=0.250=0,
304.250=1.000=0.750=0,
305.000=0.850=0.250=0,
305.250=1.000=0.750=0,
306.000=0.800=0.250=0,
306.250=1.000=0.750=0,
307.000=0.600=0.167=0,
307.333=1.000=0.167=0,
307.500=0.650=0.167=0,
307.833=1.000=0.167=0,
308.000=0.700=0.167=0,
308.333=1.000=0.167=0,
308.500=0.750=0.167=0,
308.833=1.000=0.167=0,
309.000=0.800=0.167=0,
309.333=1.000=0.167=0,
309.500=0.850=0.167=0,
309.833=1.000=0.167=0,
337.000=0.800=0.250=0,
337.250=1.000=0.750=0,
338.000=0.850=0.250=0,
338.250=1.000=0.750=0,
339.000=0.700=0.250=0,
339.250=1.000=0.750=0,
340.000=0.800=0.250=0,
340.250=1.000=0.750=0,
341.000=0.800=0.167=0,
341.333=1.000=0.167=0,
341.500=0.750=0.167=0,
341.833=1.000=0.167=0,
342.000=0.700=0.167=0,
342.333=1.000=0.167=0,
342.500=0.650=0.167=0,
342.833=1.000=0.167=0,
343.000=0.600=0.167=0,
343.333=1.000=0.167=0,
343.500=0.550=0.167=0,
343.833=1.000=0.167=0,
380.000=0.063=8.000=0,
388.000=1.000=0.000=0
;
#SCROLLS:0.000=1.000,
82.000=3.250,
82.125=0.250,
82.500=3.250,
82.625=0.250,
83.000=3.250,
83.125=0.250,
83.500=3.250,
83.625=0.250,
84.000=3.250,
84.125=0.250,
84.500=3.250,
84.625=0.250,
85.000=3.250,
85.125=0.250,
85.500=3.250,
85.625=0.250,
86.000=3.250,
86.125=0.250,
86.500=3.250,
86.625=0.250,
87.000=3.250,
87.125=0.250,
87.500=3.250,
87.625=0.250,
88.000=3.250,
88.125=0.250,
88.500=3.250,
88.625=0.250,
89.000=3.250,
89.125=0.250,
89.500=3.250,
89.625=0.250,
90.000=3.250,
90.125=0.250,
90.500=3.250,
90.625=0.250,
91.000=3.250,
91.125=0.250,
91.500=3.250,
91.625=0.250,
92.000=3.250,
92.125=0.250,
92.500=3.250,
92.625=0.250,
93.000=3.250,
93.125=0.250,
93.500=3.250,
93.625=0.250,
94.000=2.000,
94.063=0.500,
94.188=1.000,
94.333=2.000,
94.396=0.500,
94.500=2.000,
94.563=0.500,
94.688=1.000,
94.833=2.000,
94.896=0.500,
95.000=2.000,
95.063=0.500,
95.188=1.000,
95.333=2.000,
95.396=0.500,
95.500=2.000,
95.563=0.500,
95.688=1.000,
95.833=2.000,
95.896=0.500,
96.000=2.000,
96.063=0.500,
96.188=1.000,
96.333=2.000,
96.396=0.500,
96.500=2.000,
96.563=0.500,
96.688=1.000,
96.833=2.000,
96.896=0.500,
97.000=2.000,
97.063=0.500,
97.188=1.000,
97.333=2.000,
97.396=0.500,
97.500=2.000,
97.563=0.500,
97.688=1.000,
97.833=2.000,
97.896=0.500,
98.021=1.000,
103.000=16.000,
103.125=0.000,
103.271=1.000,
108.250=16.000,
108.375=0.000,
108.521=1.000,
113.500=16.000,
113.625=0.000,
113.771=1.000,
118.750=16.000,
118.875=0.000,
119.021=1.000,
124.375=16.000,
124.500=0.000,
129.000=0.250,
132.000=0.500,
133.000=1.000,
137.000=16.000,
137.125=0.000,
137.250=0.500,
138.250=1.000,
142.250=16.000,
142.375=0.000,
142.500=0.500,
143.500=1.000,
147.500=16.000,
147.625=0.000,
147.750=0.500,
148.750=1.000,
152.750=16.000,
152.875=0.000,
153.000=0.500,
154.000=1.000,
158.375=16.000,
158.500=1.000,
166.000=0.500,
167.000=1.000,
171.000=16.000,
171.125=0.000,
171.250=0.500,
172.250=1.000,
176.250=16.000,
176.375=0.000,
176.500=0.500,
177.500=1.000,
181.500=16.000,
181.625=0.000,
181.750=0.500,
182.750=1.000,
186.750=16.000,
186.875=0.000,
187.000=0.500,
188.000=1.000,
192.375=16.000,
192.500=1.000,
208.000=0.500,
209.000=1.000,
213.000=16.000,
213.125=0.000,
213.250=0.500,
214.250=1.000,
218.250=16.000,
218.375=0.000,
218.500=0.500,
219.500=1.000,
223.500=16.000,
223.625=0.000,
223.750=0.500,
224.750=1.000,
228.750=16.000,
228.875=0.000,
229.000=0.500,
230.000=1.000,
234.375=16.000,
234.500=1.000,
237.500=4.000,
237.625=0.000,
238.000=1.000,
242.000=0.500,
243.000=1.000,
247.000=16.000,
247.125=0.000,
247.250=0.500,
248.250=1.000,
252.250=16.000,
252.375=0.000,
252.500=0.500,
253.500=1.000,
257.500=16.000,
257.625=0.000,
257.750=0.500,
258.750=1.000,
262.750=16.000,
262.875=0.000,
263.000=0.500,
264.000=1.000,
268.375=16.000,
268.500=1.000,
276.000=0.500,
277.000=1.000,
281.000=16.000,
281.125=0.000,
281.250=0.500,
282.250=1.000,
286.250=16.000,
286.375=0.000,
286.500=0.500,
287.500=1.000,
291.500=16.000,
291.625=0.000,
291.750=0.500,
292.750=1.000,
296.750=16.000,
296.875=0.000,
297.000=0.500,
298.000=1.000,
302.375=16.000,
302.500=1.000,
310.000=0.500,
311.000=1.000,
315.000=16.000,
315.125=0.000,
315.250=0.500,
316.250=1.000,
320.250=16.000,
320.375=0.000,
320.500=0.500,
321.500=1.000,
325.500=16.000,
325.625=0.000,
325.750=0.500,
326.750=1.000,
330.750=16.000,
330.875=0.000,
331.000=0.500,
332.000=1.000,
336.375=16.000,
336.500=1.000,
379.000=32.000,
380.000=0.200
;
#TICKCOUNTS:0.000=1;
#TIMESIGNATURES:0.000=4=4;
#LABELS:0.000=Song Start;
#COMBOS:0.000=1;
#DISPLAYBPM:128.000;
#CHARTNAME:;
#CHARTSTYLE:;
#CREDIT:Best @ 3~4x;
#NOTES:
0000
0000
0000
0000
0000
0000
0000
0000
0001
1000
0000
0020
0000
0000
0030
0000
,
0100
0000
0001
1000
0000
0000
0000
0000
1000
0010
0000
0200
0000
0000
0300
0000
,
0010
0000
1000
0001
0000
0000
0000
0000
1000
0100
0000
0020
0000
0000
0030
0000
,
0001
0000
0100
0010
0000
0000
0000
0000
1000
0001
0000
0020
0000
0000
0030
0000
,
1000
0000
0010
0001
0000
0000
1000
0000
0001
0100
0000
0020
0000
0000
0030
0000
,
1000
0000
0100
0010
0000
0000
0000
0000
1000
0010
0000
0200
0000
0000
0300
0000
,
0010
0000
0001
1000
0000
0000
0000
0000
0001
1000
0000
0020
0000
0000
1030
0000
,
0001
0000
0010
0200
0000
0000
0310
0000
0001
0100
0000
2000
0000
0000
3100
0000
,
0001
1000
0001
1000
0001
0001
1001
1000
,
0100
0010
0000
0002
0000
0000
1003
0000
0001
0100
0000
0020
0000
0000
0130
0000
,
1000
0000
0100
0002
0000
0000
1003
0000
1000
0100
0000
0020
0000
0000
0130
0000
,
1000
0000
0001
0200
0000
0000
0310
0000
1000
0010
0000
0002
0000
0000
0013
0000
,
0100
0000
0001
2000
0000
0000
3100
0000
1000
0000
0000
0000
0101
0000
1000
0000
,
0001
0000
0010
2000
0000
0000
3010
0000
0001
0100
0000
0200
0000
0000
0310
0000
,
0001
0000
0010
0200
0000
0000
0301
0000
0001
0100
0000
0200
0000
0000
0310
0000
,
1000
0000
0100
0020
0000
0000
0031
0000
0001
0010
0000
2000
0000
0000
3010
0000
,
0001
0000
0100
0020
0000
0000
1030
0001
1000
0000
0000
0000
1000
0000
0000
0000
,
0001
0001
0010
0010
,
0100
0000
0100
1000
0001
0000
0001
0000
,
0010
0010
1000
1000
,
0100
0000
0100
0001
1000
1000
0100
0100
,
0001
0001
0100
0100
1000
1000
0010
0010
,
0001
0001
0010
0010
1000
0001
1000
0001
,
0010
0100
1000
0100
0040
0000
0000
0000
,
0034
0000
0000
0000
0000
0000
0000
0000
0000
0000
0000
0000
1003
0000
0001
1000
0000
0001
1000
0000
0001
1000
0000
0001
,
1000
0000
0000
0000
0001
0000
1000
0000
0000
0000
0001
0000
1000
0000
0000
0000
0001
0000
1000
0000
0000
0000
0001
0000
1000
0000
0000
0000
0001
0000
1000
0000
0000
0000
0001
0000
0000
0000
0000
1000
0000
0000
0000
0001
0000
1000
0000
0000
,
0000
0001
0000
1000
0000
0000
0000
0001
0000
1000
0000
0000
0000
0001
0000
1000
0000
0000
0000
0001
0000
1000
0000
0000
0000
0001
0000
1000
0000
0000
0000
0001
0000
1000
0000
0000
0000
0001
0000
1000
0000
0000
0000
0001
0000
1000
0000
0000
,
0000
0001
0000
0000
0000
0000
1000
0000
0000
0000
0001
0000
1000
0000
0000
0000
0001
0000
1000
0000
0000
0000
0001
0000
1000
0000
0000
0000
0001
0000
1000
0000
0000
0000
0001
0000
1000
0000
0000
0000
0001
0000
1000
0000
0000
0000
0001
0000
,
1000
0000
0000
0000
0001
0000
1000
0000
0000
0000
0001
0000
1000
0000
0000
0000
0001
0000
0000
0000
0000
1000
0000
0000
0000
0001
0000
1000
0000
0000
0000
0001
0000
1000
0000
0000
0000
0001
0000
1000
0000
0000
0000
0001
0000
1000
0000
0000
,
0000
0001
0000
1000
0000
0000
0000
0001
0000
1000
0000
0000
0000
0001
0000
1000
0000
0000
0000
0001
0000
1000
0000
0000
0000
0001
0000
1000
0000
0000
0000
0001
0000
0000
0000
0000
1000
0000
0000
0000
0001
0000
1000
0000
0000
0000
0001
0000
,
1000
0000
0001
1000
0000
0001
1000
0000
0001
1000
0000
0001
1000
0000
0001
1000
0000
0001
1000
0000
0001
1000
0000
0001
,
0000
0000
0000
0000
,
0000
0000
0000
0000
,
4MMM
3000
0000
0000
0101
0000
0000
0000
1100
0000
0000
0000
0011
0000
0000
0000
,
0101
0000
0000
0000
0000
0000
0000
0000
0000
0000
4000
0000
0000
0000
0000
0000
0000
0000
3202
0000
0000
0000
0000
0000
0000
0300
2203
0000
0000
0000
0000
0000
,
0000
0000
3322
0000
0000
0000
0000
0000
0000
0003
0232
0000
0000
0000
0000
0000
0000
0000
0303
0000
4000
0000
0000
0000
0000
0000
3000
0000
0202
0000
0000
0000
,
0000
0303
2200
0000
0000
3300
0022
0000
0000
0033
0202
0000
0000
0303
0000
4000
,
0000
3000
0000
0202
0000
0303
0000
2200
0000
3300
0000
0022
0000
0033
0000
0202
,
0000
0303
0000
0000
4000
3000
0000
0000
0202
0303
0000
0000
2200
3300
0000
0000
,
0022
0033
0000
0000
0202
0303
0000
0000
0000
0000
0000
0000
0202
0000
0303
0000
,
2200
0000
3300
0000
0022
0000
0033
0000
0202
0000
0303
0000
0040
0000
0000
0030
,
0400
0000
0000
0000
0000
0000
0000
0000
0000
0300
0000
0000
0004
0000
0000
0000
0000
0000
0000
0000
0000
0003
0000
0000
4MMM
0000
0000
0000
3000
0000
0000
0000
0000
0000
0000
0000
0101
0000
0000
0000
0000
0000
0000
0000
0000
0000
0000
0000
,
1010
0000
0000
0000
1100
0000
0000
0000
0101
0000
0000
0000
0000
4000
0000
0000
,
0000
0000
3202
0000
0000
0000
0000
0000
0000
0000
2323
0000
0000
0000
0000
0000
0000
3000
2230
0000
0000
0000
0000
0000
0000
0300
3202
0000
0000
0000
0000
0000
,
0000
0303
4000
0000
0000
3000
0202
0000
0000
0303
2020
0000
0000
3030
2200
0000
,
0000
3300
0202
0000
0000
0303
0000
4000
0000
3000
0000
0202
0000
0303
0000
2020
,
0000
0000
0000
3030
0000
0000
0000
0000
0000
2200
0000
0000
0000
0000
0000
3300
0000
0000
0000
0000
0000
0202
0000
0000
0000
0000
0000
0303
0000
0000
0000
0000
0000
0000
0000
0000
4000
0000
0000
0000
3000
0000
0000
0000
0000
0000
0000
0000
,
0202
0303
0000
0000
2020
3030
0000
0000
2200
3300
0000
0000
0202
0303
0000
0000
,
0000
0000
0202
0303
2020
3030
2200
3300
,
0202
0000
0303
0000
0004
0000
0000
0003
0040
0000
0000
0030
0400
0000
0000
0300
,
1000
0100
0000
0200
0000
0000
0310
0000
0001
0000
0100
0020
0000
0000
1030
0000
,
0001
0010
0000
2000
0000
0000
3010
0000
0001
0000
0100
0020
0000
0000
1030
0000
,
4MMM
3000
0000
0000
0011
0000
0000
0000
1100
0000
0000
0000
0101
0000
0010
0000
,
0011
0000
0000
0000
0000
4000
0000
0000
0000
3022
0000
0000
0000
2233
0000
0000
,
0000
0300
3202
0000
0000
0300
0020
0000
0000
0033
0022
0000
0000
0000
0000
0000
0000
0000
0033
0000
4000
0000
0000
0000
0000
0000
3000
0000
0022
0000
0000
0000
,
0000
0033
2200
0000
0000
3300
0202
0000
0000
0303
0022
0000
0000
0033
0000
4000
,
0000
3000
0000
0022
0000
0033
0000
2200
0000
3300
0000
0202
0000
0303
0000
0022
,
0000
0033
0000
0000
4000
3000
0000
0000
0022
0033
0000
0000
2200
3300
0000
0000
,
0202
0303
0000
0000
0022
0033
0000
0000
0000
0000
0000
0000
0022
0000
0033
0000
,
2200
0000
3300
0000
0202
0000
0303
0000
0022
0000
0033
0000
0040
0000
0000
0030
,
0400
0000
0000
0300
4000
0000
0000
3000
MMM4
0003
0000
0000
1001
0000
0000
0000
,
1100
0000
0000
0000
0011
0000
0000
0000
1001
0000
0000
0000
0000
0004
0000
0000
,
0000
0000
0000
0000
0000
0000
0000
0000
0000
0000
0000
0003
2002
0000
0000
0000
0000
0000
0000
0000
0000
0000
0000
0000
0000
0000
0000
0000
0000
0000
0000
0000
0000
0000
0000
0000
0000
0000
0000
0000
0000
0000
0000
0000
0000
0000
0000
0000
0000
0000
0000
0000
0000
0000
3000
0000
0000
0000
0000
0000
2203
0000
0000
0000
0000
0000
0000
0000
0000
0000
0000
0000
0000
0000
0000
0000
0000
0000
0000
0000
0000
0000
0000
0000
0000
0000
0000
0000
0000
0000
0000
0000
0000
0000
0000
0000
0000
0000
0000
0000
0000
0000
0000
0000
0000
0000
0000
0000
3322
0000
0000
0000
0000
0000
0000
0000
0000
0000
0000
0000
0000
0000
0000
0000
0000
0000
0000
0000
0000
0000
0000
0000
0000
0000
0000
0000
0000
0000
0000
0000
0000
0000
0000
0000
0000
0000
0000
0000
0000
0000
0003
0000
0000
0000
0000
0000
2032
0000
0000
0000
0000
0000
0000
0000
0000
0000
0000
0000
0000
0000
0000
0000
0000
0000
0000
0000
0000
0000
0000
0000
0000
0000
0000
0000
0000
0000
0000
0000
0000
0000
0000
0000
,
0000
3003
0004
0000
0000
0003
2002
0000
0000
3003
2200
0000
0000
3300
0022
0000
,
0000
0033
2002
0000
0000
3003
0000
0004
0000
0003
0000
2002
0000
3003
0000
2200
,
0000
3300
0000
0022
0000
0033
0000
2002
0000
3003
0000
0000
0004
0003
0000
0000
,
2002
3003
0000
0000
2200
3300
0000
0000
0022
0033
0000
0000
2002
3003
0000
0000
,
0000
0000
2002
3003
2200
3300
0022
0033
,
2002
0000
3003
0000
0004
0000
0000
0003
0040
0000
0000
0030
0400
0000
0000
0300
,
4MMM
3000
0000
0000
1001
0000
0000
0000
0011
0000
0000
0000
1100
0000
0000
0000
,
1001
0000
0000
0000
0000
0000
0000
0000
0000
0000
0000
0000
0000
0000
0000
0000
0000
0000
0000
0000
0000
0000
0000
0000
0000
0000
0000
0000
0000
0000
0000
0000
0000
0000
0000
0000
0000
0000
0000
0000
0000
0000
0000
0000
0000
0000
0000
0000
0000
0000
0000
0000
0000
0000
0000
0000
0000
0000
0000
0000
4000
0000
0000
0000
0000
0000
0000
0000
0000
0000
0000
0000
0000
0000
0000
0000
0000
0000
0000
0000
0000
0000
0000
0000
0000
0000
0000
0000
0000
0000
0000
0000
0000
0000
0000
0000
0000
0000
0000
0000
0000
0000
0000
0000
0000
0000
0000
3000
2002
0000
0000
0000
0000
0000
0000
0000
0000
0000
0000
0000
0000
0000
0000
0000
0000
0000
0000
0000
0000
0000
0000
0000
0000
0000
0000
0000
0000
0000
0000
0000
0000
0000
0000
0000
0000
0000
0000
0000
0000
0000
0003
0000
0000
0000
0000
0000
3022
0000
0000
0000
0000
0000
0000
0000
0000
0000
0000
0000
0000
0000
0000
0000
0000
0000
0000
0000
0000
0000
0000
0000
0000
0000
0000
0000
0000
0000
0000
0000
0000
0000
0000
0000
,
0000
0000
2233
0000
0000
0000
0000
0000
0000
3000
2302
0000
0000
0000
0000
0000
0000
0000
3003
0000
4000
0000
0000
0000
0000
0000
3000
0000
2002
0000
0000
0000
,
0000
3003
0022
0000
0000
0033
2200
0000
0000
3300
2002
0000
0000
3003
0000
4000
,
0000
3000
0000
2002
0000
3003
0000
0022
0000
0033
0000
2200
0000
3300
0000
2002
,
0000
3003
0000
0000
4000
3000
0000
0000
2002
3003
0000
0000
0022
0033
0000
0000
,
2200
3300
0000
0000
2002
3003
0000
0000
0000
0000
0000
0000
2002
0000
3003
0000
,
0022
0000
0033
0000
2200
0000
3300
0000
2002
0000
3003
0000
4000
0000
0000
3000
,
0040
0000
0000
0030
0400
0000
0000
0300
MMM4
0003
0000
0000
1010
0000
0000
0000
,
1100
0000
0000
0000
0101
0000
0000
0000
1001
0000
0000
0000
0000
0004
0000
0000
,
0000
0000
2023
0000
0000
0000
0000
0000
0000
3000
2230
0000
0000
0000
0000
0000
0000
0300
3202
0000
0000
0000
0000
0000
0000
0003
2302
0000
0000
0000
0000
0000
,
0000
3003
0004
0000
0000
0003
2020
0000
0000
3030
2200
0000
0000
3300
0202
0000
,
0000
0303
2002
0000
0000
3003
0000
0004
0000
0003
0000
2020
0000
3030
0000
2200
,
0000
3300
0000
0202
0000
0303
0000
2002
0000
3003
0000
0000
0004
0003
0000
0000
,
2020
3030
0000
0000
2200
3300
0000
0000
0202
0303
0000
0000
2002
3003
0000
0000
,
0000
0000
2020
3030
2200
3300
0202
0303
,
2002
3003
0004
0000
4003
0000
3004
0000
,
1003
0100
0000
0020
0000
0000
0031
0000
1000
0000
0010
0200
0000
0000
0301
0000
,
1000
0100
0000
0020
0000
0000
0130
0000
0001
0000
0100
0020
0000
0000
0031
0000
,
0001
0100
0000
0020
0000
0000
1030
0000
0001
0000
0010
0200
0000
0000
1300
0000
,
0001
0100
0000
0020
0000
0000
0031
0000
1000
0000
0100
0020
0000
0000
2030
0000
,
3000
0000
0000
0000
1001
0000
1000
0000
0100
0000
0010
0001
1000
0000
0010
0000
,
1000
0001
0000
0001
0100
0000
0010
0000
0001
0000
0010
1000
0001
0000
1000
0000
,
0001
0100
0000
0001
1000
0000
1000
0000
0100
0000
0010
0100
1000
0000
1000
0000
,
0002
0003
0002
0003
0020
0030
0200
0300
,
1000
0000
0000
0000
,
2000
0000
0000
0000
,
0000
0000
0000
0000
,
3000
0000
0000
0000
;

//--------------- dance-single - ----------------
#NOTEDATA:;
#STEPSTYPE:dance-single;
#DESCRIPTION:;
#DIFFICULTY:Challenge;
#METER:15;
#RADARVALUES:0.605173,1.281022,0.264128,0.558733,1.406991,417,391,26,55,8,0,0,0,394,0.605173,1.281022,0.264128,0.558733,1.406991,417,391,26,55,8,0,0,0,394;
#BPMS:0.000=128.000
,34.000=512.000
,35.000=128.000
,66.000=512.000
,66.500=128.000
,67.000=512.000
,67.500=128.000
,68.000=512.000
,68.500=128.000
,69.000=512.000
,69.500=128.000
,70.000=512.000
,70.500=128.000
,71.000=512.000
,71.500=128.000
,72.000=512.000
,72.500=128.000
,73.000=512.000
,73.500=128.000
,74.000=512.000
,74.500=128.000
,75.000=512.000
,75.500=128.000
,76.000=512.000
,76.500=128.000
,77.000=512.000
,77.500=128.000
,78.000=512.000
,78.500=128.000
,79.000=512.000
,79.500=128.000
,80.000=512.000
,80.500=128.000
,81.000=512.000
,81.500=128.000
,360.000=512.000
,361.000=128.000
;
#STOPS:34.000=0.176
,34.500=0.176
,66.000=0.176
,67.000=0.176
,68.000=0.176
,69.000=0.176
,70.000=0.176
,71.000=0.176
,72.000=0.176
,73.000=0.176
,74.000=0.176
,75.000=0.176
,76.000=0.176
,77.000=0.176
,78.000=0.176
,79.000=0.176
,80.000=0.176
,81.000=0.176
,360.000=0.352
;
#WARPS:98.000=5.125,
103.250=5.125,
108.500=5.125,
113.750=5.125,
119.000=5.500,
132.000=5.125,
137.250=5.125,
142.500=5.125,
147.750=5.125,
153.000=5.500,
166.000=5.125,
171.250=5.125,
176.500=5.125,
181.750=5.125,
187.000=5.500,
208.000=5.125,
213.250=5.125,
218.500=5.125,
223.750=5.125,
229.000=5.500,
242.000=5.125,
247.250=5.125,
252.500=5.125,
257.750=5.125,
263.000=5.500,
276.000=5.125,
281.250=5.125,
286.500=5.125,
291.750=5.125,
297.000=5.500,
310.000=5.125,
315.250=5.125,
320.500=5.125,
325.750=5.125,
331.000=5.500,
376.000=4.000
;
#SPEEDS:0.000=1.000=1.000=0,
82.000=0.950=0.250=0,
82.250=1.000=0.750=0,
83.000=0.950=0.250=0,
83.250=1.000=0.750=0,
84.000=0.925=0.250=0,
84.250=1.000=0.750=0,
85.000=0.975=0.250=0,
85.250=1.000=0.750=0,
86.000=0.900=0.250=0,
86.250=1.000=0.750=0,
87.000=0.900=0.250=0,
87.250=1.000=0.750=0,
88.000=0.800=0.250=0,
88.250=1.000=0.750=0,
89.000=0.950=0.250=0,
89.250=1.000=0.750=0,
90.000=0.800=0.250=0,
90.250=1.000=0.750=0,
91.000=0.800=0.250=0,
91.250=1.000=0.750=0,
92.000=0.700=0.250=0,
92.250=1.000=0.750=0,
93.000=0.850=0.250=0,
93.250=1.000=0.750=0,
94.000=0.800=0.250=0,
94.250=1.000=0.750=0,
95.000=0.800=0.250=0,
95.250=1.000=0.750=0,
96.000=0.700=0.250=0,
96.250=1.000=0.750=0,
97.000=0.850=0.250=0,
97.250=1.000=0.750=0,
125.000=0.800=0.250=0,
125.250=1.000=0.750=0,
126.000=0.700=0.250=0,
126.250=1.000=0.750=0,
127.000=0.850=0.250=0,
127.250=1.000=0.750=0,
128.000=0.800=0.250=0,
128.250=1.000=0.750=0,
129.000=0.600=0.167=0,
129.333=1.000=0.167=0,
129.500=0.650=0.167=0,
129.833=1.000=0.167=0,
130.000=0.700=0.167=0,
130.333=1.000=0.167=0,
130.500=0.750=0.167=0,
130.833=1.000=0.167=0,
131.000=0.800=0.167=0,
131.333=1.000=0.167=0,
131.500=0.850=0.167=0,
131.833=1.000=0.167=0,
159.000=0.800=0.250=0,
159.250=1.000=0.750=0,
160.000=0.850=0.250=0,
160.250=1.000=0.750=0,
161.000=0.700=0.250=0,
161.250=1.000=0.750=0,
162.000=0.800=0.250=0,
162.250=1.000=0.750=0,
163.000=0.600=0.167=0,
163.333=1.000=0.167=0,
163.500=0.650=0.167=0,
163.833=1.000=0.167=0,
164.000=0.700=0.167=0,
164.333=1.000=0.167=0,
164.500=0.750=0.167=0,
164.833=1.000=0.167=0,
165.000=0.800=0.167=0,
165.333=1.000=0.167=0,
165.500=0.850=0.167=0,
165.833=1.000=0.167=0,
193.000=0.800=0.250=0,
193.250=1.000=0.750=0,
194.000=0.700=0.250=0,
194.250=1.000=0.750=0,
195.000=0.850=0.250=0,
195.250=1.000=0.750=0,
196.000=0.800=0.250=0,
196.250=1.000=0.750=0,
197.000=0.600=0.167=0,
197.333=1.000=0.167=0,
197.500=0.650=0.167=0,
197.833=1.000=0.167=0,
198.000=0.700=0.167=0,
198.333=1.000=0.167=0,
198.500=0.750=0.167=0,
198.833=1.000=0.167=0,
199.000=0.800=0.167=0,
199.333=1.000=0.167=0,
199.500=0.850=0.167=0,
199.833=1.000=0.167=0,
235.000=0.800=0.250=0,
235.250=1.000=0.750=0,
236.000=0.700=0.250=0,
236.250=1.000=0.750=0,
237.000=0.850=0.250=0,
237.250=1.000=0.750=0,
238.000=0.800=0.250=0,
238.250=1.000=0.750=0,
239.000=0.600=0.167=0,
239.333=1.000=0.167=0,
239.500=0.650=0.167=0,
239.833=1.000=0.167=0,
240.000=0.700=0.167=0,
240.333=1.000=0.167=0,
240.500=0.750=0.167=0,
240.833=1.000=0.167=0,
241.000=0.800=0.167=0,
241.333=1.000=0.167=0,
241.500=0.850=0.167=0,
241.833=1.000=0.167=0,
269.000=0.800=0.250=0,
269.250=1.000=0.750=0,
270.000=0.850=0.250=0,
270.250=1.000=0.750=0,
271.000=0.700=0.250=0,
271.250=1.000=0.750=0,
272.000=0.800=0.250=0,
272.250=1.000=0.750=0,
273.000=0.600=0.167=0,
273.333=1.000=0.167=0,
273.500=0.650=0.167=0,
273.833=1.000=0.167=0,
274.000=0.700=0.167=0,
274.333=1.000=0.167=0,
274.500=0.750=0.167=0,
274.833=1.000=0.167=0,
275.000=0.800=0.167=0,
275.333=1.000=0.167=0,
275.500=0.850=0.167=0,
275.833=1.000=0.167=0,
303.000=0.800=0.250=0,
303.250=1.000=0.750=0,
304.000=0.700=0.250=0,
304.250=1.000=0.750=0,
305.000=0.850=0.250=0,
305.250=1.000=0.750=0,
306.000=0.800=0.250=0,
306.250=1.000=0.750=0,
307.000=0.600=0.167=0,
307.333=1.000=0.167=0,
307.500=0.650=0.167=0,
307.833=1.000=0.167=0,
308.000=0.700=0.167=0,
308.333=1.000=0.167=0,
308.500=0.750=0.167=0,
308.833=1.000=0.167=0,
309.000=0.800=0.167=0,
309.333=1.000=0.167=0,
309.500=0.850=0.167=0,
309.833=1.000=0.167=0,
337.000=0.800=0.250=0,
337.250=1.000=0.750=0,
338.000=0.850=0.250=0,
338.250=1.000=0.750=0,
339.000=0.700=0.250=0,
339.250=1.000=0.750=0,
340.000=0.800=0.250=0,
340.250=1.000=0.750=0,
341.000=0.800=0.167=0,
341.333=1.000=0.167=0,
341.500=0.750=0.167=0,
341.833=1.000=0.167=0,
342.000=0.700=0.167=0,
342.333=1.000=0.167=0,
342.500=0.650=0.167=0,
342.833=1.000=0.167=0,
343.000=0.600=0.167=0,
343.333=1.000=0.167=0,
343.500=0.550=0.167=0,
343.833=1.000=0.167=0,
380.000=0.063=8.000=0,
388.000=1.000=0.000=0
;
#SCROLLS:0.000=1.000,
82.000=3.250,
82.125=0.250,
82.500=3.250,
82.625=0.250,
83.000=3.250,
83.125=0.250,
83.500=3.250,
83.625=0.250,
84.000=3.250,
84.125=0.250,
84.500=3.250,
84.625=0.250,
85.000=3.250,
85.125=0.250,
85.500=3.250,
85.625=0.250,
86.000=3.250,
86.125=0.250,
86.500=3.250,
86.625=0.250,
87.000=3.250,
87.125=0.250,
87.500=3.250,
87.625=0.250,
88.000=3.250,
88.125=0.250,
88.500=3.250,
88.625=0.250,
89.000=3.250,
89.125=0.250,
89.500=3.250,
89.625=0.250,
90.000=3.250,
90.125=0.250,
90.500=3.250,
90.625=0.250,
91.000=3.250,
91.125=0.250,
91.500=3.250,
91.625=0.250,
92.000=3.250,
92.125=0.250,
92.500=3.250,
92.625=0.250,
93.000=3.250,
93.125=0.250,
93.500=3.250,
93.625=0.250,
94.000=2.000,
94.063=0.500,
94.188=1.000,
94.333=2.000,
94.396=0.500,
94.500=2.000,
94.563=0.500,
94.688=1.000,
94.833=2.000,
94.896=0.500,
95.000=2.000,
95.063=0.500,
95.188=1.000,
95.333=2.000,
95.396=0.500,
95.500=2.000,
95.563=0.500,
95.688=1.000,
95.833=2.000,
95.896=0.500,
96.000=2.000,
96.063=0.500,
96.188=1.000,
96.333=2.000,
96.396=0.500,
96.500=2.000,
96.563=0.500,
96.688=1.000,
96.833=2.000,
96.896=0.500,
97.000=2.000,
97.063=0.500,
97.188=1.000,
97.333=2.000,
97.396=0.500,
97.500=2.000,
97.563=0.500,
97.688=1.000,
97.833=2.000,
97.896=0.500,
98.021=1.000,
103.000=16.000,
103.125=0.000,
103.271=1.000,
108.250=16.000,
108.375=0.000,
108.521=1.000,
113.500=16.000,
113.625=0.000,
113.771=1.000,
118.750=16.000,
118.875=0.000,
119.021=1.000,
124.375=16.000,
124.500=0.000,
129.000=0.125,
132.000=0.500,
133.000=1.000,
137.000=16.000,
137.125=0.000,
137.250=0.500,
138.250=1.000,
142.250=16.000,
142.375=0.000,
142.500=0.500,
143.500=1.000,
147.500=16.000,
147.625=0.000,
147.750=0.500,
148.750=1.000,
152.750=16.000,
152.875=0.000,
153.000=0.500,
154.000=1.000,
158.375=16.000,
158.500=1.000,
166.000=0.500,
167.000=1.000,
171.000=16.000,
171.125=0.000,
171.250=0.500,
172.250=1.000,
176.250=16.000,
176.375=0.000,
176.500=0.500,
177.500=1.000,
181.500=16.000,
181.625=0.000,
181.750=0.500,
182.750=1.000,
186.750=16.000,
186.875=0.000,
187.000=0.500,
188.000=1.000,
192.375=16.000,
192.500=1.000,
208.000=0.500,
209.000=1.000,
213.000=16.000,
213.125=0.000,
213.250=0.500,
214.250=1.000,
218.250=16.000,
218.375=0.000,
218.500=0.500,
219.500=1.000,
223.500=16.000,
223.625=0.000,
223.750=0.500,
224.750=1.000,
228.750=16.000,
228.875=0.000,
229.000=0.500,
230.000=1.000,
234.375=16.000,
234.500=1.000,
237.500=4.000,
237.625=0.000,
238.000=1.000,
242.000=0.500,
243.000=1.000,
247.000=16.000,
247.125=0.000,
247.250=0.500,
248.250=1.000,
252.250=16.000,
252.375=0.000,
252.500=0.500,
253.500=1.000,
257.500=16.000,
257.625=0.000,
257.750=0.500,
258.750=1.000,
262.750=16.000,
262.875=0.000,
263.000=0.500,
264.000=1.000,
268.375=16.000,
268.500=1.000,
276.000=0.500,
277.000=1.000,
281.000=16.000,
281.125=0.000,
281.250=0.500,
282.250=1.000,
286.250=16.000,
286.375=0.000,
286.500=0.500,
287.500=1.000,
291.500=16.000,
291.625=0.000,
291.750=0.500,
292.750=1.000,
296.750=16.000,
296.875=0.000,
297.000=0.500,
298.000=1.000,
302.375=16.000,
302.500=1.000,
310.000=0.500,
311.000=1.000,
315.000=16.000,
315.125=0.000,
315.250=0.500,
316.250=1.000,
320.250=16.000,
320.375=0.000,
320.500=0.500,
321.500=1.000,
325.500=16.000,
325.625=0.000,
325.750=0.500,
326.750=1.000,
330.750=16.000,
330.875=0.000,
331.000=0.500,
332.000=1.000,
336.375=16.000,
336.500=1.000,
379.000=32.000,
380.000=0.200
;
#TICKCOUNTS:0.000=1;
#TIMESIGNATURES:0.000=4=4;
#LABELS:0.000=Song Start;
#COMBOS:0.000=1;
#DISPLAYBPM:128.000;
#CHARTNAME:;
#CHARTSTYLE:;
#CREDIT:Best @ about 4x;
#NOTES:
0000
0000
0000
0000
0000
0000
0000
0000
0001
1000
0000
0010
0000
0000
0100
0000
,
0000
0001
0000
0010
0000
0000
0100
0000
0000
1000
0000
0010
0000
0000
0100
0000
,
0000
1000
0000
0001
0000
0000
0010
0000
0000
1000
0000
0100
0000
0000
0010
0000
,
0000
0001
0000
0100
0000
0000
0010
0000
0000
1000
0000
0001
0000
0000
0010
0000
,
0000
0100
0000
0001
0000
0000
0100
1000
0001
0100
0000
0010
0100
0000
0001
0000
,
0000
1000
0000
0100
0010
0000
0100
0000
0000
1000
0000
0001
0100
0000
0001
0000
,
0000
0010
0000
0100
0001
0000
0100
0000
0000
1000
0000
0010
0100
0000
0001
0000
,
0000
0001
0000
0010
0100
0000
1000
0000
0000
0010
0000
0100
0010
0000
1000
0000
,
0001
0000
1000
0001
0000
1000
0001
0000
1000
0001
0000
1000
0001
0000
0000
0001
0000
0000
1001
0000
0000
1000
0000
0000
,
0100
0010
0000
1000
0010
0000
0001
0000
1000
0100
0000
0100
0010
0000
0100
0000
,
1000
0001
0000
0100
0010
0000
0100
0000
0001
1000
0000
1000
0010
0000
0100
0000
,
0001
0010
0000
0010
0100
0000
1000
0000
0010
0100
0000
0100
1000
0000
0100
0000
,
0001
0010
0000
0010
0100
0000
0010
0001
2000
0000
0000
0000
3100
0000
1000
0000
,
0001
0010
000M
0010
1000
0000
0001
0000
1000
0100
M000
0100
0001
0000
1000
0000
,
0100
0010
0000
0010
0100
0000
1000
0000
0001
0100
000M
0100
1000
0000
0001
0000
,
1000
0010
M000
0010
0001
0000
1000
0000
0001
0100
0000
0100
0010
0000
1000
0000
,
0001
0010
0000
0010
0100
0000
1000
0001
1000
0000
0000
0000
1000
0000
0000
0000
,
0001
0001
0010
0010
,
0100
0000
0100
1000
1000
0000
1000
0000
,
0010
0010
0001
0001
,
0010
0000
0000
0000
0010
0000
1000
0010
1000
0000
1000
0000
0100
0000
0100
0000
,
0001
0001
0100
0100
1000
1000
0010
0010
,
0001
0001
0010
0010
1000
0001
1000
0001
,
0010
0000
0000
0100
0000
0000
1000
0000
0000
0100
0000
0000
0010
0000
0001
0010
0000
0001
0010
0000
0001
0010
0000
0001
,
1000
0000
0001
1000
0000
0001
1000
0000
0001
1000
0000
0001
1000
0000
0001
1000
0000
0001
1000
0000
0001
1000
0000
0001
,
1000
0000
0000
0000
0001
0000
1000
0000
0000
0000
0001
0000
1000
0000
0000
0000
0001
0000
1000
0000
0000
0000
0001
0000
1000
0000
0000
0000
0001
0000
1000
0000
0000
0000
0001
0000
0000
0000
0000
1000
0000
0000
0000
0001
0000
1000
0000
0000
,
0000
0001
0000
1000
0000
0000
0000
0001
0000
1000
0000
0000
0000
0001
0000
1000
0000
0000
0000
0001
0000
1000
0000
0000
0000
0001
0000
1000
0000
0000
0000
0001
0000
1000
0000
0000
0000
0001
0000
1000
0000
0000
0000
0001
0000
1000
0000
0000
,
0000
0001
0000
0000
0000
0000
1000
0000
0000
0000
0001
0000
1000
0000
0000
0000
0001
0000
1000
0000
0000
0000
0001
0000
1000
0000
0000
0000
0001
0000
1000
0000
0000
0000
0001
0000
1000
0000
0000
0000
0001
0000
1000
0000
0000
0000
0001
0000
,
1000
0000
0000
0000
0001
0000
1000
0000
0000
0000
0001
0000
1000
0000
0000
0000
0001
0000
0000
0000
0000
1000
0000
0000
0000
0001
0000
1000
0000
0000
0000
0001
0000
1000
0000
0000
0000
0001
0000
1000
0000
0000
0000
0001
0000
1000
0000
0000
,
0000
0001
0000
1000
0000
0000
0000
0001
0000
1000
0000
0000
0000
0001
0000
1000
0000
0000
0000
0001
0000
1000
0000
0000
0000
0001
0000
1000
0000
0000
0000
0001
0000
0000
0000
0000
1000
0000
0000
0000
0001
0000
1000
0000
0000
0000
0001
0000
,
1000
0000
0001
1000
0000
0001
1000
0000
0001
1000
0000
0001
1000
0000
0001
1000
0000
0001
1000
0000
0001
1000
0000
0001
,
0000
0000
0000
0000
,
0000
0000
0000
0000
,
4MMM
3000
0000
0000
0101
0000
0000
0000
1100
0000
0000
0000
0011
0000
0000
0000
,
0101
0000
0000
0000
0000
0000
0000
0000
0000
0000
4000
0000
0000
0000
0000
0000
0000
0000
3202
0000
0000
0000
0000
0000
0000
0300
2203
0000
0000
0000
0000
0000
,
0000
0000
3322
0000
0000
0000
0000
0000
0000
0003
0232
0000
0000
0000
0000
0000
0000
0000
0303
0000
4000
0000
0000
0000
0000
0000
3000
0000
0202
0000
0000
0000
,
0000
0303
2200
0000
0000
3300
0022
0000
0000
0033
0202
0000
0000
0303
0000
4000
,
0000
3000
0000
0202
0000
0303
0000
2200
0000
3300
0000
0022
0000
0033
0000
0202
,
0000
0303
0000
0000
4000
3000
0000
0000
0202
0303
0000
0000
2200
3300
0000
0000
,
0022
0033
0000
0000
0202
0303
0000
0000
0000
0000
0000
0000
0202
0000
0303
0000
,
2200
0000
0000
3300
0000
0000
0022
0000
0000
0033
0000
0000
0202
0000
0000
0303
0000
0000
1000
0000
0001
1000
0000
0001
,
1000
0000
0001
1000
0000
0001
1000
0000
0001
1000
0000
0001
4MMM
0000
3000
0000
0000
0000
0101
0000
0000
0000
0000
0000
,
1010
0000
0000
0000
1100
0000
0000
0000
0101
0000
0000
0000
0000
4000
0000
0000
,
0000
0000
3202
0000
0000
0000
0000
0000
0000
0000
2323
0000
0000
0000
0000
0000
0000
3000
2230
0000
0000
0000
0000
0000
0000
0300
3202
0000
0000
0000
0000
0000
,
0000
0303
4000
0000
0000
3000
0202
0000
0000
0303
2020
0000
0000
3030
2200
0000
,
0000
3300
0202
0000
0000
0303
0000
4000
0000
3000
0000
0202
0000
0303
0000
2020
,
0000
0000
0000
3030
0000
0000
0000
0000
0000
2200
0000
0000
0000
0000
0000
3300
0000
0000
0000
0000
0000
0202
0000
0000
0000
0000
0000
0303
0000
0000
0000
0000
0000
0000
0000
0000
4000
0000
0000
0000
3000
0000
0000
0000
0000
0000
0000
0000
,
0202
0303
0000
0000
2020
3030
0000
0000
2200
3300
0000
0000
0202
0303
0000
0000
,
0000
0000
0202
0303
2020
3030
2200
3300
,
0202
0000
0000
0303
0000
0000
1000
0000
0001
1000
0000
0001
1000
0000
0001
1000
0000
0001
1000
0000
0001
1000
0000
0001
,
1000
0100
0000
0100
0010
0000
0001
0000
1000
0010
0000
0010
0100
0000
0001
0000
,
0100
0010
0000
0010
0001
0000
0010
0000
1000
0100
0000
0100
0001
0000
0100
0000
,
4MMM
3000
0000
0000
0011
0000
0000
0000
1100
0000
0000
0000
0101
0000
0010
0000
,
0011
0000
0000
0000
0000
4000
0000
0000
0000
3022
0000
0000
0000
2233
0000
0000
,
0000
0300
3202
0000
0000
0300
0020
0000
0000
0033
0022
0000
0000
0000
0000
0000
0000
0000
0033
0000
4000
0000
0000
0000
0000
0000
3000
0000
0022
0000
0000
0000
,
0000
0000
0033
0000
2200
0000
0000
0000
0000
0000
3300
0000
0202
0000
0000
0300
0020
0000
0003
0030
0022
0000
0000
0000
0000
0000
0033
0000
0000
0000
4000
0000
,
0000
3000
0000
0022
0000
0033
0000
2200
0000
3300
0000
0202
0300
0023
0030
0022
,
0000
0033
0000
0000
4000
3000
0000
0000
0022
0033
0000
0000
2200
3300
0000
0000
,
0202
0300
0003
0000
0020
0030
0000
0000
0022
0000
0033
0000
0000
0000
0000
0000
0000
0000
0000
0000
0000
0000
0000
0000
0022
0000
0000
0000
0033
0000
0000
0000
,
2200
0000
0000
3300
0000
0000
0102
0000
0000
0013
0000
0000
0022
0000
0000
0033
0000
0000
0001
0000
0010
0100
0000
0010
,
0001
0000
0000
0000
0010
0000
0100
0000
0000
0000
0010
0000
0001
0000
0000
0000
0010
0000
0100
0000
0000
0000
0010
0000
MMM4
0000
0000
0003
0000
0000
0000
0000
0000
0000
0000
0000
1001
0000
0000
0000
0000
0000
0000
0000
0000
0000
0000
0000
,
1100
0000
0000
0000
0011
0000
0000
0000
1001
0000
0000
0000
0000
0004
0000
0000
,
0000
0000
0000
0000
0000
0000
0000
0000
0000
0000
0000
0003
2002
0000
0000
0000
0000
0000
0000
0000
0000
0000
0000
0000
0000
0000
0000
0000
0000
0000
0000
0000
0000
0000
0000
0000
0000
0000
0000
0000
0000
0000
0000
0000
0000
0000
0000
0000
0000
0000
0000
0000
0000
0000
3000
0000
0000
0000
0000
0000
2203
0000
0000
0000
0000
0000
0000
0000
0000
0000
0000
0000
0000
0000
0000
0000
0000
0000
0000
0000
0000
0000
0000
0000
0000
0000
0000
0000
0000
0000
0000
0000
0000
0000
0000
0000
0000
0000
0000
0000
0000
0000
0000
0000
0000
0000
0000
0000
3322
0000
0000
0000
0000
0000
0000
0000
0000
0000
0000
0000
0000
0000
0000
0000
0000
0000
0000
0000
0000
0000
0000
0000
0000
0000
0000
0000
0000
0000
0000
0000
0000
0000
0000
0000
0000
0000
0000
0000
0000
0000
0003
0000
0000
0000
0000
0000
2032
0000
0000
0000
0000
0000
0000
0000
0000
0000
0000
0000
0000
0000
0000
0000
0000
0000
0000
0000
0000
0000
0000
0000
0000
0000
0000
0000
0000
0000
0000
0000
0000
0000
0000
0000
,
0000
3003
0004
0000
0000
0003
2002
0000
0000
3003
2200
0000
0000
3300
0022
0000
,
0000
0033
2002
0000
0000
3003
0000
0004
0000
0003
0000
2002
0000
3003
0000
2200
,
0000
3300
0000
0022
0000
0033
0000
2002
0000
3003
0000
0000
0004
0003
0000
0000
,
2002
3003
0000
0000
2200
3300
0000
0000
0022
0033
0000
0000
2002
3003
0000
0000
,
0000
0000
2002
3003
2200
3300
0022
0033
,
2002
0000
0000
3003
0000
0000
1000
0000
0001
0100
0000
0001
1000
0000
0001
0100
0000
0001
1000
0000
0001
0100
0000
0001
,
4MMM
3000
0000
0000
1001
0000
0000
0000
0011
0000
0000
0000
1100
0000
0000
0000
,
1001
0000
0000
0000
0000
0000
0000
0000
0000
0000
0000
0000
0000
0000
0000
0000
0000
0000
0000
0000
0000
0000
0000
0000
0000
0000
0000
0000
0000
0000
0000
0000
0000
0000
0000
0000
0000
0000
0000
0000
0000
0000
0000
0000
0000
0000
0000
0000
0000
0000
0000
0000
0000
0000
0000
0000
0000
0000
0000
0000
4000
0000
0000
0000
0000
0000
0000
0000
0000
0000
0000
0000
0000
0000
0000
0000
0000
0000
0000
0000
0000
0000
0000
0000
0000
0000
0000
0000
0000
0000
0000
0000
0000
0000
0000
0000
0000
0000
0000
0000
0000
0000
0000
0000
0000
0000
0000
3000
2002
0000
0000
0000
0000
0000
0000
0000
0000
0000
0000
0000
0000
0000
0000
0000
0000
0000
0000
0000
0000
0000
0000
0000
0000
0000
0000
0000
0000
0000
0000
0000
0000
0000
0000
0000
0000
0000
0000
0000
0000
0000
0003
0000
0000
0000
0000
0000
3022
0000
0000
0000
0000
0000
0000
0000
0000
0000
0000
0000
0000
0000
0000
0000
0000
0000
0000
0000
0000
0000
0000
0000
0000
0000
0000
0000
0000
0000
0000
0000
0000
0000
0000
0000
,
0000
0000
2233
0000
0000
0000
0000
0000
0000
3000
2302
0000
0000
0000
0000
0000
0000
0000
3003
0000
4000
0000
0000
0000
0000
0000
3000
0000
2002
0000
0000
0000
,
0000
3003
0022
0000
0000
0033
2200
0000
0000
3300
2002
0000
0000
3003
0000
4000
,
0000
3000
0000
2002
0000
3003
0000
0022
0000
0033
0000
2200
0000
3300
0000
2002
,
0000
3003
0000
0000
4000
3000
0000
0000
2002
3003
0000
0000
0022
0033
0000
0000
,
2200
3300
0000
0000
2002
3003
0000
0000
0000
0000
0000
0000
2002
0000
3003
0000
,
0022
0000
0000
0033
0000
0000
2200
0000
0000
3300
0000
0000
2002
0000
0000
3003
0000
0000
0001
0000
0100
0001
0000
1000
,
0001
0000
0000
0000
0100
0000
0001
0000
0000
0000
1000
0000
0001
0000
0000
0000
0100
0000
0001
0000
0000
0000
1000
0000
MMM4
0000
0000
0003
0000
0000
0000
0000
0000
0000
0000
0000
1010
0000
0000
0000
0000
0000
0000
0000
0000
0000
0000
0000
,
1100
0000
0000
0000
0101
0000
0000
0000
1001
0000
0000
0000
0000
0004
0000
0000
,
0000
0000
2023
0000
0000
0000
0000
0000
0000
3000
2230
0000
0000
0000
0000
0000
0000
0300
3202
0000
0000
0000
0000
0000
0000
0003
2302
0000
0000
0000
0000
0000
,
0000
3003
0004
0000
0000
0003
2020
0000
0000
3030
2200
0000
0000
3300
0202
0000
,
0000
0303
2002
0000
0000
3003
0000
0004
0000
0003
0000
2020
0000
3030
0000
2200
,
0000
3300
0000
0202
0000
0303
0000
2002
0000
3003
0000
0000
0004
0003
0000
0000
,
2020
3030
0000
0000
2200
3300
0000
0000
0202
0303
0000
0000
2002
3003
0000
0000
,
0000
0000
2020
3030
2200
3300
0202
0303
,
2002
0000
0000
3003
0000
0000
1000
0000
0100
0010
0000
0001
1000
0000
0100
0010
0000
0001
1000
0000
0100
0010
0000
0001
,
1000
0100
0000
0010
0100
0000
1000
0000
0001
0100
0000
0010
0100
0000
0001
0000
,
1000
0100
0000
0100
0010
0000
0001
0000
1000
0010
0000
0100
0010
0000
1000
0000
,
0001
0100
0000
0010
0100
0000
0001
0000
1000
0100
0000
0010
0100
0000
1000
0000
,
0001
0100
0000
0100
0010
0000
1000
0000
0001
0010
0000
0100
0010
0000
0002
2000
,
3003
0000
0000
0000
1001
0000
1000
0000
0100
0010
0000
0010
1000
0000
0010
0000
,
0001
1000
0000
1000
0001
0000
0100
0000
0010
0001
0000
0001
0010
0000
1000
0000
,
0001
0100
000M
0100
1000
0000
1000
0000
0001
0010
000M
0010
1000
0000
1000
0000
,
0002
0003
0002
0003
0020
0030
0200
0300
,
1000
0000
0000
0000
,
2000
0000
0000
0000
,
0000
0000
0000
0000
,
3000
0000
0000
0000
;
