#TITLE:3y3s;
#SUBTITLE:ver. Shufflin’;
#ARTIST:青龍 remix by 空 アキラ;
#TITLETRANSLIT:;
#SUBTITLETRANSLIT:ver. Shufflin';
#ARTISTTRANSLIT:Seiryu remix by Sora Akira;
#GENRE:House;
#CREDIT:Haley Halcyon;
#MUSIC:3y3s (Ver. Shufflin').ogg;
#BANNER:3y3s (Ver. Shufflin').png;
#BACKGROUND:3y3s (Ver. Shufflin')-bg.png;
#CDTITLE:cdtitle.png;
#SAMPLESTART:52.500;
#SAMPLELENGTH:15.000;
#SELECTABLE:YES;
#OFFSET:0.000;
#BPMS:0.000=128.000;
#STOPS:;
#ORIGIN:;
#PREVIEWVID:;
#JACKET:3y3s (Ver. Shufflin')-jacket.png;
#CDIMAGE:;
#DISCIMAGE:;
#BGCHANGES:;
#FGCHANGES:;

//--------------- dance-single - ----------------
#NOTES:
     dance-single:
     :
     Medium:
     7:
     0.361714,0.412662,0.247813,0.086196,0.053872,235,212,23,8,0,0,0,0,0,0.361714,0.412662,0.247813,0.086196,0.053872,235,212,23,8,0,0,0,0,0:
0000
0000
0000
0000
,
0000
0000
0000
0000
,
0001
0010
0100
1000
,
0001
0010
0100
1000
,
0010
0001
0100
1000
,
0002
0010
0100
1003
,
1000
0000
0100
0000
1000
0010
0100
0001
,
1000
0000
0001
0000
0010
0001
1000
0100
,
1000
0000
0001
0000
0100
0010
1000
0001
,
1000
0100
1000
0000
0010
0001
0010
0000
,
2002
3003
0001
0101
,
1000
0100
1000
0000
0001
0000
0100
0000
,
1000
0100
0001
1001
,
1000
0100
1000
0000
0001
0000
0100
0000
,
0110
0010
1010
0100
,
0010
1000
0100
0000
1100
0000
0101
0000
,
1000
0001
0010
0000
1100
0000
0010
0000
,
0001
1000
0010
0000
0110
0000
0000
0000
,
0000
0000
0000
0000
0001
0010
1000
0010
,
0001
0000
0000
0000
0100
0001
0100
1000
,
0100
0000
0000
0000
0001
0010
1000
0010
,
0001
0000
0100
0000
0010
1000
0010
0001
,
0010
0000
0000
0000
0100
0000
0000
0000
0001
0000
0000
0100
0000
0000
0010
0000
,
0000
0100
0000
0000
1001
0000
0000
0000
0010
0000
0000
0100
0000
0000
0001
0000
,
0000
0100
0000
0000
1001
0000
0000
0000
1000
0000
0000
0100
0000
0000
0010
0000
,
0000
0100
0000
0000
1001
0000
0000
0000
1000
0000
0000
0010
0000
0000
0100
0000
,
0000
0010
0000
0000
1001
0000
0000
0100
0010
0000
0000
0000
0000
0000
0000
0000
,
0000
0000
0000
0000
,
0010
1000
0001
0100
,
1000
0100
0010
0100
,
0001
0010
0100
1000
,
0001
0000
0100
0000
0010
0100
0010
0000
,
1000
0001
0100
0010
,
1000
0100
0001
0100
,
0010
0001
0100
0010
,
0100
0000
0001
1000
0001
0000
1001
0000
,
0010
0001
0010
0000
0001
0100
0001
0000
,
0100
1000
0100
0000
0110
0000
1001
0000
,
0100
1000
0100
0000
1000
0010
1000
0000
,
0101
1100
0011
1010
,
0010
1000
0010
0000
1000
0100
1000
0000
,
0100
0000
0001
0000
0100
0000
0000
0000
0110
0000
0000
0000
0011
0000
0000
2002
,
0000
0000
3003
0000
1000
0010
0100
0001
,
0020
2030
3020
0000
,
0031
0100
0001
0100
,
0010
0100
0010
0100
,
0010
1000
0010
0000
1000
0100
1000
0000
,
0100
0000
0010
0000
0001
0000
1000
0001
;

//--------------- dance-single - ----------------
#NOTES:
     dance-single:
     :
     Hard:
     11:
     0.464841,0.464245,0.086196,0.280136,0.070034,302,294,8,26,0,0,0,0,0,0.464841,0.464245,0.086196,0.280136,0.070034,302,294,8,26,0,0,0,0,0:
0000
0000
0000
0000
,
0000
0000
0000
0000
,
0200
2300
3002
0023
,
0001
0001
1000
0031
,
1000
0100
1000
0100
0010
0001
0010
0001
,
0020
0001
1000
0031
,
2010
0000
0100
0000
3010
0100
0001
1000
,
0012
0000
0100
0000
0013
0100
1000
0100
,
0010
0001
0100
0010
1000
0100
0010
0100
,
0001
0100
1000
0100
0010
0001
1000
0010
,
0200
0000
0000
0300
0001
1000
0100
0010
,
0001
1000
0100
0100
1000
0001
1000
0100
,
0010
0001
1000
1000
0001
0010
0001
1000
,
0100
1000
0001
0001
1000
0100
1000
0100
,
0010
0001
0010
0001
1000
0010
0100
0010
,
0001
0010
1000
1000
0001
0010
0100
0010
,
1000
0010
0001
0100
0010
0100
0001
1000
,
0010
0000
0000
0010
0000
0000
0010
0000
1000
0000
0000
0000
0000
0000
0000
0000
,
0000
0000
0000
0000
0001
0010
1000
0010
,
0001
0100
1000
0100
0010
0001
0010
1000
,
0100
1000
0100
0100
1000
0010
0001
0010
,
1000
0100
0001
0100
0010
1000
0010
0001
,
0100
0000
0001
0000
0100
0000
0010
0000
1000
0000
1000
0100
0000
0000
1000
0000
,
1000
0100
0000
0000
0010
0000
0010
0000
0001
0000
0001
0100
0000
0000
0001
0000
,
0001
0100
0000
0000
0010
0000
0010
0000
2000
0000
0000
3200
0000
0000
0320
0000
,
0000
0032
0000
0000
0203
0000
0000
0000
0310
0000
1000
0000
0100
0000
0010
0000
,
1000
0001
0100
0010
0001
0000
0000
0000
,
0000
0000
0000
0000
,
0010
1000
0010
1000
0001
0100
0001
0100
,
0010
1000
0010
0100
0001
0100
0001
0000
,
1000
0100
1000
0100
0010
0001
0010
0000
,
2001
0100
3001
1001
,
0010
0001
0010
0100
1000
0001
0100
0001
,
0010
0100
0010
0001
0100
1000
0100
0001
,
0010
0100
1000
0100
0001
0100
1000
0000
,
1200
0000
0010
0000
1300
0000
0101
0001
,
1000
0010
0100
0001
1000
0100
0001
0100
,
1000
0010
0100
0001
0010
1000
0010
0010
,
0001
0100
0010
0100
0001
0010
0100
1000
,
0002
0000
0100
0000
0010
0000
1003
0001
,
1000
0100
0010
0001
0100
0010
0001
0010
,
1000
0000
0100
0000
0010
0000
0001
0000
0100
0010
0000
0010
1000
0000
1000
0200
,
0000
0000
0000
0000
0300
0000
0000
0000
1000
0100
1000
0000
0001
0010
0001
0020
,
0000
0030
0210
0300
2100
3000
0000
0000
,
2000
0100
0010
0100
,
3002
0100
0010
0100
,
0023
0100
1000
0100
,
0032
0000
2003
0000
3002
0000
0013
0010
;

//--------------- dance-single - ----------------
#NOTES:
     dance-single:
     :
     Challenge:
     14:
     0.558733,0.644785,0.09697,0.31246,0.571047,363,354,9,29,0,0,0,0,0,0.558733,0.644785,0.09697,0.31246,0.571047,363,354,9,29,0,0,0,0,0:
0000
0000
0000
0000
,
0000
0000
0000
0000
,
0200
2300
3002
0023
,
0001
0001
1000
0031
,
1000
0100
1000
0100
0010
0001
0010
0001
,
0020
0001
1000
0031
,
0201
0000
0000
0000
1000
0000
0000
0000
0301
0000
0000
0010
0000
0010
0100
0000
,
1200
0000
0000
0000
0001
0000
0000
0000
1300
0000
0000
0010
0000
0010
0100
0000
,
0001
0000
0100
0000
1000
0000
0100
0000
0001
0100
0001
0100
0010
0100
0010
0100
,
0010
0000
0000
0010
1000
0000
0000
1000
0100
0000
0000
0100
0001
0100
1000
0010
,
0200
0000
0000
0000
0000
0000
0300
0000
0001
0000
0100
0010
0000
0100
0000
0001
,
0000
0010
0000
0100
0000
0010
0100
0000
1000
0000
0010
0100
0000
0010
0000
1000
,
0000
0100
0000
0010
0100
1000
0100
1000
0001
0000
0010
0100
0000
1000
0000
0010
,
0000
0100
0000
0001
0100
0001
0100
0010
2000
0000
0000
0000
3200
0000
0000
0000
,
0302
0000
0103
0100
1000
0010
0100
0010
,
0001
0000
0010
0100
0000
0010
1000
0000
0001
0000
0010
0000
0100
0000
0010
0000
,
1000
0000
0010
0100
0000
0010
0001
0000
1001
0000
1000
0000
0100
0000
0010
0000
,
0110
0000
0000
0011
0000
0000
1100
0000
1001
0000
0000
0000
0000
0000
0000
0000
,
0000
0000
0000
0000
0001
1000
0001
1000
0001
0000
0010
0000
1000
0000
0010
0000
,
0001
0100
1000
0100
0010
0001
0010
1000
,
0100
1000
0100
0100
1000
0010
0001
0010
,
1000
0100
0001
0100
0010
1000
0010
0001
,
0100
0000
0001
0000
0100
0000
0010
0000
1000
0100
0010
0001
0000
0000
0001
0010
,
0100
1000
0000
0000
1001
0000
1000
0000
0001
0100
0010
1000
0000
0000
1000
0010
,
0100
0001
0000
0000
1001
0000
0001
0000
2000
0000
0000
3200
0000
0000
0302
0000
,
0000
2003
0000
0000
3020
0000
0000
0130
1000
0000
1000
0010
0000
0010
0100
0000
,
0100
1000
0000
1000
0001
0010
0100
0010
1000
0000
0000
0000
0000
0000
0000
0000
,
0000
0000
0000
0000
,
0001
0000
0000
0001
0100
0000
0000
0100
0010
0000
1000
0000
0100
0000
0010
0000
,
0001
0000
0000
0001
0100
0000
0000
0100
0010
0000
1000
0000
0010
0000
0100
0000
,
0001
0000
0000
0001
1000
0000
0000
1000
0100
0000
0010
0000
0001
0000
0100
0000
,
1000
0000
0000
1000
0001
0000
0000
0001
0010
0000
1000
0000
0001
0000
0010
0000
,
0001
0000
0001
0010
0000
0010
0100
0000
1000
0000
0001
0000
0100
0000
0001
0000
,
0010
0000
0010
0100
0000
0100
1000
0000
0100
0000
0010
0000
0100
0000
1000
0000
,
0010
0000
0100
0000
1000
0000
0100
0000
0001
0000
0100
0000
0010
0000
1000
0001
,
2000
0000
0000
3100
0020
0000
0000
0031
2000
0000
0000
3001
0100
0000
0001
0000
,
1000
0010
0100
0010
0000
1000
0010
0100
0010
0000
0001
0000
0010
0000
1000
0000
,
0001
0010
0100
0010
0000
0001
0010
0100
0010
0000
0001
0000
1000
0000
0010
0001
,
0000
0001
0010
1000
0000
1000
0100
0010
0001
0000
0100
0000
1000
0000
0200
0000
,
0010
0000
1000
0000
0010
0000
0301
0001
,
1000
0100
0010
0100
0000
1000
0100
0010
0100
0000
0001
0000
0100
0000
1000
0000
,
0001
0100
0010
0100
0000
0001
0100
0010
0100
0001
0000
0001
0010
0100
1000
0001
,
0000
0000
0000
0000
0000
0000
0000
0000
0001
0010
0100
1000
0010
0100
0010
0002
,
0000
0000
0000
0013
2000
0000
0000
3010
0200
0000
0000
0000
0300
0001
0010
0001
,
2000
0100
0010
0100
,
3002
0100
0010
0100
,
0023
0100
1000
0100
,
0032
0000
2003
0000
3002
0000
0013
0010
;
