#TITLE:1, 2 Step;
#SUBTITLE:(DDR Cut);
#ARTIST:Ciara ft. Missy Elliott;
#TITLETRANSLIT:;
#SUBTITLETRANSLIT:;
#ARTISTTRANSLIT:;
#GENRE:Crunk&B;
#CREDIT:;
#MUSIC:1 2 Step (DDR Cut).ogg;
#BANNER:1 2 Step (DDR Cut).png;
#BACKGROUND:1 2 Step (DDR Cut)-bg.png;
#CDTITLE:cdtitle.png;
#SAMPLESTART:25.487;
#SAMPLELENGTH:14.867;
#SELECTABLE:YES;
#OFFSET:-0.000;
#BPMS:0.000=113.000;
#STOPS:;
#JACKET:1 2 Step (DDR Cut)-jacket.jpg;
#BGCHANGES:-4.000=1 2 Step (DDR Cut).png=1.000=0=0=0=StretchNoLoop===#000000=,
0.000=1 2 Step (DDR Cut).avi=1.000=0=0=0=StretchNoLoop====,
99999.000=-nosongbg-=1.000=0=0=0=StretchNoLoop====
;
#FGCHANGES:;

//--------------- dance-single - Haley Halcyon ----------------
#NOTES:
     dance-single:
     Haley Halcyon:
     Beginner:
     1:
     0,0,0,0,0:
0000
0000
0000
0000
,
0000
0000
0000
0000
,
0000
0000
0000
0000
,
0000
0000
0000
0000
,
0001
0000
0000
0000
,
0000
0000
0000
0000
,
0001
0000
0000
0000
,
0000
0000
0000
0000
,
1000
0000
0000
0000
,
0000
0000
0000
0000
,
1000
0000
0000
0000
,
0000
0000
0000
0000
,
0001
0000
0000
0000
,
0000
0000
0000
0000
,
0100
0000
0000
0000
,
0000
0000
0000
0000
,
0010
0000
0000
0000
,
0010
0000
0000
0000
,
0010
0000
0000
0000
,
0010
0000
0000
0000
,
1000
0000
0000
0000
,
0000
0000
0000
0000
,
0001
0000
0000
0000
,
0000
0000
0000
0000
,
1000
0000
0000
0000
,
0000
0000
0000
0000
,
0001
0000
0000
0000
,
0000
0000
0000
0000
,
1000
0000
0000
0000
,
0000
0000
0000
0000
,
1000
0000
0000
0000
,
0000
0000
0000
0000
,
0001
0000
0000
0000
,
0000
0000
0000
0000
,
0001
0000
0000
0000
,
0000
0000
0000
0000
,
1000
0000
0000
0000
,
0000
0000
0000
0000
,
0001
0000
0000
0000
,
0000
0000
0000
0000
,
0010
0000
0000
0000
,
0010
0000
0000
0000
,
0010
0000
0000
0000
,
0010
0000
0000
0000
,
1000
0000
0000
0000
,
0000
0000
0000
0000
,
0001
0000
0000
0000
,
0000
0000
0000
0000
,
1001
0000
0000
0000
;

//--------------- dance-single - Haley Halcyon ----------------
#NOTES:
     dance-single:
     Haley Halcyon:
     Easy:
     3:
     0,0,0,0,0:
0000
0000
0000
0000
,
0000
0000
0000
0000
,
0000
0000
0000
0000
,
0000
0000
0000
0000
,
0001
0000
0001
0000
,
1000
0000
1000
0000
,
0010
0000
0010
0000
,
0100
0000
0100
0000
,
0000
0001
0000
0100
,
0000
1000
0000
0100
,
0000
0001
0000
0100
,
0000
1001
0000
1001
,
2000
0000
3002
0000
,
1003
0000
1000
0000
,
0002
0000
2003
0000
,
3001
0000
0001
0000
,
0100
0000
0001
0001
,
0100
0000
1000
1000
,
0100
0000
0001
0001
,
0100
0000
1000
1000
,
0001
0000
0010
0000
,
1000
0000
0010
0000
,
0001
0000
0001
0000
,
1000
0000
0001
0000
,
1000
0000
0010
0000
,
0001
0000
0010
0000
,
1000
0000
0000
0000
,
0000
0000
0000
0000
,
0000
0001
0000
0001
,
0000
1000
0000
1000
,
0000
0010
0000
0010
,
0000
0100
0000
0100
,
0001
0010
0000
0010
,
0000
0100
0000
0100
,
1000
0010
0000
0010
,
0000
0000
0000
0000
,
0002
0000
2003
0000
,
3001
0000
0001
0000
,
2000
0000
3002
0000
,
1003
0000
1000
0000
,
0100
0000
0001
0001
,
0100
0000
1000
1000
,
0100
0000
0001
0001
,
0100
0000
1000
0000
,
0001
0000
0100
0000
,
0010
0000
1000
0000
,
0001
0000
0010
0000
,
0100
0000
1000
0000
,
1001
0000
0000
0000
;

//--------------- dance-single - Haley Halcyon ----------------
#NOTES:
     dance-single:
     Haley Halcyon:
     Medium:
     4:
     0.173357,0.174744,0,0.077664,0,125,125,0,8,0,0,0.173357,0.174744,0,0.077664,0,125,125,0,8,0,0:
0000
0000
0000
0000
,
0000
0000
0000
0000
,
0000
0000
0000
0000
,
0000
0000
0000
0000
,
1000
0100
0001
0100
,
1000
0000
0001
1000
,
0001
0100
1000
0100
,
0001
0000
1000
0001
,
0010
0100
1000
1000
,
0010
0100
0001
0001
,
0100
1000
0010
0001
,
0000
1000
0000
1000
,
0002
0003
2000
3000
,
0010
0100
0001
0000
,
2000
3000
0002
0003
,
0010
0100
1000
0000
,
0010
0000
0000
0100
0001
0000
0010
0000
,
0010
0000
0000
0100
1000
0000
0010
0000
,
0010
0000
0000
0100
0001
0000
0010
0000
,
0010
0000
0000
0100
1000
0000
0010
0000
,
1010
0000
0100
0001
,
0011
0000
0100
1000
,
0010
0000
0100
1000
,
0100
0000
0001
1000
,
1100
0000
0010
0001
,
0011
0000
0100
1000
,
1010
0000
0001
0100
,
1000
0100
0001
0000
,
1000
1000
0010
0010
,
0100
0001
0010
0000
,
0001
0001
0100
0100
,
0010
1000
0100
0000
,
0010
0001
0010
0100
,
1000
0100
0010
0000
,
0001
0100
0010
1000
,
0010
0100
0001
0000
,
2000
3000
0002
0003
,
0010
0100
1000
0000
,
0002
0003
2000
3000
,
0010
0100
0001
0000
,
0010
0000
0000
0100
1000
0000
0010
0000
,
0010
0000
0000
0100
0001
0000
0010
0000
,
0010
0000
0000
0100
1000
0000
0010
0000
,
0010
0000
0000
0100
0001
0000
0010
0000
,
0001
0100
1000
0100
,
0001
0100
1000
0100
,
0001
0010
1000
0010
,
0001
0010
1000
0010
,
0001
0000
0000
0000
;

//--------------- dance-single - Haley Halcyon ----------------
#NOTES:
     dance-single:
     Haley Halcyon:
     Hard:
     8:
     0.352261,0.396086,0.087372,0.417443,0.043686,254,245,9,43,0,0,0.352261,0.396086,0.087372,0.417443,0.043686,254,245,9,43,0,0:
0000
0000
0000
0000
,
0000
0000
0000
0000
,
0000
0000
0000
0000
,
0000
1000
1000
1000
,
0001
0000
0100
0000
0010
0100
0001
0000
,
1000
0000
0100
0000
0010
0100
1000
0000
,
0001
0100
0010
0100
0001
1000
0100
0000
,
1000
0100
0010
0100
1000
0010
0100
0000
,
0001
0100
0010
1000
0001
0000
1100
0000
,
1000
0100
0010
0001
0100
0001
0010
0100
,
1000
0100
0010
0100
1000
0100
0001
0100
,
1000
0000
0001
0000
1000
0001
1001
0000
,
0002
0100
2003
3100
,
2000
3200
0302
0023
,
2030
0100
3002
0100
,
1003
0001
0100
0000
0020
0000
2030
0000
,
3020
0000
0000
0130
0002
0000
0010
0000
,
0023
0000
0000
0130
2000
0000
0010
0000
,
3020
0000
0000
0130
0002
0000
0010
0000
,
0023
0000
0000
0130
2000
0000
0010
0000
,
3001
0000
0101
0001
0020
0000
0130
0010
,
0001
0000
1100
0100
0020
0000
0031
0100
,
0010
0000
0110
0010
1000
0100
0001
0100
,
1000
0000
0001
0010
0100
1000
0100
0010
,
0001
0000
1001
1000
0010
0001
1000
0100
,
0010
0000
1000
0100
0002
0000
0103
1000
,
0001
0100
2000
3020
,
0032
0203
0310
0010
,
1000
0100
1000
0000
0001
0100
0001
0000
,
0010
0000
0100
0000
0010
0000
0000
0001
0000
0000
0000
0000
1001
0000
0000
0000
,
0100
0000
1000
0000
0010
0000
0100
0000
0001
0000
0000
0010
0000
0000
0100
0000
,
0010
0000
0001
0000
0010
0000
0000
0100
0000
0000
0000
0000
1100
0000
1000
0000
,
0010
0000
0000
0100
0000
0000
0001
0000
0100
0000
0000
0010
0000
0000
1000
0000
,
0001
0000
0010
0000
0100
0000
0000
1000
0000
0000
0000
0000
1001
0000
0001
0000
,
0100
0000
0000
0010
0000
0000
0001
0000
0010
0000
0000
0100
0000
0000
0001
0000
,
1000
0000
0100
0000
0010
0000
0000
0010
0000
0000
0000
0000
0000
0000
0000
0000
,
2000
0100
3002
0103
,
0002
0203
2300
3020
,
0032
0100
2003
0100
,
3001
1000
0100
0000
0020
0000
0032
0000
,
0023
0000
0000
0130
2000
0000
0010
0000
,
3020
0000
0000
0130
0002
0000
0010
0000
,
0023
0000
0000
0130
2000
0000
0010
0000
,
3020
0000
0000
0130
0002
0000
0010
0000
,
1003
0100
0010
0100
1000
0100
0010
0001
,
0100
0010
0100
1000
0100
0010
1000
0000
,
0001
0010
0100
0010
0001
0010
0100
1000
,
0010
0100
1000
0100
0010
1000
0100
0010
,
0001
0000
0000
0000
;

//--------------- dance-single - Haley Halcyon ----------------
#NOTES:
     dance-single:
     Haley Halcyon:
     Challenge:
     7:
     0.31759,0.372787,0.058248,0.155328,0,229,223,6,16,84,0,0.31759,0.372787,0.058248,0.155328,0,229,223,6,16,84,0:
0000
0000
0000
0000
,
0000
0000
0000
0000
,
0000
0000
0000
0000
,
0000
1000
1000
1000
,
0001
0000
1000
0100
0010
0100
1000
0000
,
0001
0000
0100
0010
1000
0100
0010
0000
,
0001
0000
1000
0100
0001
0100
1000
0000
,
0001
0000
0100
1000
0001
0010
1000
0000
,
0001
0100
MMMM
0100
0010
1000
MMMM
1000
,
0010
0100
MMMM
0001
0100
0010
MMMM
0010
,
1000
0100
MMMM
0010
0001
0100
MMMM
0010
,
1000
0000
0001
0000
1000
0001
1001
0000
,
0002
0000
0100
0003
2000
0000
0100
3000
,
0001
0010
0100
1000
,
0002
0000
0100
0003
2000
0000
0100
3000
,
0001
0100
0010
0000
2000
0000
3001
0000
,
1000
0000
0100
0000
0010
0001
MMMM
0000
,
0001
0000
0100
0000
0010
1000
MMMM
0000
,
1000
0000
0100
0000
0010
0001
MMMM
0000
,
0001
0000
0010
0000
0100
1000
MMMM
0000
,
0002
0000
0100
0003
2000
0000
3100
0010
,
0100
0000
1100
0000
0002
0000
0103
0010
,
0100
0000
0101
0000
1000
0010
0001
0010
,
1000
0000
0001
1000
0001
0010
1000
0010
,
0001
0000
MMMM
0001
0100
1000
0100
0001
,
1000
0000
0001
1000
0200
0000
0310
0001
,
1000
MMMM
0000
0000
,
0000
0000
0000
0000
,
0001
0100
0001
0001
1000
0100
1000
1000
,
0001
0010
0100
0000
0000
MMMM
1100
0000
,
1000
0001
0100
0010
1000
0100
0010
0000
,
0001
1000
0100
0000
0000
MMMM
0011
0000
,
0001
0100
1000
0000
0001
0010
1000
0000
,
0001
0010
0100
0000
0000
MMMM
1100
0000
,
1000
0001
0020
0000
0130
0010
0002
0000
,
1003
0000
0000
0000
,
2000
0000
0100
3000
0002
0000
0100
0003
,
1000
0010
0100
0001
,
2000
0000
0100
3000
0002
0000
0100
0003
,
1000
0100
0010
0000
0002
0000
1003
0000
,
0001
0000
0100
0000
0010
1000
MMMM
0000
,
1000
0000
0100
0000
0010
0001
MMMM
0000
,
0001
0000
0100
0000
0010
1000
MMMM
0000
,
1000
0000
0010
0000
0100
0001
MMMM
0000
,
0001
1000
0001
1000
0010
0100
0010
1000
,
0001
0010
0100
0010
0001
0010
0100
MMMM
,
1000
0001
0010
0100
0001
0100
0010
0001
,
0100
0010
0100
1000
0100
0010
1000
0001
,
MMMM
0000
0000
0000
;

//--------------- dance-double - Haley Halcyon ----------------
#NOTES:
     dance-double:
     Haley Halcyon:
     Easy:
     2:
     0,0,0,0,0:
00000000
00000000
00000000
00000000
,
00000000
00000000
00000000
00000000
,
00000000
00000000
00000000
00000000
,
00000000
00000000
00000000
00000000
,
00010000
00000000
00000000
00000000
,
01000000
00000000
00000000
00000000
,
10000000
00000000
00000000
00000000
,
00100000
00000000
00000000
00000000
,
00001000
00000000
00000000
00000000
,
00000100
00000000
00000000
00000000
,
00000010
00000000
00000000
00000000
,
00000001
00000000
00000000
00000000
,
00001000
00000000
00000000
00000000
,
00001000
00000000
00000000
00000000
,
00000100
00000000
00000000
00000000
,
01000000
00000000
00000000
00000000
,
00100000
00000000
00000000
00000000
,
00100000
00000000
00000000
00000000
,
00100000
00000000
00000000
00000000
,
00100000
00000000
00000000
00000000
,
00010000
00000000
00000000
00000000
,
00100000
00000000
00000000
00000000
,
00000010
00000000
00000000
00000000
,
00001000
00000000
00000000
00000000
,
00000100
00000000
00000000
00000000
,
01000000
00000000
00000000
00000000
,
00010000
00000000
00000000
00000000
,
00000000
00000000
00000000
00000000
,
10010000
00000000
00000000
00000000
,
00100000
00000000
00000000
00000000
,
00001000
00000000
00000000
00000000
,
00010000
00000000
00000000
00000000
,
00000100
00000000
00000000
00000000
,
00001000
00000000
00000000
00000000
,
00000001
00000000
00000000
00000000
,
00000011
00000000
00000000
00000000
,
00000001
00000000
00000000
00000000
,
00010000
00000000
00000000
00000000
,
00000010
00000000
00000000
00000000
,
00001000
00000000
00000000
00000000
,
00000010
00000000
00000000
00000000
,
00000010
00000000
00000000
00000000
,
00000010
00000000
00000000
00000000
,
00000010
00000000
00000000
00000000
,
00000100
00000000
00000000
00000000
,
01000000
00000000
00000000
00000000
,
00010000
00000000
00000000
00000000
,
00100000
00000000
00000000
00000000
,
10000000
00000000
00000000
00000000
;

//--------------- dance-double - Haley Halcyon ----------------
#NOTES:
     dance-double:
     Haley Halcyon:
     Medium:
     4:
     0,0,0,0,0:
00000000
00000000
00000000
00000000
,
00000000
00000000
00000000
00000000
,
00000000
00000000
00000000
00000000
,
00000000
00000000
00000000
00000000
,
00010000
00000000
00010000
00000000
,
00000100
00000000
00000100
00000000
,
00000010
00000000
00000010
00000000
,
00000001
00000010
00000100
00000000
,
00010000
00000000
00010000
00000000
,
00001000
00000000
00001000
00000000
,
00100000
00000000
00100000
00000000
,
00000000
01000000
00000000
01100000
,
10000000
01000000
00010000
01000000
,
20000000
00100000
01000000
30010000
,
00000000
00010000
00100000
00001000
,
00010000
00000100
00001000
00001000
,
00000010
00000000
00000000
00000100
00000001
00000000
00000010
00000000
,
00000010
00000000
00000000
00000100
00001000
00000000
00000010
00000000
,
00000010
00000000
00000000
00000100
00000001
00000000
00000010
00000000
,
00000010
00000000
00000000
00000100
00001000
00000000
00000010
00000000
,
00020000
00000000
00031000
00000000
,
00002000
00000000
00013000
00000000
,
02000000
00000000
03010000
00000000
,
00002000
00000000
00103000
00000000
,
00100000
00000000
01000000
10000000
,
00010000
00100000
00001000
01000000
,
00010000
00110000
00000000
00000000
,
00000000
00000000
00000000
00000000
,
00000100
00000100
00100000
00100000
,
00000010
00010010
00000000
00011000
,
01000000
01000000
00000010
00000010
,
00100000
00101000
00000000
00011000
,
00000100
00000100
00010000
00010000
,
00000010
00000100
00001000
00000000
,
01000000
01000000
00001000
00001000
,
00100000
00010000
01000000
00000000
,
00010000
01000000
10000000
01000000
,
00020000
10000000
00100000
01030000
,
00000000
01000000
00100000
10000000
,
01000000
00100000
00010000
10000000
,
00100000
00000000
00000000
01000000
00010000
00000000
00100000
00000000
,
00100000
00000000
00000000
01000000
10000000
00000000
00100000
00000000
,
00100000
00000000
00000000
01000000
00010000
00000000
00100000
00000000
,
00100000
00000000
00000000
01000000
10000000
00000000
00100000
00000000
,
01000000
00010000
00100000
00001000
,
00010000
00000010
00000000
00001100
,
00000100
00010000
00001000
00100000
,
00010000
01000000
00001000
00010000
,
00011000
00000000
00000000
00000000
;

//--------------- dance-double - Haley Halcyon ----------------
#NOTES:
     dance-double:
     Haley Halcyon:
     Hard:
     6:
     0,0,0,0,0:
00000000
00000000
00000000
00000000
,
00000000
00000000
00000000
00000000
,
00000000
00000000
00000000
00000000
,
00000000
00010000
00010000
00010000
,
00000100
00001000
00000010
00000100
,
00000001
00000010
00000001
00000001
,
00000100
00000001
00001000
00000010
,
00010000
00000100
00010000
00011000
,
00001000
01000000
00010000
00100000
,
01000000
10000000
00100000
10100000
,
00100000
01000000
00100000
01000000
,
00000000
00010000
00000000
00011000
,
00000200
00000000
00001000
00000300
02000000
00000000
00010000
03000000
,
00200000
20300000
32000000
03020000
,
00031000
00001000
00000010
00000100
,
00001000
00001000
00000100
00001000
,
00000010
00000000
00000000
00000100
00000002
00000000
00000013
00000000
,
00000010
00000000
00000000
00000100
00002000
00000000
00003010
00000000
,
00000010
00000000
00000000
00000100
00000002
00000000
00000013
00000000
,
00000010
00000100
00010000
00001000
,
00011000
00000000
00010000
00100000
,
01000000
00000000
10000000
00100000
,
01000000
00000000
00010000
00100000
,
00001000
00010000
00000100
00001000
,
00000010
00000000
00000100
00000001
,
00000010
00000000
00000100
00001000
,
00000010
00000000
00020000
00030020
,
00200030
00302000
01003000
01000000
,
00010000
01000000
00010000
00000000
10000000
00100000
10000000
00000000
,
00010000
00100000
00001000
00010000
,
00000100
00001000
00000100
00000000
00100000
00010000
00100000
00000000
,
00001000
00010000
00000010
00000100
,
00000001
00000010
00000001
00000000
00001000
00000100
00001000
00000000
,
00000010
00010000
00000100
00100000
,
00001000
00010000
00001000
00000000
01000000
00100000
01000000
00000000
,
00000000
00000000
00000000
00000000
,
00000200
00000000
00001000
00000300
02000000
00000000
00010000
03000000
,
00200000
20300000
32000000
03020000
,
00031000
00001000
00010000
00100000
,
10000000
01000000
00010000
00100000
,
00100000
00000000
00000000
01000000
20000000
00000000
30100000
00000000
,
00100000
00000000
00000000
01000000
00020000
00000000
00130000
00000000
,
00100000
00000000
00000000
01000000
20000000
00000000
30100000
00000000
,
00100000
00010000
00001000
00000010
,
00000001
00000100
00001000
00010000
,
01000000
00010000
00001000
00000100
,
00000001
00000010
00001000
00010000
,
00100000
10000000
00100000
00010000
,
00011000
00000000
00000000
00000000
;

//--------------- dance-double - Haley Halcyon ----------------
#NOTES:
     dance-double:
     Haley Halcyon:
     Challenge:
     8:
     0,0,0,0,0:
00000000
00000000
00000000
00000000
,
00000000
00000000
00000000
00000000
,
00000000
00000000
00000000
00000000
,
00000000
00011000
00011000
00011000
,
00010000
0000MMMM
00001000
MMMM0000
,
00100000
0000MMMM
00000010
MMMM0000
,
00010000
00001000
01000000
00010000
00100000
00010000
01000000
00100000
,
10000000
00010000
00100000
01000000
00100000
00001000
00010000
00000000
,
00000100
00001000
MMMM0000
00000000
00100000
00010000
0000MMMM
00000000
,
00000010
00001000
MMMM0000
00000000
01000000
00010000
0000MMMM
00000000
,
00010000
00100000
00001000
00010000
00000010
00001000
00000100
00000000
,
00000001
00000000
00000100
00000000
00001000
00000010
00011000
00000000
,
00200000
00000000
00301000
00010000
00000020
00000000
00001030
00000000
,
00000100
00000010
00000100
00000010
00000001
00001000
00000010
0001MMMM
,
00000000
00000000
00001000
00100000
00010000
01000000
00100000
00000000
,
10000000
00100000
10000000
00100000
02000000
00000000
03020000
00000000
,
00130000
00000000
00000000
01000000
20000000
00000000
30100000
00000000
,
00100000
00000000
00000000
01000000
00020000
00000000
00130000
00000000
,
00100000
00000000
00000000
01000000
20000000
00000000
30100000
00000000
,
00100000
01000000
00010000
00100000
00000200
00000000
00010300
00001000
,
00011000
MMMM0000
00010000
0000MMMM
,
00000100
MMMM0000
01000000
0000MMMM
,
00000100
01000000
00000100
MMMM0000
,
01000000
00000100
01000000
0000MMMM
,
00001000
00000000
00010000
00001000
00000010
00000000
00001000
00010000
,
00100000
00000000
00010000
00001000
00000100
00000000
00001000
00010000
,
00100000
11000000
00000000
00000000
,
00000000
00000000
00000000
00000000
,
10000000
00100000
01000000
00010000
10000000
00100000
01000000
00010000
,
00100000
00000000
00001000
00000000
00010000
00000000
00000000
00011000
00000000
00000000
00000000
00000000
MMMMMMMM
00000000
00011000
00000000
,
00010000
00000100
00001000
00000100
00000010
00000100
00000001
00000100
,
00000010
00000000
00000001
00000000
00000100
00000000
00000000
00000101
00000000
00000000
00000000
00000000
MMMMMMMM
00000000
00000101
00000000
,
00000001
00001000
00000100
00000100
00010000
00001000
00100000
00100000
,
00010000
00000000
01000000
00000000
00100000
00000000
00000000
10100000
00000000
00000000
00000000
00000000
MMMMMMMM
00000000
10100000
00000000
,
10000000
00000000
00000000
00100000
00000000
00000000
00000000
01000000
00010000
00000000
00000000
00100000
00000000
00000000
01000000
00000000
,
00100000
00000000
00001000
00000000
00010000
00000000
00000000
00011000
00000000
00000000
00000000
00000000
MMMMMMMM
00000000
00000000
00000000
,
00100000
00000000
00001000
00010000
00000010
00000000
00010000
00000000
,
00001000
00000010
00000001
00000100
,
00001000
00010000
01000000
10000000
,
00100000
00010000
00001000
00000010
,
00000010
00000000
00000000
00000100
00000002
00000000
00000013
00000000
,
00000010
00000000
00000000
00000100
00002000
00000000
00003010
00000000
,
00000010
00000000
00000000
00000100
00000002
00000000
00000013
00000000
,
00000010
00000100
00010000
00001000
,
00100000
01000000
00100000
01000000
00100000
00010000
10000000
00100000
,
01000000
00100000
01000000
00100000
01000000
00010000
00100000
00001000
,
00010000
00000010
00010000
00000010
00001000
00000001
00001000
00000001
,
00000010
00000100
00000010
00000100
00010000
00001000
00100000
00010000
,
01000000
00000000
00000000
00000000
;
