#TITLE:Party×Party;
#SUBTITLE:Theme of Niconico Chou Party 3;
#ARTIST:Hitoshizuku×Yama△;
#TITLETRANSLIT:Party Party;
#SUBTITLETRANSLIT:;
#ARTISTTRANSLIT:Hitoshizuku & Yama;
#GENRE:;
#CREDIT:HaleyHalcyon;
#MUSIC:PartyParty.ogg;
#BANNER:PartyParty.png;
#BACKGROUND:PartyParty-bg.png;
#CDTITLE:cdtitlehaleyhalcyon.png;
#SAMPLESTART:63.962;
#SAMPLELENGTH:13.585;
#SELECTABLE:YES;
#OFFSET:0.000;
#BPMS:0.000=212.000
,42.000=106.000
,42.500=212.000
,49.500=106.000
,50.000=212.000
,89.000=53.000
,90.000=212.000
,150.000=53.000
,151.000=212.000
,195.000=318.000
,195.750=106.000
,196.000=318.000
,196.750=106.000
,197.000=318.000
,197.750=106.000
,198.000=318.000
,198.750=106.000
,199.000=212.000
,211.000=318.000
,211.750=106.000
,212.000=318.000
,212.750=106.000
,213.000=318.000
,213.750=106.000
,214.000=318.000
,214.750=106.000
,215.000=212.000
,283.000=106.000
,289.000=212.000
,301.000=318.000
,301.750=106.000
,302.000=318.000
,302.750=106.000
,303.000=318.000
,303.750=106.000
,304.000=318.000
,304.750=106.000
,305.000=212.000
,317.000=318.000
,317.750=106.000
,318.000=318.000
,318.750=106.000
,319.000=318.000
,319.750=106.000
,320.000=318.000
,320.750=106.000
,321.000=318.000
,321.750=106.000
,322.000=318.000
,322.750=106.000
,323.000=212.000
,457.000=106.000
,460.500=212.000
;
#STOPS:460.500=0.566;
#DISPLAYBPM:106.000:212.000;
#JACKET:PartyParty-jacket.png;
#BGCHANGES:0.000=bg.png=1.000=0=0=1====#808080=,
99999.000=-nosongbg-=1.000=0=0=0=StretchNoLoop====
;
#FGCHANGES:;

//--------------- dance-single - Haley Halcyon ----------------
#NOTES:
     dance-single:
     Haley Halcyon:
     Hard:
     10:
     0,0,0,0,0:
0000
0000
0000
000M
,
000M
0000
0000
M000
,
M000
0000
0000
000M
,
000M
0000
1000
0100
0000
0100
0020
0000
0000
0000
0000
0000
,
0031
0000
0100
0020
0000
0031
0000
0000
0000
M000
0000
0000
,
M000
0000
0001
0020
0000
1030
0000
0000
0000
000M
0000
0000
,
000M
0000
1000
0010
0000
0002
0003
0000
0010
0100
0000
0100
,
0001
0000
0001
0010
0000
0100
1000
0000
0000
1000
0000
0200
,
0000
0000
0310
0001
0000
0001
1000
0000
0000
1100
0000
0000
,
0100
0000
0100
0010
0000
0010
0001
0000
1000
0001
0000
0200
,
0000
0000
0000
0000
0000
0000
0310
0000
0100
0000
0010
0000
0000
0000
0000
1001
0000
0000
0000
0000
0000
0001
0000
0000
,
0000
1000
0000
0100
0000
0000
0000
1000
0000
0010
0000
0000
0000
0100
0000
0001
0000
0000
0000
0020
0000
0000
0000
0000
,
0000
0000
0030
0100
0000
0010
0000
0100
0000
0000
0000
0000
1001
0000
0000
0000
0000
0000
0001
0000
0000
0000
0010
0000
,
0100
0000
0010
1000
0000
0010
0001
0000
2000
0000
0000
3100
,
1000
0000
0010
0000
0000
0100
0001
0000
0010
0000
0000
0100
,
0010
0000
0001
0000
0000
0001
1000
0000
0020
0000
0000
0000
,
0030
0000
1000
0002
0000
0003
0100
0000
0002
0000
0003
0010
,
0100
0000
0100
2000
0000
0000
3010
0000
2000
0000
0000
3100
,
0010
0000
0010
2000
0000
0000
0000
0000
0020
3000
0000
0000
,
0030
0000
0000
0001
0000
0001
0010
0000
0010
0001
0000
0010
,
0001
0000
0010
0002
0000
0000
1003
0000
0002
0000
0000
0103
,
0010
0000
0010
2000
0000
0000
3100
0000
0001
0000
0000
0100
,
0000
0000
0000
0000
0000
0000
0000
0000
0100
0000
0000
0000
200M
0000
0000
00M0
0000
0000
0M00
0000
0000
00M0
0000
0000
3001
0000
0000
0000
0000
0000
0000
0000
0000
0000
0000
0000
0000
0000
0000
0000
0000
0000
0000
0000
0000
0000
0000
0000
,
0000
0000
0001
1000
0000
1000
0020
0000
0000
0130
0000
0020
,
0000
0000
1030
0001
0000
0001
0020
0000
0000
0130
0000
0020
,
0000
0000
0031
1000
0000
1000
0020
0000
0000
0000
0000
0200
,
0000
0000
0000
0330
0000
0000
0004
0400
0000
0000
0000
0300
,
0003
0000
1000
0100
0000
0100
0010
0000
0000
0000
0000
0011
,
0000
0000
0001
0100
0000
0100
0010
0000
0000
0000
0000
1010
,
0000
0000
1000
0100
0000
0100
0020
0000
0000
0130
0000
0002
,
0000
0000
0103
0010
0000
0001
1000
0000
0000
0001
0000
0000
,
1000
0000
0001
1000
0000
0001
2000
0000
0000
3100
0000
0020
,
0000
0000
0130
1000
0000
1000
0002
0000
0000
0103
0000
0020
,
0000
0000
0130
0001
0000
1000
0200
0000
0000
0000
0000
2000
,
0000
0000
0000
3300
0000
0000
0010
0000
0010
1000
0000
1000
,
0010
0000
0100
0001
0000
0100
0002
0000
0000
0013
0000
0100
,
0000
0000
0001
0100
0000
0100
2000
0000
0000
3010
0000
0001
,
0000
0000
0000
0000
0000
0000
0000
0000
0010
0000
0000
0000
0000
0000
0000
0000
0000
0000
0000
0000
0100
0000
0000
0000
M001
0000
0000
M010
0000
0000
M100
0000
0000
M010
0000
0000
M001
0000
0000
0000
0000
0000
0000
0000
0000
0000
0M00
0000
,
0000
0000
0000
M000
0000
0000
0000
0M00
0000
0000
0010
0000
0001
0000
0000
0000
0001
0000
0200
0000
0000
0000
0000
0000
,
0310
0000
0100
0000
0000
0001
1000
0000
1000
0200
0000
0000
,
0310
0000
0100
0000
0000
1000
0010
0000
0010
0200
0000
0000
,
0000
0000
0002
0000
0000
0000
0303
0000
0000
1000
0000
1000
,
0010
0000
0010
1000
0000
0001
0100
0000
0001
0020
0000
0000
,
0000
0000
1030
0000
0000
0010
0001
0000
0001
0200
0000
0000
,
0000
0000
1300
0000
0000
0100
0001
0000
0001
0020
0000
0000
,
0130
0000
2000
0000
0000
3100
0010
0000
0001
1000
0000
0000
,
0001
1001
2000
3200
,
0320
0000
0000
2030
0000
0000
3002
0000
0000
0103
0000
0100
,
0010
0000
0002
0000
0000
0000
1003
0000
0000
1010
0000
0000
,
1100
0101
0011
0210
,
0310
0000
2002
0000
0003
0000
3002
0000
0000
0203
0000
0000
,
2300
3002
0023
2030
,
0000
0000
3002
0000
0000
0000
0013
0000
0000
0011
0000
0000
,
0101
1010
1100
1001
,
1000
0001
1000
0001
0000
0001
1000
0000
1000
0001
0000
0010
,
0100
0000
0100
0001
0000
0100
0010
0000
0010
0001
0000
0000
,
0101
0000
0000
1010
0000
0000
1100
0000
0000
1000
0000
0010
,
0100
0000
0100
1000
0000
0100
0010
0000
0010
1000
0000
0100
,
0010
0000
0100
0001
0000
0100
1000
0000
0000
0001
0000
0010
,
0100
0000
0100
1000
0000
0010
0100
0000
0100
1000
0000
0100
,
0001
0000
0010
0000
0000
0001
0000
0000
0001
1000
0000
0010
,
0100
0000
0001
1000
0000
0100
0010
0000
0001
1000
0000
1000
,
0100
0000
0021
0000
0000
0000
0031
1000
0001
1000
0000
0010
,
0100
0000
0100
1000
0000
0100
0010
0000
0010
1000
0000
0000
,
1100
0000
0000
0011
0000
0000
0101
0000
0000
0001
0000
0010
,
0100
0000
0100
0001
0000
0100
0010
0000
0010
0001
0000
0100
,
1000
0000
0100
0001
0000
0000
1000
0000
0001
1000
0000
0010
,
0100
0000
0100
0001
0000
0010
0100
0000
0100
0001
0000
0100
,
1000
0000
0010
0000
0000
1000
0000
0000
1000
0001
0000
0010
,
0100
0000
1000
0001
0000
0100
0010
0000
1000
0001
0000
0001
,
0100
0000
0000
0000
2020
0000
0000
0000
0000
0000
0000
0000
3030
0000
0000
0000
0000
0000
0001
0000
0000
1000
0000
1000
,
0100
0000
0000
1000
0000
1000
0010
0000
0000
0100
0000
0100
0001
0000
0000
1000
0000
0000
0020
0000
0000
0130
0000
0000
,
0200
0310
0110
0000
1010
0000
1001
0000
,
0012
0203
0320
0032
,
2003
0000
0000
3100
0000
0100
0010
0000
2000
0000
0000
0000
,
3001
0011
0101
1100
,
1010
0000
0000
0220
0000
0000
0330
0000
2002
0000
3000
0000
,
2003
3200
0302
2003
,
3020
0000
0000
0032
0000
0000
0000
0000
2003
0000
0000
0000
,
3010
1010
1100
0011
,
0101
0000
0000
1001
0000
0000
1001
0000
0000
0001
0010
0001
,
0010
0001
0010
0400
0000
0000
0000
0000
0000
0300
0000
0000
,
0000
0000
0000
1000
0000
0010
0100
0000
0100
1000
0000
0100
,
0010
0000
0010
1000
0000
0000
1100
0000
0000
0011
0000
0000
,
0101
0000
0000
0001
0000
0010
0100
0000
0100
0001
0000
0100
,
0010
0000
0010
0001
0000
0100
0010
0000
0100
1000
0000
0100
,
0001
0000
0001
1000
0000
0010
0100
0000
0100
0001
0000
0010
,
0100
0000
0100
0001
0000
0100
1000
0000
0010
0000
0000
1000
,
0001
0000
1000
0001
0000
0010
0100
0000
1000
0001
0000
0100
,
0010
0000
1000
0001
0000
0001
0100
0000
1020
0000
0000
0000
,
1030
0001
1000
0001
0000
0010
0100
0000
0100
0001
0000
0100
,
0010
0000
0010
0001
0000
0000
0101
0000
0000
1010
0000
0000
,
1100
0000
0000
1000
0000
0010
0100
0000
0100
1000
0000
0100
,
0010
0000
0010
1000
0000
0100
0001
0000
0100
1000
0000
0000
,
0001
0000
0000
1000
0000
0000
1000
0000
1000
0100
0000
0010
,
0100
0000
1000
0001
0000
0010
0100
0000
0020
M000
M000
0031
,
1000
0000
1000
0010
0000
0100
0001
0000
0001
0010
0000
0100
,
1000
0000
1000
0010
0000
0000
0101
0000
0000
0110
0000
0100
,
0001
0000
1000
0001
0000
0010
1000
0000
1000
0001
0000
0100
,
1000
0000
1000
0001
0000
0000
0101
0000
0000
1000
0000
0000
,
1100
0000
0000
1000
0000
0010
0001
0000
0001
1000
0000
0100
,
0001
0000
0001
1000
0000
0100
0010
0000
0100
0010
0000
0001
,
1000
0000
0000
0001
0000
0000
0001
0000
0000
0010
0000
0100
,
0010
0000
0001
1000
0000
0100
1000
0000
0020
0000
0000
0130
,
0000
0000
0100
1000
0000
0100
0010
0000
0010
1000
0000
0001
,
0010
0000
0010
0100
0000
0100
0010
0000
0012
0000
0000
0000
,
1003
0001
1000
0001
0000
0001
0010
0000
0010
0100
0000
0100
,
1000
0000
1000
0010
0000
0010
0100
0000
0100
0001
0000
0001
,
1000
0001
1000
0001
0000
0001
0010
0000
0010
0100
0000
0100
,
1000
0000
1000
0010
1000
0010
1000
0010
1000
0001
0100
0001
,
0100
0001
0100
0001
0000
0100
0010
0000
0010
0001
0000
0010
,
0100
0000
0100
0001
0000
1000
0100
0000
0020
0000
0000
0031
,
0010
0000
0100
1000
0000
0010
0100
0000
0010
1000
0000
0100
,
0010
0000
0100
1000
0000
1000
0001
0000
0202
0000
0000
0000
,
0303
0000
0000
0000
0000
0000
1000
0000
0000
0001
0000
0000
1000
0000
1000
0010
0000
0010
0100
0000
0001
0010
0000
0002
,
0000
0000
0000
0003
0000
0000
0000
0000
0000
0000
0000
0000
0000
1000
0000
0100
0000
0000
0000
1000
0000
0010
0000
0000
,
0000
0010
0000
0100
0000
0000
0000
0100
0000
0001
0000
0000
0000
0001
0000
1000
0000
0000
0000
1000
0000
0100
0000
0000
,
0000
0010
0000
0001
0000
0000
0000
2002
0000
0000
0000
0000
0000
0000
0000
3003
0000
0000
0000
0000
0000
0000
0000
0000
;

//--------------- dance-single - Haley Halcyon ----------------
#NOTES:
     dance-single:
     Haley Halcyon:
     Challenge:
     12:
     0.794181,0.929328,0.337578,0.840354,1.375452,774,727,47,117,74,1,0.794181,0.929328,0.337578,0.840354,1.375452,774,727,47,117,74,1:
0000
0000
0000
000M
,
000M
0000
0000
M000
,
M000
0000
0000
0MM0
,
0MM0
0000
0001
0100
0000
0001
0010
0000
0100
1000
0000
0001
,
0100
0000
1000
0100
0000
0004
0003
0000
0000
M000
0000
0000
,
M000
0000
0001
0100
0000
4000
3000
0000
0000
000M
0000
0000
,
000M
0000
1000
0100
0000
0002
0000
0003
0010
0200
0300
1000
,
0200
0300
0010
0002
0003
0100
1000
0000
0100
0010
0000
0010
,
1000
0000
1000
0400
0000
0000
1300
0000
0000
1001
0000
0000
,
0001
0000
0010
0100
0000
1000
0001
0000
0100
0001
0000
0010
,
0100
0000
0000
0000
0100
0000
0010
0000
0001
0000
0010
0000
M00M
0000
0000
1001
0000
0000
0000
0000
0000
0001
0000
0000
,
0000
1000
0000
0100
0000
0000
0000
0010
0000
1000
0000
0000
0000
1000
0000
0010
0000
0000
0000
0002
0000
1000
0000
0000
,
0003
1000
0000
0010
0000
0100
0000
0010
0000
M00M
0000
0000
1001
0000
0000
0000
0000
0000
0001
0000
0000
0000
0010
0000
,
1000
0000
0010
0100
0000
1000
0100
0000
0010
0000
0000
0010
,
0001
0000
0101
0000
0000
0010
1000
0000
1100
0000
0000
0001
,
0100
0000
1100
0000
0000
0010
0100
0000
0202
0000
0000
0000
,
0303
0000
1000
0002
0000
0000
1003
0000
0002
0000
0000
0013
,
0100
0000
0100
2000
0000
0000
3001
0000
2000
0000
0000
3010
,
0100
0000
0100
2000
0000
0000
0000
0000
0200
3000
0000
0000
,
0300
0000
0000
0001
0000
1000
0001
0000
1000
0001
0000
0001
,
1000
0000
1000
0002
0000
0000
0103
0000
0020
0000
0000
0130
,
0010
0000
0000
0000
0000
0000
0000
0000
0010
0000
0000
0000
2000
0000
0000
0000
0000
0000
0000
0000
0000
0000
0000
0000
3200
0000
0000
0000
0000
0000
0000
0000
0010
0000
0000
0000
0000
0000
0000
0000
0000
0000
0000
0000
0002
0300
0000
0000
,
0000
0000
0000
0000
0003
0000
0000
0000
0100
0000
0000
0000
200M
0000
0000
00M0
0000
0000
0M00
0000
0000
00M0
0000
0000
3001
0000
0000
0000
0000
0000
0000
0000
0000
0000
0000
0000
0000
0000
0000
0000
0000
0000
0000
0000
0000
0000
0000
0000
,
0000
0000
0001
1000
0000
1000
0020
0000
0000
1030
0000
0020
,
0000
0000
0031
0010
0000
1000
0200
0000
0000
1300
0000
0200
,
0000
0000
0301
0100
0000
1000
0002
0000
0000
0000
0000
0200
,
0003
0000
0000
0300
0000
0000
0010
1000
0010
1000
0010
1000
,
0010
0000
1000
0010
0000
1000
0002
0000
0000
0000
0000
0103
,
0000
0000
0001
1000
0000
0100
2000
0000
0000
0000
0000
3010
,
0000
0000
0100
0010
0000
1000
0002
0000
0000
0103
0000
0020
,
0000
0000
0130
0001
0000
0001
2000
0000
0000
3200
0000
0000
,
0310
0000
0001
1000
0000
0001
2000
0000
0000
3100
0000
0020
,
0000
0000
0130
0001
0000
0100
2000
0000
0000
3010
0000
0200
,
0000
0000
0310
0001
0000
0010
0200
0000
0000
0000
0000
0002
,
0300
0000
0000
0003
0000
0000
4000
3000
0040
0430
0300
0040
,
4030
3000
1000
0001
0000
0001
0020
0000
0000
0130
0000
0002
,
0000
0003
0100
1000
0000
0001
0200
0000
0000
0320
0000
0001
,
0000
0000
0000
0000
000M
0000
0000
0000
0130
0000
0000
0000
0000
0000
0000
0000
0000
0000
0000
0000
0010
0000
0000
0000
100M
0000
0000
0100
0000
0000
0010
0000
0000
0001
0000
0000
1000
0000
0000
0000
0000
0000
0000
0000
0000
0000
0M00
0000
,
0000
0000
00M0
0000
0M00
0001
0010
0000
0001
0200
0000
0000
,
1300
0000
0200
0000
0000
0301
1000
0000
1000
0200
0000
0000
,
0301
0000
0200
0000
0000
1300
0001
0000
1000
0020
0000
0000
,
0000
0000
0200
0030
0000
0000
0300
0000
0000
0004
0003
0400
,
0340
0030
0400
0304
0003
0001
1000
0000
1000
0020
0000
0000
,
0030
0000
0011
0000
0000
0010
1000
0000
1000
0200
0000
0000
,
0300
0000
0101
0000
0000
0100
1000
0000
1000
0002
0000
0000
,
1003
0000
0020
0000
0000
1030
0001
0000
0001
2000
0000
0000
,
3002
0000
0000
0103
0000
0100
0010
1000
0100
0020
0000
0000
,
0002
0030
0000
0200
0003
0000
2000
0300
0000
0002
3000
0023
,
0200
0030
0002
0300
0000
0000
2003
0000
0000
3100
0000
0000
,
0110
0011
1001
0102
,
0013
0000
0220
0000
0330
0000
0200
0000
0000
2000
0300
0000
,
0020
3000
0000
0002
0030
0000
2000
0003
0000
0200
3000
0000
,
0000
0000
0002
0300
0000
0000
2000
3003
0000
1MM1
0000
0000
,
M11M
0000
0000
1MM1
0000
0000
M11M
0000
0000
1000
0100
0010
,
0001
0100
0010
0001
0010
1000
0002
0000
0003
1000
0000
0001
,
0100
000M
0100
1000
0000
0001
0100
000M
0100
1000
0000
M000
,
1010
0000
00M0
0001
0000
000M
0011
0000
00M0
0001
0000
1000
,
0100
M000
0100
0001
0000
1000
0100
M000
0100
0001
0000
0001
,
0010
0000
0010
1000
0000
1000
0010
0000
0010
0001
0000
0010
,
0100
0000
0100
1000
0000
0010
0100
0000
0100
1000
0000
0100
,
0010
0000
2000
0000
3000
0010
0000
0000
0010
1000
0000
0100
,
0010
0000
0001
0100
0000
0010
1000
0000
0100
0001
0000
0001
,
0100
0000
2000
0000
3000
0000
0001
0010
0100
1000
0000
1000
,
0100
0000
0100
0001
0000
0001
0100
0000
0100
1000
0000
M000
,
1010
0000
00M0
0001
0000
000M
0011
0000
00M0
0001
0000
0001
,
0100
0000
0100
1000
0000
1000
0100
0000
0100
0001
0000
0010
,
1000
0000
0010
0001
0000
0000
1000
0000
1000
0010
0000
0100
,
1000
0000
0100
0010
0000
0100
0001
0000
0100
0010
0000
1000
,
0100
0000
0001
0000
0000
0001
0100
0000
0100
1000
0010
1000
,
0001
0100
0001
1000
0100
0010
0001
0010
0100
1000
0000
1000
,
0010
0000
0000
0000
2020
0000
0000
0000
0000
0000
0000
0000
3030
0000
0000
0000
0000
0000
M002
0000
0003
0100
0000
0100
,
0020
0000
0030
0100
0000
0100
0002
0000
0000
0103
0000
0100
0001
0000
0000
0001
0010
0100
2000
0000
0000
0000
0000
0000
,
0020
3000
103M
0000
1100
0000
0001
0000
,
0102
0000
0000
2000
0003
0000
0200
3000
0000
0002
0300
0000
,
2000
0003
0000
0010
3000
0020
0002
0030
2000
0003
0000
3000
,
0010
1010
0101
0011
,
1100
0000
0000
0220
0000
0000
0330
0000
2002
0000
3000
0003
,
2000
0000
0000
0200
3000
0000
0002
0300
0000
2000
0003
0000
,
0020
3000
0000
0002
0030
0000
0000
0000
0200
0003
0000
0000
,
2000
0300
0000
3100
0000
0000
0101
0000
0000
0011
0000
0000
,
1010
0000
0000
0000
0000
0000
1001
0000
0000
M00M
0000
0000
1001
0000
0000
M00M
0000
0000
0001
0000
0100
0000
0010
0000
,
1000
0010
0100
0004
0000
0000
0000
0000
0000
0000
0000
1003
,
0010
0000
0010
1000
0000
0001
0100
000M
0100
1000
0000
0001
,
0100
000M
0100
1000
0000
M000
1010
0000
00M0
0001
0000
000M
,
0011
0000
00M0
0001
0000
1000
0010
M000
0010
0001
0000
1000
,
0010
M000
0010
0001
0000
0100
1000
0000
0100
0001
0000
0010
,
1000
0000
0010
0001
0000
0001
0010
0000
0100
1000
0000
1000
,
0010
0000
0100
1000
0000
1000
0100
0000
0002
0000
0000
1003
,
0001
0000
1000
0001
0000
0100
0001
0000
0010
1000
0000
0010
,
0001
0000
1000
0010
0000
0010
1000
0000
0002
0000
0003
0000
,
0010
0100
1000
0001
0000
1000
0010
M000
0010
0001
0000
1000
,
0010
M000
0010
0001
0000
000M
0101
0000
0M00
1000
0000
M000
,
1100
0000
0M00
1000
0000
0001
0010
000M
0010
1000
0000
0001
,
0010
000M
0010
1000
0000
0100
0010
0000
0100
0001
0000
0100
,
2000
0000
3000
0001
0000
0010
0100
0000
0010
0001
0000
0100
,
0010
0000
0100
1000
0000
0100
0001
0000
2000
0MM0
0000
3001
,
0010
0000
0010
0100
0010
0100
1000
0001
1000
0100
0010
0001
,
0100
0010
0100
0002
0000
0000
0010
0000
0000
1013
0000
0001
,
0010
0000
0010
0001
0000
0100
1000
0000
0001
0010
0000
1000
,
0100
0000
0001
0100
0000
0M00
1100
0000
M000
0010
0000
00M0
,
0011
0000
000M
1000
0000
0100
0001
0000
1000
0010
0000
0001
,
0100
0000
1000
0100
0000
0100
0001
0000
0001
0010
0000
0010
,
0100
0000
0000
1100
0000
0000
0011
0000
0000
0010
0000
0001
,
0100
0000
0010
1000
0000
0100
0010
0000
0002
0000
0000
1003
,
0000
0000
1000
0010
0000
1000
0100
0000
0100
0010
0000
0001
,
0100
0000
0100
0001
0000
0010
2000
0000
0002
3000
0000
0003
,
0100
1000
0100
1000
0000
1000
0100
0000
0100
0001
0000
0001
,
1000
0000
1000
0001
0000
0001
0100
0000
0100
1000
0000
1000
,
0001
0010
0001
1000
0000
1000
0100
0000
0100
0001
0000
0001
,
0100
1000
0001
1000
0100
1000
0001
0100
0001
0010
0100
1000
,
0010
1000
0100
0010
0000
0100
0001
0000
0001
0010
0000
0100
,
1000
0000
1000
0001
0000
0010
1000
0000
0010
0001
0000
0100
,
0001
0000
0001
1000
0010
1000
0001
0010
0001
1000
0100
0010
,
0001
0010
0100
1000
0000
1000
0010
0000
0020
0001
0000
0000
,
0100
0000
0000
0000
0000
0000
103M
0000
0000
1000
0000
0000
0001
0000
0001
1000
0000
1000
0010
0000
0100
0001
0000
0020
,
0000
0000
0000
0000
0000
0000
0030
0000
0000
0000
0000
0000
0000
0001
0000
0010
0000
0000
0000
0020
0000
1030
0000
0000
,
0000
0000
0000
M0M0
0000
0000
0000
0000
0000
1100
0000
0000
0000
1000
0000
0001
0000
0000
0000
0001
0000
0010
0000
0000
,
0000
0010
0000
0100
0000
0000
0000
2002
0000
0000
0000
0000
0000
0000
0000
3003
0000
0000
0000
0000
0000
0000
0000
0000
;
