#VERSION:0.83;
#TITLE:Party;
#SUBTITLE:;
#ARTIST:Tokyo Machine;
#TITLETRANSLIT:;
#SUBTITLETRANSLIT:;
#ARTISTTRANSLIT:;
#GENRE:Bass House;
#ORIGIN:Monstercat;
#CREDIT:Haley Halcyon;
#BANNER:Party [5.0].png;
#BACKGROUND:Party [5.0]-bg.png;
#PREVIEWVID:;
#JACKET:Party [5.0]-jacket.png;
#CDIMAGE:;
#DISCIMAGE:;
#LYRICSPATH:;
#CDTITLE:cdtitle.png;
#MUSIC:Party [5.0].mp3;
#OFFSET:-0.563000;
#SAMPLESTART:52.125999;
#SAMPLELENGTH:15.938000;
#SELECTABLE:YES;
#DISPLAYBPM:128.000000;
#BPMS:0.000=128.000;
#STOPS:;
#DELAYS:;
#WARPS:110.000=8.000,
235.000=1.000;
#TIMESIGNATURES:0.000=4=4;
#TICKCOUNTS:0.000=4;
#COMBOS:0.000=1;
#SPEEDS:0.000=1.000=0.000=0;
#SCROLLS:0.000=1.000,
31.000=3.250,
31.250=0.250,
32.000=1.000,
118.000=0.000,
119.000=1.000,
120.000=-2.000,
120.125=-1.000,
120.250=-0.500,
120.375=0.000,
120.500=0.500,
120.625=1.000,
120.750=2.000,
120.875=4.000,
121.000=-2.000,
121.125=-1.000,
121.250=-0.500,
121.375=0.000,
121.500=0.500,
121.625=1.000,
121.750=2.000,
121.875=4.000,
122.000=-2.000,
122.125=-1.000,
122.250=-0.500,
122.375=0.000,
122.500=0.500,
122.625=1.000,
122.750=2.000,
122.875=4.000,
123.000=-2.000,
123.125=-1.000,
123.250=-0.500,
123.375=0.000,
123.500=0.500,
123.625=1.000,
123.750=2.000,
123.875=4.000,
124.000=-2.000,
124.125=-1.000,
124.250=-0.500,
124.375=0.000,
124.500=0.500,
124.625=1.000,
124.750=2.000,
124.875=4.000,
125.000=1.000,
128.000=-2.000,
128.125=-1.000,
128.250=-0.500,
128.375=0.000,
128.500=0.500,
128.625=1.000,
128.750=2.000,
128.875=4.000,
129.000=-2.000,
129.125=-1.000,
129.250=-0.500,
129.375=0.000,
129.500=0.500,
129.625=1.000,
129.750=2.000,
129.875=4.000,
130.000=-2.000,
130.125=-1.000,
130.250=-0.500,
130.375=0.000,
130.500=0.500,
130.625=1.000,
130.750=2.000,
130.875=4.000,
131.000=-2.000,
131.125=-1.000,
131.250=-0.500,
131.375=0.000,
131.500=0.500,
131.625=1.000,
131.750=2.000,
131.875=4.000,
132.000=1.000,
136.000=-2.000,
136.125=-1.000,
136.250=-0.500,
136.375=0.000,
136.500=0.500,
136.625=1.000,
136.750=2.000,
136.875=4.000,
137.000=-2.000,
137.125=-1.000,
137.250=-0.500,
137.375=0.000,
137.500=0.500,
137.625=1.000,
137.750=2.000,
137.875=4.000,
138.000=-2.000,
138.125=-1.000,
138.250=-0.500,
138.375=0.000,
138.500=0.500,
138.625=1.000,
138.750=2.000,
138.875=4.000,
139.000=-2.000,
139.125=-1.000,
139.250=-0.500,
139.375=0.000,
139.500=0.500,
139.625=1.000,
139.750=2.000,
139.875=4.000,
140.000=-2.000,
140.125=-1.000,
140.250=-0.500,
140.375=0.000,
140.500=0.500,
140.625=1.000,
140.750=2.000,
140.875=4.000,
141.000=1.000,
144.000=-2.000,
144.125=-1.000,
144.250=-0.500,
144.375=0.000,
144.500=0.500,
144.625=1.000,
144.750=2.000,
144.875=4.000,
145.000=-2.000,
145.125=-1.000,
145.250=-0.500,
145.375=0.000,
145.500=0.500,
145.625=1.000,
145.750=2.000,
145.875=4.000,
146.000=-2.000,
146.125=-1.000,
146.250=-0.500,
146.375=0.000,
146.500=0.500,
146.625=1.000,
146.750=2.000,
146.875=4.000,
147.000=-2.000,
147.125=-1.000,
147.250=-0.500,
147.375=0.000,
147.500=0.500,
147.625=1.000,
147.750=2.000,
147.875=4.000,
148.000=1.000,
152.000=-2.000,
152.125=-1.000,
152.250=-0.500,
152.375=0.000,
152.500=0.500,
152.625=1.000,
152.750=2.000,
152.875=4.000,
153.000=-2.000,
153.125=-1.000,
153.250=-0.500,
153.375=0.000,
153.500=0.500,
153.625=1.000,
153.750=2.000,
153.875=4.000,
154.000=-2.000,
154.125=-0.500,
154.250=1.500,
154.375=3.000,
154.500=-2.000,
154.625=-0.500,
154.750=1.500,
154.875=3.000,
155.000=-2.000,
155.125=-1.000,
155.250=-0.500,
155.375=0.000,
155.500=0.500,
155.625=1.000,
155.750=2.000,
155.875=4.000,
156.000=-2.000,
156.125=-0.500,
156.250=1.500,
156.375=3.000,
156.500=-2.000,
156.625=-0.500,
156.750=1.500,
156.875=3.000,
157.000=1.000,
160.000=-2.000,
160.125=-1.000,
160.250=-0.500,
160.375=0.000,
160.500=0.500,
160.625=1.000,
160.750=2.000,
160.875=4.000,
161.000=-2.000,
161.125=-1.000,
161.250=-0.500,
161.375=0.000,
161.500=0.500,
161.625=1.000,
161.750=2.000,
161.875=4.000,
162.000=-2.000,
162.125=-1.000,
162.250=-0.500,
162.375=0.000,
162.500=0.500,
162.625=1.000,
162.750=2.000,
162.875=4.000,
163.000=-2.000,
163.125=-1.000,
163.250=-0.500,
163.375=0.000,
163.500=0.500,
163.625=1.000,
163.750=2.000,
163.875=4.000,
164.000=1.000,
168.000=-2.000,
168.125=-1.000,
168.250=-0.500,
168.375=0.000,
168.500=0.500,
168.625=1.000,
168.750=2.000,
168.875=4.000,
169.000=-2.000,
169.125=-1.000,
169.250=-0.500,
169.375=0.000,
169.500=0.500,
169.625=1.000,
169.750=2.000,
169.875=4.000,
170.000=-2.000,
170.125=-0.500,
170.250=1.500,
170.375=3.000,
170.500=-2.000,
170.625=-0.500,
170.750=1.500,
170.875=3.000,
171.000=-2.000,
171.125=-1.000,
171.250=-0.500,
171.375=0.000,
171.500=0.500,
171.625=1.000,
171.750=2.000,
171.875=4.000,
172.000=-2.000,
172.125=-0.500,
172.250=1.500,
172.375=3.000,
172.500=-2.000,
172.625=-0.500,
172.750=1.500,
172.875=3.000,
173.000=1.000,
176.000=-2.000,
176.125=-1.000,
176.250=-0.500,
176.375=0.000,
176.500=0.500,
176.625=1.000,
176.750=2.000,
176.875=4.000,
177.000=-2.000,
177.125=-1.000,
177.250=-0.500,
177.375=0.000,
177.500=0.500,
177.625=1.000,
177.750=2.000,
177.875=4.000,
178.000=-2.000,
178.125=-1.000,
178.250=-0.500,
178.375=0.000,
178.500=0.500,
178.625=1.000,
178.750=2.000,
178.875=4.000,
179.000=-2.000,
179.125=-1.000,
179.250=-0.500,
179.375=0.000,
179.500=0.500,
179.625=1.000,
179.750=2.000,
179.875=4.000,
180.000=1.000,
200.000=-2.000,
200.125=-1.000,
200.250=-0.500,
200.375=0.000,
200.500=0.500,
200.625=1.000,
200.750=2.000,
200.875=4.000,
201.000=-2.000,
201.125=-1.000,
201.250=-0.500,
201.375=0.000,
201.500=0.500,
201.625=1.000,
201.750=2.000,
201.875=4.000,
202.000=-2.000,
202.125=-1.000,
202.250=-0.500,
202.375=0.000,
202.500=0.500,
202.625=1.000,
202.750=2.000,
202.875=4.000,
203.000=-2.000,
203.125=-1.000,
203.250=-0.500,
203.375=0.000,
203.500=0.500,
203.625=1.000,
203.750=2.000,
203.875=4.000,
204.000=-2.000,
204.125=-1.000,
204.250=-0.500,
204.375=0.000,
204.500=0.500,
204.625=1.000,
204.750=2.000,
204.875=4.000,
205.000=1.000,
208.000=-2.000,
208.125=-1.000,
208.250=-0.500,
208.375=0.000,
208.500=0.500,
208.625=1.000,
208.750=2.000,
208.875=4.000,
209.000=-2.000,
209.125=-1.000,
209.250=-0.500,
209.375=0.000,
209.500=0.500,
209.625=1.000,
209.750=2.000,
209.875=4.000,
210.000=-2.000,
210.125=-1.000,
210.250=-0.500,
210.375=0.000,
210.500=0.500,
210.625=1.000,
210.750=2.000,
210.875=4.000,
211.000=-2.000,
211.125=-1.000,
211.250=-0.500,
211.375=0.000,
211.500=0.500,
211.625=1.000,
211.750=2.000,
211.875=4.000,
212.000=-2.000,
212.125=-0.500,
212.250=1.500,
212.375=3.000,
212.500=-2.000,
212.625=-0.500,
212.750=1.500,
212.875=3.000,
213.000=-2.000,
213.125=-1.000,
213.250=-0.500,
213.375=0.000,
213.500=0.500,
213.625=1.000,
213.750=2.000,
213.875=4.000,
214.000=1.000,
216.000=-2.000,
216.125=-1.000,
216.250=-0.500,
216.375=0.000,
216.500=0.500,
216.625=1.000,
216.750=2.000,
216.875=4.000,
217.000=-2.000,
217.125=-1.000,
217.250=-0.500,
217.375=0.000,
217.500=0.500,
217.625=1.000,
217.750=2.000,
217.875=4.000,
218.000=-2.000,
218.125=-1.000,
218.250=-0.500,
218.375=0.000,
218.500=0.500,
218.625=1.000,
218.750=2.000,
218.875=4.000,
219.000=-2.000,
219.125=-1.000,
219.250=-0.500,
219.375=0.000,
219.500=0.500,
219.625=1.000,
219.750=2.000,
219.875=4.000,
220.000=-2.000,
220.125=-1.000,
220.250=-0.500,
220.375=0.000,
220.500=0.500,
220.625=1.000,
220.750=2.000,
220.875=4.000,
221.000=1.000,
224.000=-2.000,
224.125=-1.000,
224.250=-0.500,
224.375=0.000,
224.500=0.500,
224.625=1.000,
224.750=2.000,
224.875=4.000,
225.000=-2.000,
225.125=-1.000,
225.250=-0.500,
225.375=0.000,
225.500=0.500,
225.625=1.000,
225.750=2.000,
225.875=4.000,
226.000=-2.000,
226.125=-1.000,
226.250=-0.500,
226.375=0.000,
226.500=0.500,
226.625=1.000,
226.750=2.000,
226.875=4.000,
227.000=-2.000,
227.125=-1.000,
227.250=-0.500,
227.375=0.000,
227.500=0.500,
227.625=1.000,
227.750=2.000,
227.875=4.000,
228.000=1.000,
232.000=0.000,
235.000=8.000;
#FAKES:;
#LABELS:0.000=Song Start;
#BGCHANGES:;
#KEYSOUNDS:;
#ATTACKS: TIME=0.000:LEN=150.000:MODS=Skew // moves vanishing point, from center of screen, to center of notefield // intro :TIME= 0.580:LEN=1.000:MODS=*100 20% Flip :TIME= 1.050:LEN=0.700:MODS=*100 0% Flip :TIME= 1.750:LEN=0.230:MODS=*100 20% Flip :TIME= 1.980:LEN=0.470:MODS=*100 0% Flip :TIME= 2.450:LEN=0.470:MODS=*100 20% Flip :TIME= 2.920:LEN=0.590:MODS=*100 0% Flip :TIME= 3.630:LEN=0.230:MODS=*100 20% Flip :TIME= 3.860:LEN=0.470:MODS=*100 0% Flip :TIME= 4.330:LEN=0.470:MODS=*100 20% Flip :TIME= 4.800:LEN=0.700:MODS=*100 0% Flip :TIME= 5.500:LEN=0.230:MODS=*100 20% Flip :TIME= 5.730:LEN=0.470:MODS=*100 0% Flip :TIME= 6.200:LEN=0.470:MODS=*100 20% Flip :TIME= 6.670:LEN=0.590:MODS=*100 0% Flip :TIME= 7.380:LEN=0.230:MODS=*100 20% Flip :TIME= 7.610:LEN=0.470:MODS=*100 0% Flip :TIME= 8.080:LEN=1.000:MODS=*100 20% Flip :TIME= 8.550:LEN=0.700:MODS=*100 0% Flip :TIME= 9.250:LEN=0.230:MODS=*100 20% Flip :TIME= 9.480:LEN=0.470:MODS=*100 0% Flip :TIME= 9.950:LEN=0.470:MODS=*100 20% Flip :TIME=10.420:LEN=0.590:MODS=*100 0% Flip :TIME=11.010:LEN=0.120:MODS= *100 -30% Mini :TIME=11.130:LEN=0.230:MODS=*100 20% Flip, *100 0% Mini :TIME=11.360:LEN=0.470:MODS=*100 0% Flip :TIME=11.830:LEN=0.470:MODS=*100 20% Flip :TIME=12.300:LEN=0.700:MODS=*100 0% Flip :TIME=13.000:LEN=0.230:MODS=*100 20% Flip :TIME=13.230:LEN=0.470:MODS=*100 0% Flip :TIME=13.700:LEN=0.470:MODS=*100 20% Flip :TIME=14.170:LEN=0.590:MODS=*100 0% Flip :TIME=14.760:LEN=0.120:MODS= *100 -30% Mini :TIME=14.880:LEN=0.230:MODS=*100 20% Flip, *100 0% Mini :TIME=15.110:LEN=0.470:MODS=*100 0% Flip // verse :TIME=30.580:LEN=0.100:MODS=*100 300% Dizzy, *100 100% Drunk, *16 100% Brake, :TIME=30.600:LEN=0.200:MODS= *24 0.1% Dizzy, *4 0.1% Drunk, *1 0% Brake :TIME=32.220:LEN=0.100:MODS=*100 300% Dizzy, *100 100% Drunk, *16 100% Brake :TIME=32.240:LEN=0.200:MODS= *24 0.1% Dizzy, *4 0.1% Drunk, *1 0% Brake :TIME=34.330:LEN=0.100:MODS=*100 300% Dizzy, *100 100% Drunk, *16 100% Brake :TIME=34.350:LEN=0.200:MODS= *24 0.1% Dizzy, *4 0.1% Drunk, *1 0% Brake :TIME=35.970:LEN=0.100:MODS=*100 300% Dizzy, *100 100% Drunk, *16 100% Brake :TIME=35.990:LEN=0.200:MODS= *24 0.1% Dizzy, *4 0.1% Drunk, *1 0% Brake :TIME=37.140:LEN=0.100:MODS=*100 300% Dizzy, *100 100% Drunk, *16 100% Brake :TIME=37.160:LEN=0.200:MODS= *24 0.1% Dizzy, *4 0.1% Drunk, *1 0% Brake :TIME=38.080:LEN=15.000:MODS=*100 Beat :TIME=38.080:LEN=0.100:MODS=*100 300% Dizzy, *100 100% Drunk, *16 100% Brake :TIME=38.100:LEN=0.200:MODS= *24 0.1% Dizzy, *4 0.1% Drunk, *1 0% Brake :TIME=39.720:LEN=0.100:MODS=*100 300% Dizzy, *100 100% Drunk, *16 100% Brake :TIME=39.740:LEN=0.200:MODS= *24 0.1% Dizzy, *4 0.1% Drunk, *1 0% Brake :TIME=41.830:LEN=0.100:MODS=*100 300% Dizzy, *100 100% Drunk, *16 100% Brake :TIME=41.850:LEN=0.200:MODS= *24 0.1% Dizzy, *4 0.1% Drunk, *1 0% Brake :TIME=43.470:LEN=0.100:MODS=*100 300% Dizzy, *100 100% Drunk, *16 100% Brake :TIME=43.490:LEN=0.200:MODS= *24 0.1% Dizzy, *4 0.1% Drunk, *1 0% Brake :TIME=44.640:LEN=0.100:MODS=*100 300% Dizzy, *100 100% Drunk, *16 100% Brake :TIME=44.660:LEN=0.200:MODS= *24 0.1% Dizzy, *4 0.1% Drunk, *1 0% Brake :TIME=47.430:LEN=5.000:MODS=*100 200% BeatMult :TIME=49.312:LEN=5.000:MODS=*100 400% BeatMult :TIME=51.187:LEN=5.000:MODS=*100 800% BeatMult, *1 100% Mini :TIME=52.125:LEN=5.000:MODS=*100 0% Beat, *100 100% BeatMult, *100 0% Mini // drop :TIME=53.070:LEN=0.500:MODS=*16 200% Incoming :TIME=53.300:LEN=0.500:MODS= *8 0% Incoming :TIME=53.530:LEN=0.500:MODS=*16 -200% Incoming :TIME=53.760:LEN=0.500:MODS= *8 0% Incoming :TIME=54.000:LEN=0.500:MODS=*16 -100% XMode :TIME=54.230:LEN=0.500:MODS= *8 0% XMode :TIME=54.469:LEN=0.500:MODS= *5 -25% Flip :TIME=54.703:LEN=0.500:MODS= *5 0% Flip :TIME=54.937:LEN=0.500:MODS= *5 -25% Flip :TIME=55.172:LEN=0.500:MODS= *5 0% Flip :TIME=56.810:LEN=0.500:MODS=*16 200% Incoming :TIME=57.040:LEN=0.500:MODS= *8 0% Incoming :TIME=57.280:LEN=0.500:MODS=*16 -200% Incoming :TIME=57.510:LEN=0.500:MODS= *8 0% Incoming :TIME=57.750:LEN=0.500:MODS=*16 -100% XMode :TIME=57.980:LEN=0.500:MODS= *8 0% XMode :TIME=58.219:LEN=0.500:MODS= *5 -25% Flip :TIME=58.453:LEN=0.500:MODS= *5 0% Flip :TIME=60.560:LEN=0.500:MODS=*16 200% Incoming :TIME=60.790:LEN=0.500:MODS= *8 0% Incoming :TIME=61.030:LEN=0.500:MODS=*16 -200% Incoming :TIME=61.260:LEN=0.500:MODS= *8 0% Incoming :TIME=61.500:LEN=0.500:MODS=*16 -100% XMode :TIME=61.730:LEN=0.500:MODS= *8 0% XMode :TIME=61.969:LEN=0.500:MODS= *5 -25% Flip :TIME=62.203:LEN=0.500:MODS= *5 0% Flip :TIME=62.437:LEN=0.500:MODS= *5 -25% Flip :TIME=62.672:LEN=0.500:MODS= *5 0% Flip :TIME=64.310:LEN=0.500:MODS=*16 200% Incoming :TIME=64.540:LEN=0.500:MODS= *8 0% Incoming :TIME=64.780:LEN=0.500:MODS=*16 -200% Incoming :TIME=65.010:LEN=0.500:MODS= *8 0% Incoming :TIME=65.250:LEN=0.500:MODS=*16 -100% XMode :TIME=65.480:LEN=0.500:MODS= *8 0% XMode :TIME=65.719:LEN=0.500:MODS= *5 -25% Flip :TIME=65.953:LEN=0.500:MODS= *5 0% Flip :TIME=66.180:LEN=5.000:MODS=*100 100% Beat :TIME=67.470:LEN=5.000:MODS=*100 0% Beat :TIME=68.070:LEN=0.500:MODS=*16 200% Incoming :TIME=68.300:LEN=0.500:MODS= *8 0% Incoming :TIME=68.530:LEN=0.500:MODS=*16 -200% Incoming :TIME=68.760:LEN=0.500:MODS= *8 0% Incoming :TIME=69.000:LEN=0.500:MODS=*32 -100% XMode :TIME=69.110:LEN=0.500:MODS=*16 0% XMode :TIME=69.230:LEN=0.500:MODS=*32 -100% XMode :TIME=69.350:LEN=0.500:MODS=*16 0% XMode :TIME=69.469:LEN=0.500:MODS= *5 -25% Flip :TIME=69.703:LEN=0.500:MODS= *5 0% Flip :TIME=69.938:LEN=0.250:MODS=*32 -90% MoveY1, *32 -30% MoveY2, *32 30% MoveY3, *32 90% MoveY4 :TIME=70.055:LEN=0.250:MODS=*16 0% MoveY1, *16 0% MoveY2, *16 0% MoveY3, *16 0% MoveY4 :TIME=70.172:LEN=0.250:MODS=*32 90% MoveY1, *32 30% MoveY2, *32 -30% MoveY3, *32 -90% MoveY4 :TIME=70.289:LEN=0.250:MODS=*16 0% MoveY1, *16 0% MoveY2, *16 0% MoveY3, *16 0% MoveY4 :TIME=71.810:LEN=0.500:MODS=*16 200% Incoming :TIME=72.040:LEN=0.500:MODS= *8 0% Incoming :TIME=72.280:LEN=0.500:MODS=*16 -200% Incoming :TIME=72.510:LEN=0.500:MODS= *8 0% Incoming :TIME=72.750:LEN=0.500:MODS=*16 -100% XMode :TIME=72.980:LEN=0.500:MODS= *8 0% XMode :TIME=73.219:LEN=0.500:MODS= *5 -25% Flip :TIME=73.453:LEN=0.500:MODS= *5 0% Flip :TIME=75.560:LEN=0.500:MODS=*16 200% Incoming :TIME=75.790:LEN=0.500:MODS= *8 0% Incoming :TIME=76.030:LEN=0.500:MODS=*16 -200% Incoming :TIME=76.260:LEN=0.500:MODS= *8 0% Incoming :TIME=76.500:LEN=0.500:MODS=*32 -100% XMode :TIME=76.610:LEN=0.500:MODS=*16 0% XMode :TIME=76.730:LEN=0.500:MODS=*32 -100% XMode :TIME=76.850:LEN=0.500:MODS=*16 0% XMode :TIME=76.969:LEN=0.500:MODS= *5 -25% Flip :TIME=77.203:LEN=0.500:MODS= *5 0% Flip :TIME=77.437:LEN=0.250:MODS=*32 -90% MoveY1, *32 -30% MoveY2, *32 30% MoveY3, *32 90% MoveY4 :TIME=77.555:LEN=0.250:MODS=*16 0% MoveY1, *16 0% MoveY2, *16 0% MoveY3, *16 0% MoveY4 :TIME=77.672:LEN=0.250:MODS=*32 90% MoveY1, *32 30% MoveY2, *32 -30% MoveY3, *32 -90% MoveY4 :TIME=77.789:LEN=0.250:MODS=*16 0% MoveY1, *16 0% MoveY2, *16 0% MoveY3, *16 0% MoveY4 :TIME=79.310:LEN=0.500:MODS=*16 200% Incoming :TIME=79.540:LEN=0.500:MODS= *8 0% Incoming :TIME=79.780:LEN=0.500:MODS=*16 -200% Incoming :TIME=80.010:LEN=0.500:MODS= *8 0% Incoming :TIME=80.250:LEN=0.500:MODS=*16 -100% XMode :TIME=80.480:LEN=0.500:MODS= *8 0% XMode :TIME=80.719:LEN=0.500:MODS= *5 -25% Flip :TIME=80.953:LEN=0.500:MODS= *5 0% Flip :TIME=81.187:LEN=0.250:MODS=*32 -90% MoveY1, *32 -30% MoveY2, *32 30% MoveY3, *32 90% MoveY4 :TIME=81.422:LEN=0.250:MODS=*16 0% MoveY1, *16 0% MoveY2, *16 0% MoveY3, *16 0% MoveY4 :TIME=81.656:LEN=0.250:MODS=*32 90% MoveY1, *32 30% MoveY2, *32 -30% MoveY3, *32 -90% MoveY4 :TIME=81.891:LEN=0.250:MODS=*16 0% MoveY1, *16 0% MoveY2, *16 0% MoveY3, *16 0% MoveY4 :TIME=82.125:LEN=0.250:MODS=*16 -90% MoveY1, *16 -30% MoveY2, *16 30% MoveY3, *16 90% MoveY4 :TIME=82.359:LEN=0.250:MODS= *8 0% MoveY1, *8 0% MoveY2, *8 0% MoveY3, *8 0% MoveY4 :TIME=82.590:LEN=0.100:MODS=*100 50000% Confusion // build :TIME=82.960:LEN=8.300:MODS=*100 0% Confusion, *100 100% Beat :TIME=84.937:LEN=5.000:MODS=*100 200% BeatMult :TIME=86.812:LEN=5.000:MODS=*100 400% BeatMult :TIME=88.687:LEN=5.000:MODS=*100 800% BeatMult, *1 100% Mini :TIME=89.625:LEN=5.000:MODS=*100 0% Beat, *100 100% BeatMult, *100 0% Mini // drop 2 :TIME=90.580:LEN=0.500:MODS=*16 200% Incoming :TIME=90.790:LEN=0.500:MODS= *8 0% Incoming :TIME=91.030:LEN=0.500:MODS=*16 -200% Incoming :TIME=91.260:LEN=0.500:MODS= *8 0% Incoming :TIME=91.500:LEN=0.500:MODS=*16 -100% XMode :TIME=91.730:LEN=0.500:MODS= *8 0% XMode :TIME=91.969:LEN=0.500:MODS= *5 -25% Flip :TIME=92.203:LEN=0.500:MODS= *5 0% Flip :TIME=92.437:LEN=0.500:MODS= *5 -25% Flip :TIME=92.672:LEN=0.500:MODS= *5 0% Flip :TIME=94.310:LEN=0.500:MODS=*16 200% Incoming :TIME=94.540:LEN=0.500:MODS= *8 0% Incoming :TIME=94.780:LEN=0.500:MODS=*16 -200% Incoming :TIME=95.010:LEN=0.500:MODS= *8 0% Incoming :TIME=95.250:LEN=0.500:MODS=*16 -100% XMode :TIME=95.480:LEN=0.500:MODS= *8 0% XMode :TIME=95.719:LEN=0.500:MODS= *5 -25% Flip :TIME=95.953:LEN=0.500:MODS= *5 0% Flip :TIME=96.180:LEN=0.250:MODS=*32 -90% MoveY1, *32 -30% MoveY2, *32 30% MoveY3, *32 90% MoveY4 :TIME=96.300:LEN=0.250:MODS=*16 0% MoveY1, *16 0% MoveY2, *16 0% MoveY3, *16 0% MoveY4 :TIME=96.420:LEN=0.250:MODS=*32 90% MoveY1, *32 30% MoveY2, *32 -30% MoveY3, *32 -90% MoveY4 :TIME=96.530:LEN=0.250:MODS=*16 0% MoveY1, *16 0% MoveY2, *16 0% MoveY3, *16 0% MoveY4 :TIME=96.650:LEN=0.250:MODS=*16 -90% MoveY1, *16 -30% MoveY2, *16 30% MoveY3, *16 90% MoveY4 :TIME=96.890:LEN=0.250:MODS= *8 0% MoveY1, *8 0% MoveY2, *8 0% MoveY3, *8 0% MoveY4 :TIME=98.060:LEN=0.500:MODS=*16 200% Incoming :TIME=98.290:LEN=0.500:MODS= *8 0% Incoming :TIME=98.530:LEN=0.500:MODS=*16 -200% Incoming :TIME=98.760:LEN=0.500:MODS= *8 0% Incoming :TIME=99.000:LEN=0.500:MODS=*16 -100% XMode :TIME=99.230:LEN=0.500:MODS= *8 0% XMode :TIME=99.469:LEN=0.500:MODS= *5 -25% Flip :TIME=99.703:LEN=0.500:MODS= *5 0% Flip :TIME=99.937:LEN=0.500:MODS= *5 -25% Flip :TIME=100.172:LEN=0.500:MODS=*5 0% Flip :TIME=101.810:LEN=0.500:MODS=*16 200% Incoming :TIME=102.040:LEN=0.500:MODS= *8 0% Incoming :TIME=102.280:LEN=0.500:MODS=*16 -200% Incoming :TIME=102.510:LEN=0.500:MODS= *8 0% Incoming :TIME=102.750:LEN=0.500:MODS=*16 -100% XMode :TIME=102.980:LEN=0.500:MODS= *8 0% XMode :TIME=103.219:LEN=0.500:MODS= *5 -25% Flip :TIME=103.453:LEN=0.500:MODS= *5 0% Flip // messy :TIME=105.560:LEN=10.000:MODS=*16 120% Tornado, *100 120% TornadoPeriod, *8 0% Confusion, *8 120% ConfusionOffset, *8 25% ConfusionOffset1, *8 50% ConfusionOffset2, *8 75% ConfusionOffset3, *8 66% Flip, *8 -80% Invert, *8 -72% Split, *8 -40% Cross, *8 96% Reverse, *80 500% Bumpy, *80 480% BumpyPeriod;

//---------------dance-single - Haley Halcyon----------------
#NOTEDATA:;
#CHARTNAME:;
#STEPSTYPE:dance-single;
#DESCRIPTION:Haley Halcyon;
#CHARTSTYLE:;
#DIFFICULTY:Beginner;
#METER:4;
#RADARVALUES:0.218909,0.235360,0.055055,0.614780,0.000000,167.000000,161.000000,6.000000,67.000000,0.000000,0.000000,0.000000,0.000000,0.000000,0.218909,0.235360,0.055055,0.614780,0.000000,167.000000,161.000000,6.000000,67.000000,0.000000,0.000000,0.000000,0.000000,0.000000;
#CREDIT:Haley Halcyon;
#OFFSET:-0.563000;
#BPMS:0.000000=128.000000
;
#STOPS:224.000000=1.406000
;
#DELAYS:;
#WARPS:224.000000=4.000000
;
#TIMESIGNATURES:0.000000=4=4
;
#TICKCOUNTS:0.000000=4
;
#COMBOS:0.000000=1
;
#SPEEDS:0.000000=1.000000=0.000000=0
;
#SCROLLS:0.000000=1.000000
;
#FAKES:;
#LABELS:0.000000=Song Start
;
#DISPLAYBPM:128.000000;
#NOTES:
// measure 0
0000
0000
0000
0000
,  // measure 1
0000
0000
0000
0000
,  // measure 2
0000
0000
0000
0000
,  // measure 3
0000
0000
0000
0000
,  // measure 4
0000
0001
0000
0001
,  // measure 5
0000
0010
0000
0010
,  // measure 6
0000
0100
0000
0100
,  // measure 7
0000
1000
0000
1000
,  // measure 8
0000
0001
0100
0001
,  // measure 9
0000
1000
0100
1000
,  // measure 10
0010
0000
0010
0100
,  // measure 11
0001
0000
0001
1000
,  // measure 12
0001
0000
0010
0100
,  // measure 13
1000
0000
0100
1000
,  // measure 14
0010
0000
0010
0100
,  // measure 15
0001
0010
0100
1000
,  // measure 16
2002
0000
3003
0000
0000
0000
0000
2200
,  // measure 17
0000
3300
0000
0000
0000
0000
0000
0000
,  // measure 18
2002
0000
3003
0000
0000
0000
0000
0202
,  // measure 19
0000
0303
0000
0000
2002
0000
3003
0000
,  // measure 20
1000
0001
1000
0001
,  // measure 21
1000
0010
1000
0010
,  // measure 22
0100
0010
0100
0010
,  // measure 23
0100
0001
0100
0001
,  // measure 24
1000
1000
1000
0000
,  // measure 25
0001
0001
0001
0000
,  // measure 26
1000
0001
1000
0001
,  // measure 27
1000
0001
0000
0000
,  // measure 28
2000
3002
2003
3002
,  // measure 29
2003
3000
0100
0000
,  // measure 30
2000
3002
2003
3002
,  // measure 31
1003
0000
0100
1000
,  // measure 32
0002
2003
3002
2003
,  // measure 33
3002
0003
0100
0000
,  // measure 34
0002
2003
3002
2003
,  // measure 35
3001
0001
0001
0000
,  // measure 36
2000
3020
2030
3020
,  // measure 37
2030
3000
0001
0000
,  // measure 38
0002
0023
0032
0023
,  // measure 39
0031
0000
1000
0001
,  // measure 40
2000
3200
2300
3200
,  // measure 41
2300
3001
0000
1000
,  // measure 42
0002
0203
0302
0203
,  // measure 43
0301
0001
0001
0000
,  // measure 44
1000
1000
1000
0000
,  // measure 45
0001
0001
0001
0000
,  // measure 46
1000
0010
0100
0001
,  // measure 47
0100
0010
1000
0000
,  // measure 48
0002
0203
0302
0203
,  // measure 49
0302
0003
1000
1000
,  // measure 50
0200
2300
3200
2300
,  // measure 51
3100
0100
2000
3000
,  // measure 52
0002
0023
0032
0023
,  // measure 53
0032
0003
1000
1000
,  // measure 54
0020
2030
3020
2030
,  // measure 55
3001
0001
0001
0000
,  // measure 56
2002
0000
0000
0000
,  // measure 57
3003
0000
0000
0000
;

//---------------dance-single - Haley Halcyon----------------
#NOTEDATA:;
#CHARTNAME:;
#STEPSTYPE:dance-single;
#DESCRIPTION:Haley Halcyon;
#CHARTSTYLE:;
#DIFFICULTY:Easy;
#METER:7;
#RADARVALUES:0.292316,0.392267,0.100934,0.568901,0.000000,223.000000,212.000000,11.000000,62.000000,20.000000,0.000000,0.000000,0.000000,0.000000,0.292316,0.392267,0.100934,0.568901,0.000000,223.000000,212.000000,11.000000,62.000000,20.000000,0.000000,0.000000,0.000000,0.000000;
#CREDIT:Haley Halcyon;
#OFFSET:-0.563000;
#BPMS:0.000000=128.000000
;
#STOPS:224.000000=1.406000
;
#DELAYS:;
#WARPS:224.000000=4.000000
;
#TIMESIGNATURES:0.000000=4=4
;
#TICKCOUNTS:0.000000=4
;
#COMBOS:0.000000=1
;
#SPEEDS:0.000000=1.000000=0.000000=0
;
#SCROLLS:0.000000=1.000000
;
#FAKES:;
#LABELS:0.000000=Song Start
;
#DISPLAYBPM:128.000000;
#NOTES:
// measure 0
0000
0000
0000
0000
,  // measure 1
0000
0000
0000
0000
,  // measure 2
0000
0000
0000
0000
,  // measure 3
0000
0000
0000
0000
,  // measure 4
0000
0001
0000
0001
,  // measure 5
0000
1000
0000
1000
,  // measure 6
0000
0010
0000
0010
,  // measure 7
0000
0100
0000
0101
,  // measure 8
0000
0000
0001
0000
0010
0000
0010
0100
,  // measure 9
0000
0000
0000
0100
1000
0000
0010
0000
,  // measure 10
0100
0000
0000
0000
0001
0000
0001
0010
,  // measure 11
0000
0100
0000
0000
1000
0000
1000
0000
,  // measure 12
0000
0000
0001
0000
1000
0000
1000
0010
,  // measure 13
0000
0000
0000
0010
1000
0000
0001
0000
,  // measure 14
0010
0000
0000
0000
0100
0000
0100
1000
,  // measure 15
0000
0001
0000
1000
0010
0000
0010
0000
,  // measure 16
2200
0000
3300
0000
0000
0000
0000
0022
,  // measure 17
0000
0033
0000
0000
0000
0000
0000
0000
,  // measure 18
0220
0000
0330
0000
0000
0000
0000
2200
,  // measure 19
0000
3300
0000
0000
2002
0000
3003
0000
,  // measure 20
0001
0000
0001
0000
1000
0000
1000
0010
,  // measure 21
1000
1000
0001
0001
,  // measure 22
1100
0000
1000
0000
0001
0000
0001
0100
,  // measure 23
0001
0001
1100
1000
,  // measure 24
0001
1000
0001
0001
,  // measure 25
1000
0001
1000
1000
,  // measure 26
0001
1000
0001
1000
0001
1000
0001
1000
,  // measure 27
0001
1000
0001
1000
0001
0000
MMMM
0000
,  // measure 28
0002
0203
0320
2030
,  // measure 29
3002
1003
1000
0001
,  // measure 30
2000
3200
0320
0032
,  // measure 31
1003
0000
1000
0010
0000
0010
1000
0000
,  // measure 32
0002
0203
0320
2030
,  // measure 33
3002
1003
1000
0001
,  // measure 34
2000
3020
0230
0302
,  // measure 35
1003
0001
1000
MMMM
,  // measure 36
0002
0000
0203
0000
0310
0010
2000
0000
,  // measure 37
3001
0001
1000
0000
0001
0000
1000
0000
,  // measure 38
2000
3020
0230
0302
,  // measure 39
1003
0100
1000
0000
0001
0100
0001
0000
,  // measure 40
0002
0000
0023
0000
0130
0100
2000
0000
,  // measure 41
3001
0001
1000
0001
1000
0001
1000
0000
,  // measure 42
2000
3020
0230
0302
,  // measure 43
1003
0110
1001
MMMM
,  // measure 44
0001
1000
0001
0001
,  // measure 45
1000
0001
1000
1000
,  // measure 46
0001
1000
0001
1000
0001
1000
0001
1000
,  // measure 47
0001
1000
0001
1000
0001
1000
MMMM
0000
,  // measure 48
0002
0203
2300
3200
,  // measure 49
0302
0000
1003
0000
0001
1000
0001
0000
,  // measure 50
2000
3200
0302
0203
,  // measure 51
1300
0100
1000
0000
0001
0000
1000
0000
,  // measure 52
0002
0023
2030
3020
,  // measure 53
0032
0000
1003
0000
0001
1000
0001
0000
,  // measure 54
2000
3020
0032
0023
,  // measure 55
1030
0100
1000
0001
0100
0001
MMMM
0000
,  // measure 56
2002
0000
0000
0000
,  // measure 57
3003
0000
0000
0000
;

//---------------dance-single - Haley Halcyon----------------
#NOTEDATA:;
#CHARTNAME:;
#STEPSTYPE:dance-single;
#DESCRIPTION:Haley Halcyon;
#CHARTSTYLE:;
#DIFFICULTY:Medium;
#METER:9;
#RADARVALUES:0.369655,0.459680,0.165165,0.825824,0.000000,282.000000,264.000000,18.000000,90.000000,0.000000,0.000000,0.000000,0.000000,12.000000,0.369655,0.459680,0.165165,0.825824,0.000000,282.000000,264.000000,18.000000,90.000000,0.000000,0.000000,0.000000,0.000000,12.000000;
#CREDIT:Haley Halcyon;
#DISPLAYBPM:128.000000;
#NOTES:
// measure 0
0000
0000
0000
0000
,  // measure 1
0000
0000
0000
0000
,  // measure 2
0000
0000
0000
0000
,  // measure 3
0000
0000
0000
0000
,  // measure 4
1000
0000
0001
0000
0000
1000
0001
0000
,  // measure 5
0100
0000
0010
0000
0000
0100
0010
0000
,  // measure 6
1000
0000
0100
0000
0000
1000
0100
0000
,  // measure 7
0010
0001
0000
1001
,  // measure 8
1000
0000
0001
0100
0010
0100
0001
0020
,  // measure 9
0000
0000
0030
0001
1000
0010
0001
0010
,  // measure 10
0200
0000
0000
0300
0001
0010
0100
2000
,  // measure 11
3000
0002
0003
0010
1000
0010
0002
0000
,  // measure 12
1003
0000
1000
0010
0100
0010
1000
0200
,  // measure 13
0010
0000
0310
0001
0100
0010
0001
0010
,  // measure 14
0200
0000
0010
0000
0301
0010
0100
0002
,  // measure 15
0003
0200
0300
1000
0001
0100
0002
0003
,  // measure 16
2002
3003
0000
0000
0000
0000
0000
2200
,  // measure 17
3300
0000
0000
0000
,  // measure 18
0022
0033
0000
0000
0000
0000
0000
0202
,  // measure 19
0303
0000
0000
0000
0220
0330
0000
0000
,  // measure 20
1020
0030
1000
0000
1000
0000
1000
0200
,  // measure 21
1300
1000
1000
1000
,  // measure 22
0021
0030
0001
0000
0001
0000
0001
0200
,  // measure 23
0301
0000
0001
0000
2001
3000
0001
0000
,  // measure 24
1001
1100
1001
1100
,  // measure 25
1000
0100
0010
0100
1000
0010
0100
0010
,  // measure 26
1000
0100
0010
0001
0100
0010
1000
0100
,  // measure 27
0010
0001
0100
0010
1000
0100
0010
0001
,  // measure 28
0100
0010
1000
0100
0010
0001
0100
0010
,  // measure 29
0000
0000
0000
0000
,  // measure 30
0002
0203
0320
2030
,  // measure 31
3002
0000
1003
0100
0001
0100
1000
0000
,  // measure 32
0002
0203
0320
2030
,  // measure 33
3001
0100
0001
0001
0010
0001
0001
0000
,  // measure 34
2000
3200
0320
0032
,  // measure 35
2003
0000
3001
0100
1000
0100
0001
0000
,  // measure 36
2000
3200
0320
0032
,  // measure 37
1003
0100
1100
0000
0001
0100
0000
0000
,  // measure 38
0002
0000
0023
0000
0230
2300
3200
0000
,  // measure 39
0320
0032
0013
0100
0010
0001
0100
0010
,  // measure 40
2000
3200
0320
0032
,  // measure 41
1003
0100
1000
1000
0010
1000
1000
0000
,  // measure 42
2000
0000
3020
0000
0230
0302
0203
0000
,  // measure 43
0320
2030
3010
0100
0010
1000
0200
0000
,  // measure 44
0302
0203
2300
3020
,  // measure 45
0130
0001
0010
0001
0100
0010
2000
3000
,  // measure 46
1001
0101
1001
0101
,  // measure 47
0001
0100
0010
0100
0001
0010
0100
0010
,  // measure 48
0001
0010
1000
0001
0100
1000
0001
1000
,  // measure 49
0010
0001
1000
0100
0001
1000
0000
0000
,  // measure 50
0002
0023
2030
3020
,  // measure 51
0032
0000
0103
0010
0001
0010
0100
0000
,  // measure 52
0002
0203
2300
3200
,  // measure 53
0302
0023
0032
0000
1003
0100
0010
0100
,  // measure 54
2000
3200
0302
0203
,  // measure 55
2300
0000
3001
0100
0010
0010
2000
3000
,  // measure 56
0002
0203
2300
3200
,  // measure 57
0301
0010
1000
0010
0001
0100
0000
0000
,  // measure 58
2000
0000
0000
0000
0000
0000
0000
0000
0000
0000
0000
0000
0000
0000
0000
3000
;

//---------------dance-single - Haley Halcyon----------------
#NOTEDATA:;
#CHARTNAME:;
#STEPSTYPE:dance-single;
#DESCRIPTION:Haley Halcyon;
#CHARTSTYLE:;
#DIFFICULTY:Hard;
#METER:11;
#RADARVALUES:0.482386,0.595511,0.578077,1.027693,0.022940,368.000000,305.000000,63.000000,112.000000,0.000000,0.000000,0.000000,0.000000,8.000000,0.482386,0.595511,0.578077,1.027693,0.022940,368.000000,305.000000,63.000000,112.000000,0.000000,0.000000,0.000000,0.000000,8.000000;
#CREDIT:Haley Halcyon;
#DISPLAYBPM:128.000000;
#NOTES:
// measure 0
0000
0000
0000
0000
,  // measure 1
0000
0000
0000
0000
,  // measure 2
0000
0000
0000
0000
,  // measure 3
0000
0000
0000
0000
,  // measure 4
1000
0000
1010
0000
0000
0010
0110
0000
,  // measure 5
0100
0000
0101
0000
0000
0001
1001
0000
,  // measure 6
1000
0000
1100
0000
0000
0100
0110
0000
,  // measure 7
0010
0000
0000
0000
0011
0000
0000
0000
0000
0001
1000
0000
1001
0000
0000
0000
,  // measure 8
1000
0001
0010
0100
0001
0100
1000
0002
,  // measure 9
0100
0000
1003
0001
1000
0100
0010
0100
,  // measure 10
2000
0000
3001
0000
0001
0100
0010
0001
,  // measure 11
0000
0010
0000
1000
0001
0010
0001
0000
,  // measure 12
1001
0000
1000
0100
0001
0100
0010
0002
,  // measure 13
0100
0000
1003
0100
1000
0010
0100
0010
,  // measure 14
2000
0000
3001
0000
0001
0100
0010
0001
,  // measure 15
0000
0010
0000
1000
0001
1000
0001
0000
,  // measure 16
2002
3003
1000
0100
0010
0001
0100
0202
,  // measure 17
0000
0300
0000
1003
0100
0010
1000
0010
,  // measure 18
0022
0000
0030
0000
0103
0010
0100
2200
,  // measure 19
3000
0320
0000
1030
1200
0320
0230
0300
,  // measure 20
1100
0000
1100
0010
0100
0001
1000
0120
,  // measure 21
1000
0000
1030
0010
0100
0001
0010
0100
,  // measure 22
1200
0000
1000
0000
0310
0001
0100
0210
,  // measure 23
0000
0302
0000
1003
1200
0010
2300
0000
,  // measure 24
3100
0011
1100
0011
,  // measure 25
0001
0100
0010
1000
0001
0100
0010
1000
,  // measure 26
0001
0010
0001
0000
0010
0100
0010
0000
0100
1000
0100
0000
1000
0001
1000
0000
,  // measure 27
0010
0010
0010
0010
0010
0010
0010
0010
,  // measure 28
0010
0010
0010
0010
0000
0000
0000
0000
,  // measure 29
0000
0000
0000
0000
,  // measure 30
2002
0000
0000
3003
2200
0000
0000
3300
0022
0000
0000
0033
2002
0000
0000
3003
,  // measure 31
2002
0000
0000
3003
0001
0000
1000
0000
0010
0000
0010
0000
0100
0000
0001
0000
,  // measure 32
2002
0000
0000
3003
0202
0000
0000
0303
2020
0000
0000
3030
2002
0000
0000
3003
,  // measure 33
0001
1000
0001
0001
1000
0100
0100
0010
,  // measure 34
2002
0000
0000
3003
0202
0000
0000
0303
2020
0000
0000
3030
2002
0000
0000
3003
,  // measure 35
2002
0000
0000
3003
1000
0000
1000
0000
0010
0000
0010
0000
0100
0000
0001
0000
,  // measure 36
2002
0000
0000
3003
0202
0000
0000
0303
2020
0000
0000
3030
2002
0000
0000
3003
,  // measure 37
1000
0100
1000
0010
0100
0001
0000
0000
,  // measure 38
2002
0000
0000
3003
2200
0000
0000
3300
0011
0000
0011
0000
0022
0000
0000
0033
,  // measure 39
1100
1100
1000
1000
0001
0001
1000
0010
,  // measure 40
2002
0000
0000
3003
0202
0000
0000
0303
2020
0000
0000
3030
2002
0000
0000
3003
,  // measure 41
1000
0001
0010
0010
0100
1000
1000
0001
,  // measure 42
2002
0000
0000
3003
0202
0000
0000
0303
1010
0000
1010
0000
2020
0000
3030
0000
,  // measure 43
0101
0000
0101
0000
0001
0000
0010
0000
0100
0000
0010
0000
0002
0000
0000
0003
,  // measure 44
2002
0000
0000
3003
0202
0000
0000
0303
2020
0000
0000
3030
2002
0000
0000
3003
,  // measure 45
1000
1000
0001
0001
0100
0100
0020
0000
,  // measure 46
1030
0100
1000
0100
0010
0000
0010
0000
,  // measure 47
0001
0100
0001
0100
0010
0100
0010
0100
,  // measure 48
0001
1000
0100
0010
0001
1000
0100
0010
,  // measure 49
0001
0001
0100
0010
0100
0001
0000
0000
,  // measure 50
0002
0203
2300
3200
,  // measure 51
0302
0000
1003
0100
0010
0010
0100
1000
,  // measure 52
0002
0023
2030
3020
,  // measure 53
0032
0000
2003
0000
3002
0000
0000
0003
2000
0000
3000
0000
1000
0000
0010
0000
,  // measure 54
2000
3200
0302
0203
,  // measure 55
2300
0000
0000
0000
3001
0000
0001
0000
0010
0000
0010
0000
0200
0000
0000
0300
,  // measure 56
2000
3020
0032
0023
,  // measure 57
1030
0100
0010
0100
1000
0100
0000
0000
,  // measure 58
0002
0000
0000
0000
,  // measure 59
0003
0000
0000
0000
;

//---------------dance-single - Haley Halcyon----------------
#NOTEDATA:;
#CHARTNAME:;
#STEPSTYPE:dance-single;
#DESCRIPTION:Haley Halcyon;
#CHARTSTYLE:;
#DIFFICULTY:Challenge;
#METER:13;
#RADARVALUES:0.551860,0.812061,0.477143,1.358022,0.357857,421.000000,369.000000,52.000000,148.000000,0.000000,0.000000,1.000000,0.000000,14.000000,0.551860,0.812061,0.477143,1.358022,0.357857,421.000000,369.000000,52.000000,148.000000,0.000000,0.000000,1.000000,0.000000,14.000000;
#CREDIT:Haley Halcyon;
#DISPLAYBPM:128.000000;
#NOTES:
// measure 0
0000
0000
0000
0000
,  // measure 1
0000
0000
0000
0000
,  // measure 2
0000
0000
0000
0000
,  // measure 3
0000
0000
0000
0000
,  // measure 4
1000
0000
1010
0000
0000
0010
0101
0000
,  // measure 5
0001
0000
0000
0000
0011
0000
0000
0000
0000
0010
0100
0000
1100
0000
0000
0000
,  // measure 6
1000
0000
0011
0000
0000
0001
1001
0000
,  // measure 7
1000
0000
0000
0000
1010
0000
0000
0000
0000
0010
0100
0000
0001
0000
0000
0000
,  // measure 8
1001
0000
1000
0100
0010
1000
0001
0200
,  // measure 9
0010
0000
1300
0001
0100
0010
0001
0010
,  // measure 10
2000
0000
3100
0000
1000
0100
0010
2000
,  // measure 11
0000
3020
0000
0031
0100
0010
0100
0000
,  // measure 12
1001
0000
0001
0100
0010
0001
1000
0200
,  // measure 13
0010
0000
0301
0100
0001
0010
1000
0010
,  // measure 14
0002
0000
0100
0000
1003
0100
0010
2000
,  // measure 15
0000
3020
0000
0032
2003
3002
2003
3000
,  // measure 16
2002
0000
0000
3003
0001
0000
0100
0000
0010
0000
0100
0000
0001
0000
0202
0000
,  // measure 17
0000
0003
0000
0301
1000
0100
0010
0100
,  // measure 18
2200
3000
0000
0000
1300
0010
0100
0220
,  // measure 19
0300
0000
0000
0000
2030
0000
0000
0000
0000
0000
0000
0000
3100
0000
0000
0000
0220
0300
0000
0000
0032
0000
0000
0000
2003
0000
0000
0000
3000
0000
0000
0000
,  // measure 20
2002
3003
0001
0010
1000
0010
0001
0202
,  // measure 21
0303
0000
1000
0100
1000
0010
0100
0001
,  // measure 22
0022
0033
0001
0000
0100
0010
1000
0202
,  // measure 23
0303
0200
0300
0010
2010
3001
2000
3000
,  // measure 24
0001
0100
0001
0100
0000
0010
1000
0000
0001
0100
0001
0100
0000
0010
1000
0000
,  // measure 25
0001
0010
0001
0010
0000
0100
1000
0000
0001
0010
0001
0010
0000
0100
1000
0000
,  // measure 26
0001
1000
0001
1000
0010
1000
0010
1000
0010
0100
0010
0100
0001
0100
0001
0100
,  // measure 27
0001
0010
0100
1000
0010
0100
0001
0010
0100
1000
0010
0100
0001
0010
0100
1000
,  // measure 28
0010
0100
0001
0010
0100
1000
0000
0000
0000
0000
0000
0000
0000
0000
0000
0000
,  // measure 29
0000
0000
0000
0000
,  // measure 30
2002
0000
0000
0000
0000
0000
0000
3003
0202
0000
0000
0000
0000
0000
0000
0303
0220
0000
0000
0000
0000
0000
0000
0330
2020
0000
0000
0000
0000
0000
0000
3030
,  // measure 31
2020
0000
0000
0000
0000
0000
0000
3030
0001
0000
0100
0000
0001
0000
0100
0000
0010
0000
0000
0000
0010
0000
0000
0000
0200
0000
0000
0000
0302
0000
0000
0000
,  // measure 32
2003
0000
0000
0000
0000
0000
0000
3000
2200
0000
0000
0000
0000
0000
0000
3300
0220
0000
0000
0000
0000
0000
0000
0330
0022
0000
0000
0000
0000
0000
0000
0033
,  // measure 33
1001
0000
0000
0000
1000
0000
0100
0000
0010
0000
0000
0000
0010
0000
0000
0000
0001
0010
0001
0010
0001
0000
0000
0000
0001
0000
0000
0000
0100
0000
0000
0000
,  // measure 34
2002
0000
0000
0000
0000
0000
0000
3003
0202
0000
0000
0000
0000
0000
0000
0303
2020
0000
0000
0000
0000
0000
0000
3030
2002
0000
0000
0000
0000
0000
0000
3003
,  // measure 35
2002
0000
0000
0000
0000
0000
0000
3003
1000
0000
0100
0000
1000
0000
0100
0000
0010
0000
0000
0000
0010
0000
0000
0000
0200
0000
0000
0000
0000
0000
1300
0000
,  // measure 36
0002
0000
0000
0000
0000
0000
0000
0003
0202
0000
0000
0000
0000
0000
0000
0303
2020
0000
0000
0000
0000
0000
0000
3030
2002
0000
0000
0000
0000
0000
0000
3003
,  // measure 37
1000
0001
0010
0100
0001
0100
0010
0000
0100
1000
0010
0000
0200
0000
0302
0000
,  // measure 38
2003
0000
0000
0000
0000
0000
0000
3000
2200
0000
0000
0000
0000
0000
0000
3300
0022
0000
0000
0003
2000
0000
0000
3000
0002
0000
0000
0000
0000
0000
0000
0033
,  // measure 39
0202
0000
0000
0003
2000
0000
0000
3000
0301
0000
0100
0000
0001
0000
0100
0000
0010
0000
0000
0000
0010
0000
0000
0000
1000
0000
0000
0000
0100
0000
0000
0000
,  // measure 40
2002
0000
0000
0000
0000
0000
0000
3003
0202
0000
0000
0000
0000
0000
0000
0303
0220
0000
0000
0000
0000
0000
0000
0330
2020
0000
0000
0000
0000
0000
0000
3030
,  // measure 41
1000
0000
0000
0000
0100
0000
1000
0000
0010
0000
0000
0000
0010
0000
0000
0000
0100
0001
0100
0001
1000
0000
0000
0000
1000
0000
0000
0000
0100
0000
0000
0000
,  // measure 42
2002
0000
0000
0000
0000
0000
0000
3003
2200
0000
0000
0000
0000
0000
0000
3300
0022
0000
0000
0003
2000
0000
0000
3000
0002
0000
0000
0000
0000
0000
0000
0033
,  // measure 43
0202
0000
0000
0003
2000
0000
0000
3300
0001
0000
0100
0000
0001
0000
0100
0000
0000
0000
0010
0000
0100
0000
0010
0000
2000
0000
0000
0000
0000
0000
3000
0000
,  // measure 44
2200
0000
0000
0000
0000
0000
0000
3300
0220
0000
0000
0000
0000
0000
0000
0330
0202
0000
0000
0000
0000
0000
0000
0303
2200
0000
0000
0000
0000
0000
0000
3300
,  // measure 45
1000
0100
0010
0001
1000
0010
0100
0001
1000
0100
0010
0100
0002
0000
0000
0000
,  // measure 46
0103
1000
0010
0200
1000
0000
0301
0000
,  // measure 47
0100
0001
1000
0200
0001
0000
1300
0000
,  // measure 48
0001
0100
0001
0010
0001
0100
0001
0010
0100
1000
0100
0010
0100
1000
0100
0010
,  // measure 49
0001
0100
0010
1000
0100
0010
0001
0000
1000
0001
0010
0000
0000
0000
0000
0000
,  // measure 50
2000
3200
0302
0023
,  // measure 51
2030
0000
0000
0000
3001
1000
0001
1000
0020
0030
0020
0030
0200
0300
0002
0003
,  // measure 52
0200
2300
3020
0032
,  // measure 53
0203
0000
2300
0000
3200
0000
0000
0000
0304
0000
0000
0003
0020
0030
0002
0003
,  // measure 54
0200
0302
0023
2030
,  // measure 55
3200
0000
0000
0000
0301
1000
0001
1000
0020
0030
0020
0030
0200
0000
0000
0300
,  // measure 56
2000
3020
0032
0203
,  // measure 57
1300
0100
0001
0100
1000
0100
0001
0001
,  // measure 58
2020
0000
0000
0000
,  // measure 59
3030
0000
0000
0000
;
