#TITLE:Make It Funky Now;
#SUBTITLE:BMS Edit;
#ARTIST:DOT96;
#TITLETRANSLIT:;
#SUBTITLETRANSLIT:;
#ARTISTTRANSLIT:;
#GENRE:Funkalicious;
#CREDIT:Haley Halcyon;
#MUSIC:Make It Funky Now (BMS Edit) [3.9].ogg;
#BANNER:Make It Funky Now (BMS Edit) [3.9].png;
#JACKET:Make It Funky Now (BMS Edit) [3.9]-jacket.jpg;
#BACKGROUND:Make It Funky Now (BMS Edit) [3.9]-bg.png;
#CDTITLE:cdtitle.png;
#SAMPLESTART:26.387;
#SAMPLELENGTH:13.151;
#SELECTABLE:YES;
#OFFSET:1.538;
#BPMS:0.000=146.000
,32.000=292.000
,32.500=146.000
,33.000=292.000
,33.500=146.000
,34.000=292.000
,34.500=146.000
,35.000=292.000
,35.500=146.000
,83.000=292.000
,83.500=146.000
,83.750=73.000
,84.000=146.000
,99.000=292.000
,99.500=146.000
,99.750=73.000
,100.000=584.000
,101.000=146.000
,108.000=584.000
,109.000=146.000
,116.000=584.000
,117.000=146.000
,124.000=292.000
,129.000=146.000
,129.500=73.000
,129.750=36.500
,129.875=18.250
,130.000=146.000
,143.000=292.000
,143.500=146.000
,144.000=292.000
,144.500=146.000
,145.000=292.000
,145.500=146.000
,146.000=292.000
,146.500=146.000
,159.000=292.000
,159.500=146.000
,160.000=292.000
,160.500=146.000
,161.000=292.000
,161.500=146.000
,162.000=292.000
,162.500=146.000
,194.000=438.000
,195.500=146.000
,210.500=292.000
,212.000=146.000
,243.000=292.000
,243.500=146.000
,243.750=73.000
,244.000=146.000
,259.000=292.000
,259.500=146.000
,259.750=73.000
,260.000=584.000
,261.000=146.000
,268.000=584.000
,269.000=146.000
,276.000=584.000
,277.000=146.000
,284.000=292.000
,289.000=146.000
,289.500=73.000
,289.750=36.500
,289.875=18.250
,290.000=146.000
;
#STOPS:32.000=0.103
,33.000=0.103
,34.000=0.103
,35.000=0.103
,100.000=0.308
,108.000=0.308
,116.000=0.308
,124.000=0.103
,124.500=0.103
,125.000=0.103
,125.500=0.103
,126.000=0.051
,126.250=0.051
,126.500=0.051
,126.750=0.051
,127.000=0.051
,127.250=0.051
,127.500=0.051
,127.750=0.051
,143.000=0.103
,144.000=0.103
,145.000=0.103
,146.000=0.103
,159.000=0.103
,160.000=0.103
,161.000=0.103
,162.000=0.103
,195.000=0.205
,210.500=0.103
,260.000=0.308
,268.000=0.308
,276.000=0.308
,284.000=0.103
,284.500=0.103
,285.000=0.103
,285.500=0.103
,286.000=0.051
,286.250=0.051
,286.500=0.051
,286.750=0.051
,287.000=0.051
,287.250=0.051
,287.500=0.051
,287.750=0.051
;
#DISPLAYBPM:146.000;
#BGCHANGES:-4.000=Make It Funky Now (BMS Edit) [3.9]-bg.png=1.000=0=0=0=StretchNoLoop====,
1.500=Make It Funky Now (BMS Edit) [3.9].avi=1.000=0=0=0=StretchNoLoop====,
291.000=Make It Funky Now (BMS Edit) [3.9]-bg.png=1.000=0=0=0=StretchNoLoop====,
99999.000=-nosongbg-=1.000=0=0=0=StretchNoLoop====
;
#FGCHANGES:;

//--------------- dance-single - Haley Halcyon ----------------
#NOTES:
     dance-single:
     Haley Halcyon:
     Easy:
     5:
     0.359562,0.360153,0.041397,0.314616,0.024838,304,299,5,38,0,0,0.359562,0.360153,0.041397,0.314616,0.024838,304,299,5,38,0,0:
0000
0000
0000
0000
,
0000
0000
0000
0000
,
0000
0000
0000
0000
,
1000
0000
0000
0001
0001
0000
0000
1000
,
0001
1000
0001
1000
0001
0000
0000
0000
,
0100
0000
0000
0010
0000
0010
0100
0000
,
0001
0000
0001
1000
0000
1000
0100
0000
,
0010
0000
0001
0100
0000
0010
0100
0010
,
1000
1000
1000
1000
,
0001
0000
0100
0001
0100
0000
0010
0100
,
0010
0000
1000
0100
1000
0000
0001
0000
,
1000
0000
0100
1000
0100
0000
0010
0100
,
0010
0000
0001
0010
0001
0000
1000
0000
,
0001
0000
0100
0010
0100
0000
0001
0010
,
0001
0000
0100
0010
0100
0000
0001
0000
,
1000
0000
0100
0010
0100
0000
1000
0001
,
2000
0000
0000
3200
0000
0000
0320
0000
0000
0230
0000
0000
2300
0000
0000
0000
,
3001
0000
0100
0000
0010
0000
1000
1000
,
0001
0000
0010
0010
0002
0000
0013
0000
,
0100
0000
1000
0100
1000
0000
0010
0000
,
0100
0001
0001
0002
,
1003
0000
0010
0000
0100
0000
0001
0001
,
0010
0000
0100
0100
2000
0000
3100
0000
,
0010
0001
1000
0100
,
0010
0001
0001
0002
,
0003
1000
1000
1000
,
1000
1000
1000
1000
,
0000
0001
0001
0001
,
0001
0001
0001
0001
,
0000
0010
0010
0010
,
0010
0010
0010
0010
,
0020
0030
0020
0030
0020
0030
0020
0030
,
0020
0000
0030
1001
,
0000
0000
0000
0001
,
1000
0001
0000
1000
0000
0000
0110
0000
,
0000
0000
0000
0010
,
0100
0010
0100
1001
,
0000
1000
0000
1000
0100
0000
1000
0000
,
1000
0001
0000
0001
0010
0000
0001
0000
,
0001
0100
0002
0000
0003
0000
1000
0000
,
1000
1000
1000
0010
,
0010
0000
0100
0000
0001
0100
0000
0001
,
0100
0010
1000
0001
,
0001
0000
0010
0000
0100
1000
0000
0100
,
1000
0010
0100
0001
,
0100
0000
0010
0000
1000
0010
0000
1000
,
0010
0100
0001
1000
,
1000
0000
0100
0000
0010
0001
0000
0010
,
0001
0000
0100
0000
0010
0000
0000
1000
,
0000
1000
0000
0001
0100
0001
0000
2000
,
0000
0000
3000
0001
0010
0001
0000
2000
,
0000
3020
0000
0130
0000
0001
0010
0001
,
0000
1000
0100
1000
0100
2000
0000
0000
,
3001
0000
0000
0000
0020
0000
0000
0032
0000
0000
2003
0000
0000
3002
0000
0000
,
0023
0000
0230
0000
0000
1300
1000
0000
,
0001
1100
0001
1100
,
0002
0000
0000
0203
0000
0000
0320
0000
0000
0230
0000
0000
0301
0000
0000
0000
,
1000
0000
0100
0000
0010
0000
0001
0001
,
1000
0000
0010
0010
2000
0000
3010
0000
,
0100
0000
0001
0100
0001
0000
0010
0000
,
0100
1000
1000
2000
,
3001
0000
0010
0000
0100
0000
1000
1000
,
0010
0000
0100
0100
0002
0000
0103
0000
,
0010
1000
0001
0100
,
0010
1000
1000
2000
,
3000
0001
0001
0001
,
0001
0001
0001
0001
,
0000
1000
1000
1000
,
1000
1000
1000
1000
,
0000
0010
0010
0010
,
0010
0010
0010
0010
,
0020
0030
0020
0030
0020
0030
0020
0030
,
0020
0000
0030
0000
;

//--------------- dance-single - Haley Halcyon ----------------
#NOTES:
     dance-single:
     Haley Halcyon:
     Medium:
     8:
     0.483752,0.510217,0.008279,0.380851,0.024838,409,408,1,46,0,0,0.483752,0.510217,0.008279,0.380851,0.024838,409,408,1,46,0,0:
0000
0000
0000
0000
,
0000
0000
0000
0000
,
0000
0000
0000
0000
,
1000
0000
0100
1000
0001
0000
0100
0010
,
0010
0010
0010
1000
0001
0000
0020
0000
,
0031
0000
1000
0100
0000
0100
0010
0000
,
0001
0000
0001
1000
0000
1000
0010
0000
,
0100
0000
0001
0100
0010
0100
0001
0100
,
0010
0010
0010
0010
,
1000
0100
0010
0100
1000
0100
0010
0001
,
1000
0100
0010
0100
1000
0000
0001
0100
,
0001
0100
0010
0100
0001
0100
0010
1000
,
0001
0100
0010
0100
0001
0000
1000
0100
,
1000
0010
0100
0010
1000
0010
0100
0001
,
1000
0010
0100
0010
1000
0000
0001
0010
,
0001
0010
0100
0010
0001
0010
0100
1000
,
0002
0000
0003
0020
0000
0030
0200
0000
0300
2000
0000
3000
0002
0000
0000
0000
,
1003
0010
0100
0001
1000
0001
0010
0010
,
0001
0010
0100
1000
0001
0001
1000
0100
,
1000
0010
0100
0010
1000
0001
0100
0001
,
1000
0100
0020
0030
0020
0030
0002
0003
,
0001
0010
0100
1000
0001
1000
0010
0010
,
1000
0010
0100
0001
1000
1000
0001
0100
,
0001
0010
0100
0010
0001
1000
0100
1000
,
0001
0100
0020
0030
0020
0030
2000
3000
,
0000
0001
0001
0001
,
0001
0001
0001
0001
,
0000
1000
1000
1000
,
1000
1000
1000
1000
,
0000
0010
0010
0010
,
0010
0010
0010
0010
,
0010
0010
0010
0010
0010
0010
0010
0010
,
0020
0000
0030
1001
,
1000
0001
0100
0001
1000
0100
0020
0000
,
0032
0023
0000
0032
0003
0000
1000
0000
,
1000
0100
0010
0001
0010
0001
0100
0000
,
0100
0100
0100
0002
,
1003
0010
0000
0010
0200
0000
0301
0000
,
0002
0013
0000
0010
0200
0000
1300
0000
,
1000
0010
0100
0001
1000
0001
0010
0000
,
0010
0000
0010
0000
0010
0000
0001
0001
,
1000
0100
1000
0010
1000
0100
0000
0010
,
0001
0010
0001
0000
0002
0000
1003
1000
,
0001
0100
0001
0010
0001
0100
0000
0010
,
1000
0010
1000
0000
2000
0000
3001
0001
,
1000
0010
1000
0100
1000
0010
0000
0100
,
0001
0100
0001
0000
0002
0000
1003
1000
,
0001
0010
0001
0100
0001
0010
0000
0100
,
1000
0100
0000
0010
0002
0000
0000
1003
,
0000
1000
0000
0001
0100
0010
0000
0200
,
0000
0000
0301
1000
0001
0100
0000
0020
,
0000
2030
0000
3100
0100
0010
0010
0001
,
0001
1000
0001
1000
0001
0200
0000
0000
,
0301
0000
0000
0000
0002
0000
0000
0203
0000
0000
0320
0000
0000
2030
0000
0000
,
3002
0000
0023
0000
0000
0130
0100
1000
,
0010
0100
0001
0100
0010
0100
0001
1000
,
0200
0000
0000
2300
0000
0000
3020
0000
0000
0230
0000
0000
0301
0000
0000
0000
,
1000
0100
0010
0001
1000
0001
0100
0100
,
0001
0100
0010
1000
0001
0001
1000
0010
,
1000
0100
0010
0100
1000
0001
0010
0001
,
1000
0010
0200
0300
0200
0300
0002
0003
,
0001
0100
0010
1000
0001
1000
0100
0100
,
1000
0100
0010
0001
1000
1000
0001
0010
,
0001
0100
0010
0100
0001
1000
0010
1000
,
0001
0010
0200
0300
0200
0300
2000
3000
,
0000
0001
0001
0001
,
0001
0001
0001
0001
,
0000
1000
1000
1000
,
1000
1000
1000
1000
,
0000
0100
0100
0100
,
0100
0100
0100
0100
,
0100
0100
0100
0100
0100
0100
0100
0100
,
0200
0000
0300
0000
;

//--------------- dance-single - Haley Halcyon ----------------
#NOTES:
     dance-single:
     Haley Halcyon:
     Hard:
     15:
     0.773531,0.750319,0.505042,1.034922,0.591976,654,593,61,125,0,0,0.773531,0.750319,0.505042,1.034922,0.591976,654,593,61,125,0,0:
0000
0000
0000
0000
,
0000
0000
0000
0000
,
0000
0000
0000
0000
,
2000
0000
3000
0000
0001
0000
0100
0000
0020
0000
0030
0000
0100
0000
0001
0100
,
0001
0100
0010
0100
0010
0100
0001
0000
1000
0000
0000
0000
0200
0000
0310
0001
,
2000
0000
3000
0000
0100
0000
0020
0000
0030
0000
0100
0000
0200
0000
1300
0001
,
0100
0000
0000
0000
0100
0000
0010
0000
0000
0000
0010
0000
0100
0001
1000
0100
,
0020
0000
0030
0000
0010
0000
0020
0000
0030
0000
0001
0010
0001
0010
0100
1000
,
0001
0110
1001
0110
,
0001
0000
1000
0100
0010
0100
1000
0000
0100
0000
0001
0000
0100
0000
1000
0000
,
1000
0000
0010
0100
0001
0100
0010
0000
1000
0000
0100
1000
0010
0000
0010
0000
,
1000
0000
0001
0100
0010
0100
0001
0000
0100
0000
1000
0000
0100
0000
0001
0000
,
0001
0000
0010
0100
1000
0100
0010
0000
0001
0000
0100
0001
0010
0000
0010
0000
,
0001
0000
1000
0100
0010
0100
1000
0000
0010
0000
0100
0001
0100
0000
0010
0000
,
1000
0000
0100
0010
0001
0100
0010
0000
1000
0000
0001
0100
0010
0000
0010
0000
,
1000
0000
0001
0100
0010
0100
0001
0000
0010
0000
0100
1000
0100
0000
0010
0000
,
2000
0000
3000
0020
0000
0030
0002
0000
0003
0200
0000
0300
0020
0000
0000
0000
,
1030
0000
0100
0010
0000
0010
0001
0000
1000
0010
0000
0010
0200
0300
0200
0300
,
0002
0003
0200
0300
1000
0000
1000
0000
0100
0010
0100
0010
0100
0001
0010
0000
,
0001
0000
1000
0100
0000
1000
0100
1000
0020
0030
0200
0300
2000
3000
2000
3000
,
0200
0300
0020
0030
0100
0000
0001
1000
0100
0000
1000
0001
0200
0000
0000
0000
,
0301
0000
0100
0010
0000
0010
1000
0000
0001
0010
0000
0010
0200
0300
0200
0300
,
2000
3000
0200
0300
0001
0000
0001
0000
0100
0010
0100
0010
0100
1000
0010
0000
,
1000
0000
0001
0100
0000
0001
0100
0001
0020
0030
0200
0300
0002
0003
0002
0003
,
0200
0300
0020
0030
0100
0000
1000
0001
0100
0000
0001
1000
0200
0000
0000
0300
,
1100
0000
0011
0001
1100
1000
0011
0001
,
1100
1000
0011
0001
1100
1000
0011
0001
,
1001
0000
1010
1000
0101
0001
1010
1000
,
0101
0001
1010
1000
0101
0001
1010
1000
,
0110
0000
0000
0000
0010
0000
1000
0100
0010
0000
0100
1000
0010
0000
1000
0100
,
0010
0000
0100
1000
0010
0000
1000
0100
0010
0000
0100
1000
0010
0000
1000
0100
,
0010
0000
0010
0000
0010
0000
0010
0000
0010
0001
0010
0001
0010
0001
0010
0001
,
0000
0000
0000
0000
1001
0000
0002
0003
,
1000
0000
0100
0010
0001
0010
0100
1000
0010
0100
0001
0000
2200
0000
0300
0000
,
3001
0202
0300
2003
3000
0000
0011
0000
,
1100
0000
1010
0000
0100
0000
0001
0010
0000
0010
0001
0000
1100
0000
0000
0000
,
0011
0000
0000
0000
0101
0000
0000
0000
1010
0000
0001
0100
0002
0000
0003
0000
,
0100
0000
0020
0000
0030
0000
0100
0000
0200
0000
0301
1000
0100
0000
0000
0000
,
0100
0000
0010
0000
0000
0000
0010
0000
0100
1000
0001
0100
0020
0000
0030
0000
,
0010
0000
0020
0000
1030
0100
1000
0010
0100
0010
0100
0001
1000
0000
0000
0000
,
0110
0000
0000
0000
1001
0000
0000
0000
0110
0000
0000
0000
1000
0000
1000
0001
,
0000
0000
0020
0030
2000
3000
0020
0030
0002
0003
0200
0300
0000
0000
0010
1000
,
0010
0000
0001
0000
0000
0010
0000
0010
0200
0000
0000
0000
0301
0000
0001
1000
,
0000
0000
0020
0030
0002
0003
0020
0030
2000
3000
0200
0300
0000
0000
0010
0001
,
0010
0000
1000
0000
0000
0010
0000
0010
0200
0000
0000
0000
1300
0000
1000
0010
,
0000
0000
0200
0300
2000
3000
0200
0300
0002
0003
0020
0030
0000
0000
0001
1000
,
0010
0000
0100
0000
0000
1000
0000
1000
0200
0000
0000
0000
0301
0000
0001
0010
,
0000
0000
0200
0300
0002
0003
0200
0300
2000
3000
0020
0030
0000
0000
1000
0001
,
0010
0000
0100
0000
0000
0001
0000
0001
0200
0000
0000
0000
0300
0000
0022
0000
,
0033
0000
2200
0000
3300
0000
0010
0001
0100
0001
0020
0000
0030
0000
0200
0000
,
0000
0000
1300
0010
1000
0002
0003
0020
,
0000
0230
0000
0301
0100
1000
1000
0010
,
0010
0000
0100
0000
2000
0000
3100
0010
0100
0010
2000
0000
0000
0000
3000
0000
,
0002
0000
0003
0000
2200
0000
3300
0022
0000
0033
2002
0000
3003
0220
0000
0330
,
2002
0000
3000
0000
1003
0010
0100
0001
0010
0000
0200
0300
0200
0300
0020
0030
,
0001
0020
1030
0020
0031
0020
1030
0010
,
0220
0000
0330
0022
0000
0033
1002
0000
1003
0010
1000
0010
0100
0000
0001
0000
,
0001
0000
0010
0100
0000
0100
1000
0000
0001
0100
0000
0100
0020
0030
0020
0030
,
2000
3000
0020
0030
0001
0000
0001
0000
0010
0100
0010
0100
0010
1000
0100
0000
,
1000
0000
0001
0010
0000
0001
0010
0001
0200
0300
0020
0030
0002
0003
0002
0003
,
0020
0030
0200
0300
0010
0000
1000
0001
0010
0000
0001
1000
0020
0000
0000
0000
,
1030
0000
0010
0100
0000
0100
0001
0000
1000
0100
0000
0100
0020
0030
0020
0030
,
0002
0003
0020
0030
1000
0000
1000
0000
0010
0100
0010
0100
0010
0001
0100
0000
,
0001
0000
1000
0010
0000
1000
0010
1000
0200
0300
0020
0030
2000
3000
2000
3000
,
0020
0030
0200
0300
0010
0000
0001
1000
0010
0000
1000
0001
0020
0000
0000
0030
,
0011
0000
1100
1000
0011
0001
1100
1000
,
0011
0001
1100
1000
0011
0001
1100
1000
,
1001
0000
0101
0001
1010
1000
0101
0001
,
1010
1000
0101
0001
1010
1000
0101
0001
,
0110
0000
0000
0000
0100
0000
0001
0010
0100
0000
0010
0001
0100
0000
0001
0010
,
0100
0000
0010
0001
0100
0000
0001
0010
0100
0000
0010
0001
0100
0000
0001
0010
,
0100
0000
0100
0000
0100
0000
0100
0000
0100
1000
0100
1000
0100
1000
0100
1000
,
0000
0000
1001
0000
;

//--------------- dance-single - Haley Halcyon ----------------
#NOTES:
     dance-single:
     Haley Halcyon:
     Challenge:
     12:
     0.632781,0.720306,0.654071,0.877614,0.198705,535,456,79,106,256,0,0.632781,0.720306,0.654071,0.877614,0.198705,535,456,79,106,256,0:
0000
0000
0000
0000
,
0000
0000
0000
0000
,
0000
0000
0000
0000
,
2000
3000
0001
0100
0020
0030
0100
0001
,
0001
0010
0010
0100
1000
0000
0200
0310
,
0002
0003
0100
0020
0030
0100
0200
0301
,
1000
0000
0100
0000
1000
0000
0010
0000
0000
0000
0010
0000
0100
0001
0100
0000
,
0020
0000
0030
0000
0010
0000
0020
0000
0030
0000
1000
0010
1000
0010
1000
0000
,
1001
MMMM
0011
MMMM
1001
MMMM
1100
MMMM
,
0101
0100
0010
0100
0001
0010
0100
1000
,
0010
0100
0010
0001
0010
1000
0001
0001
,
1000
0100
0010
0100
1000
0010
0100
0001
,
0010
0100
0010
1000
0010
0001
1000
1000
,
0001
0000
1000
0100
1000
0000
0001
0000
0010
0000
0001
0100
0001
0000
1000
0000
,
0010
0000
0100
0001
0100
0000
0010
0000
1000
0000
0001
0010
0100
0000
0100
0000
,
1000
0000
0001
0100
0001
0000
1000
0000
0010
0000
1000
0100
1000
0000
0001
0000
,
2000
0000
3000
0020
0000
0030
0200
0000
0300
0002
0000
0003
MMMM
0000
0000
0000
,
0101
0000
0100
0000
0010
0000
1000
0000
0100
0000
1000
0000
0020
0030
0020
0030
,
0100
0000
0001
0000
0020
0030
0020
0030
0001
1000
0001
1000
0001
0000
1000
0000
,
0001
0000
1000
0000
0100
0000
0100
0000
0020
0030
0200
0300
1000
0000
0001
0000
,
0200
0300
0020
0030
0100
0000
0001
0000
0100
0000
0001
0000
0200
0000
0000
0000
,
0301
0000
0100
0000
0010
0000
1000
0000
0001
0000
0010
0000
0200
0300
0200
0300
,
1000
0000
0100
0000
0010
0000
0010
0000
0001
0100
0001
0100
0001
0000
0100
0000
,
0010
0000
1000
0000
0100
0000
0100
0000
0020
0030
0200
0300
1000
0000
0001
0000
,
0200
0300
0020
0030
0100
0000
0010
0000
0100
0000
0010
0000
2000
0000
3000
0000
,
MMMM
0000
0101
MMMM
1100
MMMM
0101
MMMM
,
1100
MMMM
0101
MMMM
1100
MMMM
0101
MMMM
,
MMMM
0000
1010
MMMM
0011
MMMM
1010
MMMM
,
0011
MMMM
1010
MMMM
0011
MMMM
1010
MMMM
,
MMMM
0000
0110
MMMM
1001
MMMM
0110
MMMM
,
1001
MMMM
0110
MMMM
1001
MMMM
0110
MMMM
,
1001
0000
1001
0000
1001
0000
1001
0000
0001
1000
0001
1000
0001
1000
0001
1000
,
0000
0000
0000
0000
1001
0000
0002
0003
,
1000
0100
0001
0100
0010
0001
2000
0000
,
3100
0002
0000
0203
0300
0000
1010
0000
,
0001
0011
1000
0010
0100
0001
1100
MMMM
,
0011
MMMM
0101
MMMM
1010
MMMM
2200
3300
,
0100
0020
0030
0100
0200
1300
0001
0000
,
0100
0010
0000
0010
0100
0001
0020
0030
,
0010
0020
0031
0100
0010
1000
1010
MMMM
,
0011
MMMM
0101
MMMM
1100
MMMM
1001
1000
,
0000
0000
0020
0030
2000
3000
0002
0003
2000
3000
0200
0300
0000
0000
0010
0001
,
0010
0000
0001
0000
0000
0100
0000
0010
0200
0000
0000
0000
0301
0000
0001
0000
,
0000
0000
0020
0030
0002
0003
0200
0300
0020
0030
0200
0300
0000
0000
0010
1000
,
0010
0000
1000
0000
0000
0100
0000
0010
0200
0000
0000
0000
1300
0000
1000
0001
,
0000
0000
0200
0300
0020
0030
0200
0300
0002
0003
0200
0300
0000
0000
0001
0100
,
0001
0000
0010
0000
0000
0100
0000
0100
2000
0000
0000
0000
3001
0000
0001
1000
,
0000
0000
0200
0300
0020
0030
0200
0300
2000
3000
0002
0003
0000
0000
1000
0010
,
1000
0000
0001
0000
0000
0010
0000
0010
0000
0000
MMMM
0000
0000
0000
0022
0000
,
0033
2200
3300
0010
0001
0020
0030
0200
,
0000
0000
1300
0010
1000
0002
0003
0020
,
0000
0230
0000
1300
0001
0100
0100
0010
,
0010
0000
0100
0000
0002
0000
0103
0010
0100
0010
0000
0000
MMMM
0000
0000
0000
,
2002
0000
3003
0000
2200
0000
3300
0022
0000
0033
2002
0000
3003
0220
0000
0330
,
2002
0000
3003
0000
MMMM
0000
0000
0000
0000
0000
1000
0000
1000
0000
0020
0030
,
0100
0020
0031
0020
0130
0020
1030
0010
,
0200
0000
0300
0002
0000
0003
0020
0000
0031
0100
0001
0100
0001
0000
0000
0000
,
1100
0000
0100
0000
0010
0000
0001
0000
0100
0000
0001
0000
0020
0030
0020
0030
,
0100
0000
1000
0000
0020
0030
0020
0030
1000
0001
1000
0001
1000
0000
0001
0000
,
1000
0000
0001
0000
0100
0000
0100
0000
0020
0030
0200
0300
0001
0000
1000
0000
,
0200
0300
0020
0030
0100
0000
1000
0000
0100
0000
1000
0000
0200
0000
0000
0000
,
1300
0000
0100
0000
0010
0000
0001
0000
1000
0000
0010
0000
0200
0300
0200
0300
,
0001
0000
0100
0000
0010
0000
0010
0000
1000
0100
1000
0100
1000
0000
0100
0000
,
0010
0000
0001
0000
0100
0000
0100
0000
0020
0030
0200
0300
0001
0000
1000
0000
,
0200
0300
2000
3000
0100
0000
0010
0000
0100
0000
0010
0000
0002
0000
0003
0000
,
MMMM
0000
1100
MMMM
0101
MMMM
1100
MMMM
,
0101
MMMM
1100
MMMM
0101
MMMM
1100
MMMM
,
MMMM
0000
0011
MMMM
1010
MMMM
0011
MMMM
,
1010
MMMM
0011
MMMM
1010
MMMM
0011
MMMM
,
MMMM
0000
0110
MMMM
1001
MMMM
0110
MMMM
,
1001
MMMM
0110
MMMM
1001
MMMM
0110
MMMM
,
1001
0000
1001
0000
1001
0000
1001
0000
1000
0001
1000
0001
1000
0001
1000
0001
,
0000
0000
1001
0000
;
