#TITLE:Heart On;
#SUBTITLE:Noflan;
#ARTIST:Celldweller;
#TITLETRANSLIT:;
#SUBTITLETRANSLIT:;
#ARTISTTRANSLIT:;
#GENRE:Electronic;
#CREDIT:;
#MUSIC:Heart On (Noflan) [3.9].ogg;
#BANNER:Heart On (Noflan) [3.9].png;
#JACKET:Heart On (Noflan) [3.9].jpg;
#BACKGROUND:Heart On (Noflan) [3.9]-bg.png;
#CDTITLE:cdtitle.png;
#SAMPLESTART:96.026;
#SAMPLELENGTH:7.383;
#SELECTABLE:YES;
#OFFSET:-6.000;
#BPMS:0.000=130.000;
#STOPS:;
#DISPLAYBPM:130.000;
#BGCHANGES:;
#FGCHANGES:;

//--------------- dance-single - Haley Halcyon ----------------
#NOTES:
     dance-single:
     Haley Halcyon:
     Beginner:
     1:
     0.125082,0.201085,0,0.089041,0,118,118,0,12,0,0,0.125082,0.201085,0,0.089041,0,118,118,0,12,0,0:
0000
0000
0000
1000
,
0000
0000
0000
0001
,
0000
0000
0000
0020
,
0000
0030
0000
0020
,
0000
0030
0000
0001
,
0000
0000
0000
1000
,
0000
0000
0000
0020
,
0000
0030
0000
0020
,
0000
0030
0000
1000
,
0000
0000
0000
0001
,
0000
0000
0000
0010
,
0000
0000
0000
0100
,
0000
0000
0000
1000
,
0000
1000
0000
1000
,
0000
1000
0000
0010
,
0000
0010
0000
0100
,
0000
0000
0000
0001
,
0000
2000
0000
3000
,
0000
0001
0000
0010
,
0000
0200
0000
0300
,
0000
1000
0000
0001
,
0000
0200
0000
0300
,
0000
0010
0000
1000
,
0000
0001
0000
1000
,
0000
0001
0000
1000
,
0000
0020
0000
0030
,
0000
0100
0000
0001
,
0001
0001
0001
0001
,
0000
1000
0000
0010
,
0000
0200
0000
0300
,
0000
0001
0000
1000
,
0000
0100
0000
0010
,
0000
0001
0000
1000
,
0000
1000
0000
0010
,
0000
0100
0000
0001
,
0000
0001
0000
0010
,
0000
0100
0000
1000
,
0000
1000
0000
0100
,
0000
0010
0000
0001
,
0000
0001
0000
0100
,
0000
0000
0000
0001
,
0000
0001
0000
1000
,
0000
1000
0000
0010
,
0000
0010
0000
0200
,
0000
0300
0000
0001
,
0001
0001
0000
1000
,
1000
1000
0000
0010
,
0100
0010
0100
0010
,
0000
0000
0000
1000
,
0000
0001
0000
1000
,
0000
1000
0000
0010
,
0000
0100
0000
0001
,
0000
0001
0000
0010
,
0000
0200
0000
0300
,
0000
1000
0000
0001
,
0000
0001
0000
1000
,
0000
1000
0000
0010
,
0000
0100
0000
0001
,
0000
1000
0000
0004
,
0000
0000
0000
0003
,
0000
0100
0000
0010
,
0000
2000
0000
3000
,
0000
0100
0000
0010
,
0000
0010
0000
0001
,
0000
0001
0000
1000
,
0000
1000
0000
0001
,
0000
0001
0000
1000
,
0010
0100
0001
1000
;

//--------------- dance-single - Haley Halcyon ----------------
#NOTES:
     dance-single:
     Haley Halcyon:
     Easy:
     3:
     0.232143,0.251356,0.01484,0.089041,0,219,217,2,12,9,0,0.232143,0.251356,0.01484,0.089041,0,219,217,2,12,9,0:
0000
0000
0000
1000
,
0000
0001
0000
0010
,
0000
0010
0000
0100
,
0010
0001
0000
0100
,
0010
1000
0000
0001
,
0000
1000
0000
0010
,
0000
0100
0000
0001
,
0010
0100
0000
1000
,
0010
0100
0000
0001
,
0000
0001
0000
1000
,
0000
1000
0000
0100
,
0000
0010
0000
0001
,
0000
1000
0000
0010
,
0010
0100
0100
0010
,
0010
0100
0100
0001
,
1000
0001
1000
0001
,
0000
0000
0000
1000
,
0010
0100
0001
000M
,
0001
1000
0100
0010
,
0100
1000
0001
000M
,
0001
1000
0010
0100
,
0001
1000
0100
00M0
,
0010
0001
1000
0010
,
0010
1000
1000
0001
,
0001
0020
0030
0001
,
1000
0001
0100
0M00
,
0010
1000
0001
4004
,
0000
0000
3003
0100
,
0010
1000
0001
0MM0
,
0001
1000
0010
00M0
,
0010
0100
0001
1000
,
1000
0001
0001
0010
,
0010
0200
0300
1000
,
0010
0100
0001
1000
,
0100
0010
0001
1000
,
0010
0100
0001
1000
,
0100
0010
0001
0001
,
0010
0100
1000
0001
,
0100
0010
1000
0001
,
0010
0100
1000
0000
,
0000
0000
0000
1000
,
1000
0010
0200
0300
,
0001
0010
0200
0300
,
1000
0010
0100
0001
,
1000
1000
1000
0010
,
0010
0100
0100
0010
,
0010
0100
0100
0001
,
1000
0001
1000
0001
,
0000
0000
0000
1000
,
0010
0100
0001
0001
,
0010
0100
1000
0002
,
0003
2000
3000
0010
,
0010
0100
0001
1000
,
0100
0010
0001
000M
,
0001
0010
0100
1000
,
1000
0001
0001
0100
,
0100
0020
0030
1000
,
0001
0100
0010
1000
,
1000
0002
0003
0440
,
0000
0000
0330
2000
,
3002
1003
1000
0010
,
0100
0001
0010
00M0
,
0010
0100
1000
0001
,
0001
0100
0100
1000
,
1000
0200
0300
0001
,
0001
0010
0010
1000
,
1000
0020
0030
0001
,
1000
0000
0001
1000
0001
1000
0001
0000
;

//--------------- dance-single - Haley Halcyon ----------------
#NOTES:
     dance-single:
     Haley Halcyon:
     Medium:
     6:
     0.395386,0.427305,0.118722,0.489727,0.051941,373,357,16,66,4,0,0.395386,0.427305,0.118722,0.489727,0.051941,373,357,16,66,4,0:
0000
0000
0000
0000
0000
0000
1000
0001
,
0100
0000
0010
0100
0001
0000
0010
0100
,
0010
0000
0001
0000
1000
0000
0000
0001
0000
0000
0000
0000
2000
0000
3000
0000
,
0002
0003
0010
0100
1000
0000
0002
0003
,
2000
3000
0010
0100
0001
0000
1000
0100
,
1000
0001
0010
0001
1000
0000
0010
0100
,
0001
0010
0001
0100
0010
0000
2000
3000
,
0002
0003
0100
0010
1000
0000
0002
0003
,
2000
3000
0100
0010
0001
0000
1000
0000
,
1000
0100
0100
0010
,
0001
0100
0010
0100
,
0100
0001
0001
1000
,
0010
0100
0001
1100
,
1100
1001
1001
0101
,
0101
0000
1001
0000
1001
0000
0001
1000
,
0001
0000
1000
0000
0004
4000
0000
0000
0000
0000
0000
0000
3003
0000
0000
0000
,
0000
0000
0000
0000
0000
0000
2000
3000
,
0100
0000
1000
0000
0002
0000
0003
0000
0200
0000
0300
0001
0000
0000
1000
0000
,
0001
0001
0200
0300
0020
0030
2000
3000
,
0001
0000
0010
0000
0002
0000
0003
0000
2000
0000
3000
0010
0000
0000
2000
0000
,
3001
0010
0100
0010
0001
0001
2000
3000
,
0001
0000
0100
0000
0020
0000
0030
0000
2000
0000
3000
0001
0000
0000
0010
0000
,
0100
1000
0001
0100
0100
0010
0010
1000
,
0001
1000
0010
0100
0001
0200
0300
0001
,
1000
0001
1000
2000
0000
3000
0002
0003
,
1000
0000
0010
0000
2000
0000
3000
0000
0002
0000
0003
0010
0000
0000
0001
0000
,
0100
0010
0100
0001
2000
3000
0001
0001
,
0100
0100
0010
0010
1000
1000
0100
0010
,
0002
0003
2000
3000
0020
0030
0000
0000
,
1000
0000
0001
0000
0200
0000
0300
0000
0020
0000
0030
0100
0000
0000
0001
0000
,
1000
0200
0300
0020
0030
0001
1000
0010
,
0100
0001
0010
0100
1000
0002
0003
1000
,
0010
1000
0001
0002
0000
0003
1000
0000
,
0010
0100
0001
0010
,
0100
0000
1000
0001
1000
0000
0010
0000
,
0100
0001
0010
0100
,
1000
0000
0001
0100
0001
0000
0010
0000
,
0100
0010
0001
0100
,
0010
0000
1000
0001
1000
0000
0100
0000
,
0010
0001
1000
0000
,
M00M
0000
M00M
1000
,
0010
0000
0100
0000
0001
1000
0000
0000
,
0001
0000
0100
0000
0010
1000
0000
0000
,
0100
0000
0010
0000
0001
2000
0000
3000
,
0002
0003
0020
0030
0200
0300
1100
0000
,
1001
1100
1001
0101
,
1001
0000
0101
0000
1001
0000
1000
0001
,
1000
0000
0001
0000
4000
0004
0000
0000
0000
0000
0000
0000
3003
0000
0000
0000
,
0000
0000
0000
0000
0000
0000
0002
0003
,
1000
0010
2000
3000
0001
0010
0001
0001
,
2000
3000
0001
0100
0010
1000
0002
0003
,
2000
3000
0020
0030
0100
0100
0001
0001
,
1000
0020
0030
0100
0001
0100
0002
0003
,
1000
0000
0010
0000
2000
0000
3000
0000
0002
0000
0003
1000
0000
0000
0100
0000
,
0010
0100
2000
3000
0001
1000
0001
0100
,
0010
0100
1000
0100
0001
2000
3000
0001
,
0010
0100
1000
2000
3000
0000
0002
0003
,
0010
0100
0020
0030
0001
1000
0010
0010
,
0200
0000
0300
0001
0000
0000
2000
0000
3000
0000
0002
0000
0013
0000
0010
0000
,
0001
0001
0100
0100
0010
1000
1000
0001
,
1000
0010
2000
3000
0002
0003
0020
0030
,
0100
0000
0010
0000
0002
0000
0003
0000
2000
0000
3000
0001
0000
0000
1000
0000
,
0010
0100
0001
0010
0010
0100
1000
0010
,
0100
0010
0001
0010
1000
0002
0003
1000
,
0100
0010
0001
0002
0003
0000
0001
0010
,
0100
0010
1000
0010
0001
2000
3000
0001
,
0100
0010
1000
2000
3000
0000
0001
0000
,
0100
0010
0100
0010
0400
0040
0000
0000
0000
0000
0000
0000
0330
0000
0000
0000
;

//--------------- dance-single - Haley Halcyon ----------------
#NOTES:
     dance-single:
     Haley Halcyon:
     Hard:
     8:
     0.517287,0.527848,0.066781,0.608449,0.200343,488,479,9,82,2,0,0.517287,0.527848,0.066781,0.608449,0.200343,488,479,9,82,2,0:
0000
0000
0000
0000
0000
0000
0000
0000
2000
0000
3000
0000
0001
0000
0000
1000
,
0000
0000
0100
0000
1000
0000
0000
0001
0000
0000
0010
0000
1000
0000
0010
0000
,
0001
0000
0000
1000
0000
0000
0100
0000
0010
0000
0010
0000
0002
0000
0003
0000
,
2000
3000
0100
0001
0100
1000
0002
0003
,
2000
3000
0010
0001
0010
1000
0001
0100
,
0010
0000
1000
0000
0001
0000
0000
0100
0000
0010
0000
0001
0000
0000
0010
0000
,
1000
0000
0100
0000
0010
0000
0000
0001
0000
0000
1000
0000
2000
0000
3000
0000
,
0020
0030
0100
0001
0010
0100
2000
3000
,
0200
0300
0010
0100
1000
0010
0100
0001
,
0001
0010
0100
0100
1000
0002
0003
1000
,
0010
1000
0001
0001
0100
0020
0030
0001
,
0010
1000
0100
0100
0010
0002
1003
0100
,
1000
0001
0010
0001
1000
0100
2000
3000
,
0200
0300
0002
0003
0020
0030
2000
3000
,
0020
0030
0002
0003
0200
0300
1000
0001
,
1000
0000
0001
0000
1000
0001
1000
0001
1000
0001
1000
0001
1000
0000
0000
0000
,
0000
0000
0000
0000
0000
0000
2000
3000
,
0001
0000
0001
0000
0200
0000
0300
0000
0001
0000
1000
0001
0000
1000
0001
0000
,
0010
0100
1000
0001
1000
0010
0200
0300
,
0001
0000
0010
0000
0200
0000
0300
0000
2000
0000
3000
0001
0000
1000
0001
0000
,
1000
0000
0010
0100
0010
0000
1000
0000
0100
0000
1000
0000
0002
0000
0003
0000
,
1000
0000
0010
0000
0200
0000
0300
0000
0001
0000
0010
0100
0000
0010
0100
0000
,
2000
3000
0020
0030
0002
0003
0010
1000
0010
0000
1000
0001
2000
0000
3200
0000
,
0320
0032
2003
3020
0230
0302
0023
0230
,
2300
3200
0310
0010
0100
0100
2000
3000
,
0100
0000
0010
0000
0002
0000
0003
0000
1000
0000
0010
0100
0000
0010
0100
0000
,
0001
1000
0100
0010
0001
1000
0004
0000
,
0403
0000
0340
0000
4030
3001
0001
1000
,
0100
0000
0010
0100
0010
0000
0001
0000
1000
0000
0010
0000
0MM0
0000
0000
0000
,
1001
0000
1000
0000
0200
0000
0300
0000
0010
0000
0001
0100
0000
0001
0100
0000
,
0010
0100
1000
0100
0001
2000
3020
0230
,
0302
2003
3200
0320
0032
2003
0000
3020
,
0230
0302
0013
0010
0100
0100
1000
0010
,
0100
0001
0010
0100
1000
0001
1000
0010
,
0001
0010
1000
0001
2000
3000
0001
0001
,
0010
0010
0100
1000
0001
0100
0010
0100
,
0002
0000
0003
0000
1000
0000
0001
0000
2000
0000
3000
0000
0010
1000
0010
1000
,
0010
0000
0100
0000
0001
0100
0001
0100
0001
0000
0000
0000
0000
0000
0001
0000
,
2000
0000
3000
0000
0001
0000
0010
0000
0002
0000
0003
0000
1000
0010
1000
0010
,
1000
0010
1000
0010
1000
0000
0001
0000
1000
0000
0100
0000
0000
0000
0000
0000
,
0010
0000
0000
0000
0010
0000
1000
0001
,
0100
0001
0010
0010
0001
0200
0300
0001
,
0010
0100
1000
1000
0100
0020
0030
0001
,
0100
1000
0100
0001
0010
0002
1003
1000
,
0040
0030
0400
0300
0004
0003
1100
0000
,
0011
1100
0011
0101
,
1010
0000
0101
0000
1010
0000
1000
0010
,
0100
0000
0001
0000
0010
0100
0010
0100
0010
0100
0010
0100
1000
0000
0000
0000
,
0000
0000
0000
0000
0000
0000
2000
3000
,
0001
0100
0020
0030
1000
0100
0001
0100
,
1000
0000
0001
0000
0010
0000
0001
1000
0001
0000
0100
0001
0200
0000
0300
0000
,
0010
0010
0100
0010
1000
1000
0001
0010
,
0010
0100
0100
1000
1000
0001
0001
0100
,
0010
0000
1000
0000
0200
0000
0000
0000
0320
0000
0000
0031
0000
0100
0001
0000
,
1000
0001
0040
0030
0400
0300
1000
1000
,
0100
0000
0100
0000
0010
0000
0010
0000
0001
0000
0002
0000
0000
0003
0200
0000
,
0320
2030
3100
0100
1000
1000
0001
0000
,
0001
0010
0100
0010
0001
1000
0010
0001
,
0010
0000
0100
0010
0100
0000
0001
1000
0001
0000
1000
0100
4000
0000
0000
0000
,
3040
0000
0000
0000
0430
0000
0000
0000
0304
0000
1003
0000
1000
0000
0001
1000
,
0001
0000
1000
0010
1000
0000
0001
0000
0010
0000
0100
0000
2000
0000
3000
0000
,
0010
0000
0100
0000
0004
0000
0000
0003
2000
3000
0001
1000
0000
0001
1000
0000
,
0001
0100
1000
0100
0010
0100
0001
1000
,
0010
0100
0001
0001
0010
0200
0300
1000
,
0100
1000
0010
0020
0200
0000
0330
0000
,
0010
1000
0100
0100
0010
0002
0003
0100
,
1000
0100
0001
0002
2000
3003
1000
0001
,
1000
0001
1000
0001
1000
0010
1000
0010
0100
0001
0100
0001
1000
0000
0000
0000
;

//--------------- dance-single - Haley Halcyon ----------------
#NOTES:
     dance-single:
     Haley Halcyon:
     Challenge:
     10:
     0.68265,0.770763,0.497147,1.929227,0.500857,644,577,67,260,4,0,0.68265,0.770763,0.497147,1.929227,0.500857,644,577,67,260,4,0:
0000
0000
0000
0000
0000
0000
0000
0000
0002
0000
0003
0000
2000
3000
0100
0002
,
0003
0100
0020
0030
0002
0003
0100
2000
0000
3000
0200
0300
0002
0003
0020
0030
,
0200
0000
0000
0000
0300
0000
0000
0000
0000
1000
0000
0000
0000
0000
0000
0000
0000
0000
0020
0000
0000
0000
0000
0000
0030
0000
0000
0000
0000
0000
0001
0000
0000
0000
0000
0000
0020
0000
0000
0000
0000
0000
0030
0000
0000
0000
0000
0000
0000
0000
0000
0000
0000
0000
0100
0000
0000
0000
0000
0000
0010
0000
0000
0000
0000
0000
0100
0000
0000
0000
0000
0000
0002
0000
0000
0000
0000
0000
0000
0000
0000
0000
0000
0000
0000
0000
0000
0000
0000
0000
0003
0000
0000
0000
0000
0000
,
2200
3000
0002
0303
0110
0000
0044
0033
4004
3003
1000
0010
0200
0000
0000
0300
,
0022
0030
2000
3003
0001
0000
0022
0033
2200
0000
3300
0000
1000
0100
0010
0100
,
0001
0000
0100
0000
1000
0000
0001
0100
0000
0010
0000
0001
0000
0010
1000
0000
,
0100
0000
0001
0000
0100
0010
0000
0002
0000
0003
1000
0001
2000
0000
0000
3000
,
2020
0030
0200
3300
0001
0000
0020
0030
2000
0000
3010
0001
0200
0000
0000
0300
,
2020
0030
0002
3003
1000
0000
0020
0030
0002
0003
2000
3000
0100
0000
0001
0000
,
0001
0010
0100
0100
1000
0002
0003
1000
,
0010
1000
0001
0001
0100
0020
0030
0001
,
0010
0000
1000
0000
0100
0000
0100
0000
0010
0000
0002
0000
0003
1000
0100
1000
,
0000
0001
0100
0001
0000
1000
0010
1000
0000
0001
0010
0001
2000
0000
0000
3000
,
2400
0300
0000
3000
2004
0003
0000
3000
2040
0030
0000
3000
0002
0000
0000
0003
,
0402
0300
0000
0003
4002
3000
0000
0003
0042
0030
0000
0003
0020
0000
2030
0000
,
3020
0000
0032
0000
1003
0100
1000
0100
0010
0100
0010
0100
0001
0000
0000
0000
,
0000
0000
0000
0000
0000
0000
0000
0000
0000
0000
0000
0000
2000
0000
0000
3000
,
0202
0303
0022
0033
0220
0000
0000
0330
2200
3300
1000
0001
0000
1000
0001
0000
,
0020
0030
0200
0300
0002
0003
0200
0300
2000
3000
0020
0030
0200
0000
0000
0300
,
2002
3003
2002
3003
2020
0000
0000
3030
0202
0000
0303
0001
0000
0010
0004
0003
,
2000
3000
0010
0100
0000
1000
0200
0300
0002
0003
2000
3000
0002
0000
0000
0003
,
2002
3003
2020
3030
0440
0000
0000
0330
0202
0303
1000
0100
0000
0001
0200
0300
,
2000
3000
0020
0030
0002
0003
0010
1000
0200
0300
1000
0001
2000
0000
3200
0000
,
0302
0203
0320
0032
2003
3020
0032
0023
,
2030
0000
3200
0000
0320
0000
0100
0030
0200
0000
1000
0300
2000
0000
0000
3000
,
2200
3300
0220
0330
0022
0000
0000
0033
2002
3003
1000
0010
0000
0100
0010
0000
,
2000
3000
0002
0003
0010
0000
2000
3000
0002
0003
0200
0300
1000
0100
1000
0100
,
0010
0001
0010
0001
1000
0010
1000
0010
0100
0001
0400
0300
0400
0300
0002
0003
,
0020
0000
0030
0000
1000
0000
0010
0000
0002
0000
0003
0000
0020
0000
0030
0000
0200
0000
0300
0000
2000
0000
3000
0000
0001
0000
0100
0000
0000
0000
0001
2000
,
0002
3003
2020
3030
0200
0000
0000
0300
0002
0003
1000
0010
0000
0100
0020
0030
,
2000
3000
0200
0300
0002
0000
0103
0000
0200
0000
2300
0000
3020
0000
0032
0000
,
2003
3200
0302
0023
0230
2300
0000
3020
,
0230
0000
0302
0000
0023
0000
0100
0000
0230
0000
1000
0000
1300
0010
1000
0000
,
0001
0000
0010
0100
0000
1000
0100
0000
0010
0000
0001
1000
0000
0010
0100
0000
,
0001
M010
001M
1000
0002
0003
2000
3000
0020
0000
0000
0030
0100
0001
0010
0001
,
1000
0010
0100
0010
1000
0200
0000
0300
0020
0030
0002
0003
2000
3000
0100
1000
,
0100
0020
0030
0100
2000
3000
0002
0003
0200
0000
0000
0300
0010
0100
0001
0100
,
0020
0030
1000
0002
0003
0010
0001
0010
0002
0000
0003
0000
M000
1000
0002
0003
,
1000
0020
0030
1000
0002
0003
0200
0300
0002
0000
0000
0003
1000
0010
0100
0001
,
1000
0100
0010
0001
0000
0002
0000
0003
0020
0030
0200
0300
0000
0000
0000
0000
,
1001
0000
0000
0000
1001
0000
1000
0001
,
0100
0010
0001
0001
0010
0200
0300
1000
,
0010
0100
1000
1000
0100
0020
0030
0001
,
0100
0000
1000
0000
0001
0000
0010
0000
1000
0000
0002
0000
1003
0010
1000
0010
,
0100
0001
0100
0001
0010
0001
0010
0001
1000
0100
1000
0100
2000
0000
0400
3300
,
2004
0003
0004
3003
2040
0030
0040
3030
2400
0300
0400
3300
4002
3000
4000
3003
,
0402
0300
0400
0303
0042
0030
0040
0033
4002
3000
4000
3003
1000
0001
1000
0001
,
0100
0010
0100
0010
1000
0100
0010
0001
0100
0010
0001
0010
1000
0000
0000
0000
,
0000
0000
0000
0000
0000
0000
0000
0000
0000
0000
0000
0000
2000
0000
0000
3000
,
0022
0033
0202
0303
0220
0000
0000
0330
2020
3030
2200
3300
0002
0003
0020
0030
,
2000
3000
0020
0030
0002
0003
0100
0001
2000
3000
0100
1000
0002
0000
0000
0003
,
0020
0030
0020
0030
0200
0300
0020
0030
2000
3000
2000
3000
0020
0030
0001
0100
,
0020
0030
1000
0100
0020
0030
0002
0003
0200
0300
2000
3000
0200
0000
0001
0300
,
0022
0033
2002
3003
1000
0002
0000
0003
0010
0200
0000
1300
0000
0010
2000
3000
,
0002
0000
2000
3003
0001
0020
0030
0200
0300
1000
0001
0000
1010
0000
1000
0000
,
1100
0000
0100
0000
0110
0000
0010
0000
0011
0000
0002
0000
0100
0003
0200
0000
,
0320
2030
3200
0010
2300
3001
1001
0000
,
0001
0000
0010
0000
0100
0000
0010
0000
0001
0000
1000
0000
0020
0030
0002
0003
,
0020
0030
0100
0001
0020
0030
1000
0010
0200
0300
1000
0100
1000
0010
1000
0010
,
0100
0001
0100
0001
0010
0001
0010
0001
1000
0100
2000
3000
2000
3000
0001
0100
,
0020
0030
1000
0001
0020
0030
2000
3000
0020
0030
0002
0003
2000
0000
0000
3000
,
2020
3030
0220
0330
0404
0000
0000
0303
2000
3000
0100
1000
0000
0100
0020
0030
,
0002
0000
0100
0003
2000
0000
0001
3000
0010
0000
0100
0000
0001
0000
1000
0000
,
0010
0100
1000
1000
0100
0002
0003
0010
,
0100
0000
1000
0000
0010
1000
0010
1000
0001
0100
0001
0100
0010
0000
0010
0000
,
1010
1000
1100
0100
0110
0020
0031
0101
,
1100
0000
1010
0000
0011
0000
2002
0000
0000
3003
2002
3003
1100
0000
0011
0000
,
1000
0010
0100
0010
1000
0001
0100
0001
0010
0100
0001
0100
0010
0000
0000
0000
,
0000
0000
0000
0000
,
0000
00M0
0000
0000
;
