#TITLE:Glide;
#SUBTITLE:;
#ARTIST:niki ft. Lily;
#TITLETRANSLIT:;
#SUBTITLETRANSLIT:;
#ARTISTTRANSLIT:;
#GENRE:;
#CREDIT:HaleyHalcyon;
#MUSIC:Glide [3.9].ogg;
#BANNER:Glide [3.9].png;
#BACKGROUND:Glide [3.9]-bg.png;
#JACKET:Glide [3.9]-jacket.png
#CDTITLE:cdtitle.png;
#SAMPLESTART:84.635;
#SAMPLELENGTH:14.769;
#SELECTABLE:YES;
#OFFSET:0.000;
#BPMS:0.000=130.000
,32.000=520.000
,33.000=130.000
,36.000=520.000
,37.000=130.000
,40.000=520.000
,41.000=130.000
,44.000=520.000
,45.000=130.000
,48.000=520.000
,49.000=130.000
,52.000=520.000
,53.000=130.000
,56.000=520.000
,57.000=130.000
,60.000=520.000
,61.000=130.000
,94.000=650.000
,94.833=26.000
,95.000=650.000
,95.833=26.000
,96.000=130.000
,102.000=65.000
,103.000=130.000
,143.000=520.000
,144.000=130.000
,147.000=520.000
,148.000=130.000
,151.000=520.000
,152.000=130.000
,155.000=520.000
,156.000=130.000
,159.000=520.000
,160.000=130.000
,163.000=520.000
,164.000=130.000
,167.000=520.000
,168.000=130.000
,171.000=520.000
,172.000=130.000
,215.000=520.000
,216.000=130.000
,247.000=520.000
,248.000=130.000
,251.000=520.000
,252.000=130.000
,255.000=520.000
,256.000=130.000
,259.000=520.000
,260.000=130.000
,263.000=11.300
,264.000=130.000
;
#STOPS:32.000=0.346
,36.000=0.346
,40.000=0.346
,44.000=0.346
,48.000=0.346
,52.000=0.346
,56.000=0.346
,60.000=0.346
,143.000=0.346
,147.000=0.346
,151.000=0.346
,155.000=0.346
,159.000=0.346
,163.000=0.346
,167.000=0.346
,171.000=0.346
,215.000=0.346
,247.000=0.346
,251.000=0.346
,255.000=0.346
,259.000=0.346
;
#DISPLAYBPM:130.000;
#BGCHANGES:;
#FGCHANGES:;

//--------------- dance-single - HaleyHalcyon ----------------
#NOTES:
     dance-single:
     HaleyHalcyon:
     Medium:
     7:
     0.403603,0.502601,0.213224,0.677749,0.133265,371,343,28,89,30,0,0.403603,0.502601,0.213224,0.677749,0.133265,371,343,28,89,30,0:
0000
0000
0000
0000
,
0000
0000
0000
0000
,
0000
0000
0000
0000
,
0000
0000
0000
0000
,
1000
0000
0000
0000
1000
0010
0100
0001
,
1000
0000
0000
0000
1000
0010
0200
0300
,
0002
0003
0100
0001
0020
0030
0100
0010
,
0002
0003
2000
3000
0020
0030
0400
0000
,
0301
0000
1001
0000
1000
0100
0010
0001
,
1000
0000
1001
0000
0001
0100
0010
0100
,
0001
0000
1001
0000
1000
0001
0010
0100
,
1000
0000
1001
0000
0001
0001
1000
1000
,
0001
0000
1001
0000
0001
0010
0100
0010
,
0001
0000
1001
0000
1000
0010
0100
0001
,
1000
0000
1001
0000
0100
0001
0010
0001
,
1000
0000
1001
0000
1000
1000
0100
0100
,
0010
0001
1000
0001
0000
0001
1000
0100
,
0010
0001
1000
0010
0000
0000
0000
0100
,
0001
1000
0010
0100
0000
0100
0001
0010
,
0100
1000
0001
1000
0040
0000
0430
0000
,
0302
0000
0023
0000
2030
3020
0000
0031
,
0000
0001
1000
0001
0020
0030
0100
1000
,
2000
0000
3020
0000
0032
0023
0000
1030
,
0000
1000
0100
1000
0001
0000
1001
0000
,
2000
0000
0000
3010
0220
0000
0000
0000
,
0030
0000
0000
0302
2003
0000
3001
0000
,
0010
0000
0100
0000
0000
0000
0010
0000
0001
0000
1000
0000
0010
0000
0000
0100
,
0000
0002
1003
0000
1000
0001
1000
0000
,
0100
0000
0010
0000
0000
0000
0100
0000
1000
0000
0001
0000
0010
0000
0000
0100
,
0000
0000
2000
0000
3001
0000
0001
0000
1000
0000
0001
0000
0020
0000
0000
0230
,
0000
0000
0320
0000
0000
0230
0000
0000
0310
0000
0001
0000
2000
0000
0000
3002
,
0000
2003
3001
0000
0001
0001
2000
0000
,
3020
0230
0302
2003
,
3200
0320
0032
1MM3
,
0000
0000
0000
0000
0000
0000
0000
0000
0000
0000
0000
0000
M000
0M00
00M0
0M00
,
000M
0000
0M00
0000
00M0
00M0
00M0
0000
M000
0000
0M00
0000
00M0
0000
0M00
0000
000M
0000
0M00
0000
00M0
00M0
00M0
0000
0001
0000
0000
0000
0000
0000
0000
0000
,
1001
0000
0000
0000
1000
0010
1000
0000
0001
0000
0100
0000
0001
0000
0000
0000
,
1001
0000
0001
0010
0100
1000
0001
0000
,
1001
0000
0000
0000
0001
0010
0001
0000
1000
0000
0100
0000
1000
0000
0000
0000
,
1001
0000
0001
0001
0100
0100
0001
0000
,
1001
0000
0000
0000
1000
0010
1000
0000
0100
0000
0010
0000
0001
0000
0000
0000
,
1001
0000
0001
0100
0010
0100
0001
0000
,
1001
0000
0000
0000
1000
0010
1000
0000
0100
0000
0010
0000
0001
0000
0000
0000
,
1001
0000
1000
1000
0001
0001
2MM0
0000
,
3200
0320
0032
2003
,
3020
0230
0302
1MM3
,
0100
0000
0010
0000
0000
0000
0001
0000
1000
0000
0010
0000
0200
0000
0000
0302
,
0000
0203
0310
0000
0110
0100
0001
0000
,
1000
0000
0100
0000
0000
0000
0010
0000
0100
0000
1000
0000
0002
0000
0000
2003
,
0000
0000
3020
0000
0130
0000
0000
0000
0101
0000
0001
0000
0020
0000
0000
0230
,
0000
0000
0320
0000
0000
0230
0000
0000
0310
0000
0001
0000
2000
0000
0000
3002
,
0000
2003
3001
0000
1000
0001
2MM0
0000
,
3200
0320
0032
0203
,
0320
2030
3002
1MM3
,
0100
0000
0010
0000
0000
0000
0100
0000
1000
0000
0001
0000
0020
0000
0000
2030
,
0000
3020
0031
0000
0011
0010
0001
0000
,
0100
0000
0010
0000
0000
0000
0100
0000
0001
0000
1000
0000
0200
0000
0000
0302
,
0000
0000
0203
0000
1300
0000
0000
0000
1100
0000
1000
0000
0002
0000
0000
0023
,
0000
0000
0032
0000
0000
0023
0000
0000
0031
0000
0100
0000
0020
0000
0000
0230
,
0000
0320
1030
0000
1001
0001
2MM0
0000
,
3020
0230
0302
0023
,
0230
2300
3002
1003
,
1001
0000
0000
0000
0001
0100
0001
0000
0010
0001
0010
0000
0001
0000
0000
0000
,
1001
0000
1000
0100
0010
0001
1000
0000
,
1001
0000
0000
0000
1000
0100
1000
0000
0001
0010
0001
0000
1000
0000
0000
0000
,
1001
0000
0000
0000
0001
0010
0100
0000
1000
0010
0100
0000
2002
0000
0000
0000
,
3003
0000
0000
0000
;

//--------------- dance-single - HaleyHalcyon ----------------
#NOTES:
     dance-single:
     HaleyHalcyon:
     Hard:
     9:
     0.422097,0.536726,0.098997,1.111813,0.289376,388,375,13,146,49,0,0.422097,0.536726,0.098997,1.111813,0.289376,388,375,13,146,49,0:
0000
0000
0000
0000
,
0000
0000
0000
0000
,
0000
0000
0000
0000
,
0000
0000
0000
0000
,
1000
0000
0000
1000
0000
0000
1000
0000
0001
0000
0010
0000
0100
0000
0010
0000
,
0001
0000
0000
0001
0000
0000
0001
0000
1000
0000
0100
0000
0010
0000
0100
0000
,
1000
0000
0000
1000
0000
0000
1000
0001
0010
0000
0000
0010
0000
0000
0010
0100
,
1000
0010
1000
0000
0001
0010
0001
0000
1000
0100
1000
0000
0004
0000
0003
0000
,
2000
0000
0000
0000
3001
0000
0000
0000
0001
0010
0001
0000
0100
0010
1000
0000
,
0002
0000
1003
0000
4000
3040
0430
0304
,
2003
0000
0000
0000
3001
0000
0000
0000
1000
0010
1000
0000
0100
0010
0001
0000
,
0002
0000
1003
0000
0011
1001
1010
1001
,
0020
0000
0000
0000
0031
0000
0000
0000
0001
0010
0100
0000
0010
0001
1000
0000
,
0020
0000
1030
0000
0400
4300
3004
0043
,
0230
0000
0000
0000
1300
0000
0000
0000
1000
0100
1000
0000
0010
0100
0001
0000
,
0200
0000
0301
0000
0011
0101
0110
1010
,
0001
0000
0100
0000
0010
0000
0100
2000
0000
3000
1000
0000
0100
0000
0001
0000
,
0010
0100
1000
0001
1000
1000
0001
0001
,
0010
0000
0100
0000
1000
0000
0010
0200
0000
0300
0100
0000
1000
0000
0100
0000
,
0001
0010
0100
1000
0001
0001
1000
1000
,
0200
0000
0000
0000
0002
0300
0000
0000
0020
0003
2000
0030
0000
0000
0200
3000
,
0300
1000
0100
0010
0002
0003
1000
0001
,
0200
0000
0000
0000
2000
0300
0000
0000
0020
3000
0002
0030
0000
0000
0200
0003
,
0300
0001
0100
0010
1000
0000
0001
0000
,
2000
0000
0000
3100
0220
0000
0000
0000
,
0000
0000
0000
0000
0330
0000
0020
0030
0001
0000
0000
1000
1002
0000
0000
0000
,
0203
0000
2300
0000
0000
0000
3200
0000
0302
0000
2003
0000
3020
0000
0000
0230
,
0000
0304
0000
0003
0000
0001
2000
0000
,
3200
0000
0302
0000
0000
0000
0203
0000
2300
0000
3002
0000
0023
0000
0000
0230
,
0000
0000
4300
0000
0000
0000
3000
0000
0000
0000
0010
0000
2000
0000
0000
3200
,
0000
0000
0320
0000
0000
0230
0000
0000
0302
0000
0203
0000
0320
0000
0000
0032
,
0000
4003
0000
3000
0000
0001
2000
0000
,
3020
0032
0023
2030
,
3200
0320
0032
1MM3
,
10M0
0000
0000
0000
10M0
0000
0000
0000
10M0
0000
0000
0000
1000
0100
0010
0000
,
0001
0010
0100
0000
1000
0010
0100
0000
0001
0010
0100
0000
2000
0000
0000
0000
,
3001
0000
0000
0000
0001
0100
0001
0000
0010
0100
1000
0000
0002
0000
0000
0000
,
1003
0000
4000
3040
0430
0304
2003
0000
,
3001
0000
0000
0000
0001
0010
0001
0000
0100
0010
1000
0000
0002
0000
0000
0000
,
1003
0000
0000
0000
1000
0010
0001
0000
1000
0100
0001
0000
2000
0000
0000
0000
,
3100
0000
0000
0000
0100
0010
0100
0000
0010
0001
1000
0000
0002
0000
0000
0000
,
0103
0000
0400
0340
4030
3004
2003
0000
,
3010
0000
0000
0000
0010
0100
0010
0000
0001
0010
1000
0000
0002
0000
0000
0000
,
0013
0000
0011
0110
1400
0000
23MM
0000
,
320M
03M2
M023
2M30
,
320M
0000
M320
0000
0M32
1000
2003
0000
,
3200
0000
0302
0000
0000
0000
0203
0000
2300
0000
3002
0000
0023
0000
0000
0230
,
0000
4300
0000
3000
0000
1000
0002
0000
,
0203
0000
2300
0000
0000
0000
3200
0000
0302
0000
2003
0000
3020
0000
0000
0230
,
0000
0000
0304
0000
0000
0000
0003
0000
0000
0000
0010
0000
0002
0000
0000
0203
,
0000
0000
0320
0000
0000
0230
0000
0000
2300
0000
3200
0000
0320
0000
0000
2030
,
0000
3004
0000
0003
0000
1000
0MM2
0000
,
0023
2030
3020
0032
,
0203
0000
0320
0000
2030
0001
3MM2
0000
,
0203
0000
2300
0000
0000
0000
3002
0000
0023
0000
2030
0000
3002
0000
0000
0023
,
0000
4030
0000
3000
0000
0020
0032
0000
,
0023
0000
2030
0000
0000
0000
3002
0000
0203
0000
2300
0000
3002
0000
0000
0203
,
0000
0000
4300
0000
0000
0000
3000
0000
0000
0000
0200
0000
0302
0000
0000
0203
,
0000
0000
0320
0000
0000
0230
0000
0000
2300
0000
3200
0000
0302
0000
0000
0023
,
0000
0430
0000
0300
0000
1000
0MM2
0000
,
0023
2030
3002
2003
,
3020
0032
2003
3200
,
0310
0000
0000
0000
0001
0010
0001
0000
0100
0010
1000
0000
0020
0000
0000
0000
,
0130
0000
0004
0403
4300
3400
0320
0000
,
0130
0000
0000
0000
1000
0100
1000
0000
0010
0100
0001
0000
2000
0000
0000
0000
,
3100
0000
0000
0000
0100
0010
0002
0000
0103
0010
2000
0000
0002
0000
0000
0000
,
30M3
00M0
00M0
00M0
00M0
00M0
00M0
0000
0000
0M00
0M00
0M00
0M00
0M00
0M00
0000
0000
00M0
00M0
00M0
00M0
00M0
00M0
00M0
00M0
00M0
0000
0000
0M00
0M00
0M00
0M00
,
0M00
0000
0000
00M0
00M0
0000
0000
0000
0000
0000
0000
0000
0000
0000
0000
0000
0000
0000
0000
0000
0000
0000
0000
0000
0000
0000
0000
0000
0000
0000
0000
0000
;

//--------------- dance-single - HaleyHalcyon ----------------
#NOTES:
     dance-single:
     HaleyHalcyon:
     Challenge:
     11:
     0.550467,0.690076,0.296991,1.325038,0.563522,506,467,39,174,112,20,0.550467,0.690076,0.296991,1.325038,0.563522,506,467,39,174,112,20:
0000
0000
0000
0000
,
0000
0000
0000
0000
,
0000
0000
0000
0000
,
0000
0000
0000
0000
,
1100
0000
0000
0101
0000
0000
1001
0000
1000
0200
0000
0300
0010
0100
1000
0000
,
0011
0000
0000
1010
0000
0000
1001
0000
0001
0200
0000
0300
0020
0000
0000
0030
,
1001
0000
0000
0011
0000
0000
0010
0100
1000
0000
0000
1010
0000
0000
0010
0100
,
0001
0000
0000
0011
0000
0000
0001
0100
0010
1000
0100
0010
0004
0000
0003
0000
,
0022
0000
0000
0000
0133
0000
0000
0000
0001
0010
0100
1000
0010
0100
0001
0000
,
2000
0000
0000
0000
0000
0000
3101
0000
0000
0000
0000
0000
1000
0010
0100
0001
0100
0010
1000
0001
0010
0100
1000
0001
,
2000
0000
0000
0000
3101
0000
0000
0000
0001
0010
0100
0010
0001
0100
0010
0000
,
2000
0000
0000
0000
3011
0000
0000
0000
1001
0000
0011
0000
0110
0000
1000
0001
,
0020
0000
0000
0000
0131
0000
0000
0000
0001
0010
1000
0010
0001
1000
0100
0000
,
0020
0000
0000
0000
0000
0000
0131
0000
0000
0000
0000
0000
1000
0010
1000
0001
0100
0001
0010
0100
1000
0100
0010
0001
,
0020
0000
0000
0000
0131
0000
0000
0000
1000
0010
1000
0100
0001
0100
1000
0000
,
0020
0000
1130
0000
0101
0110
1010
0001
,
1000
0000
0001
0000
0010
0000
1000
0002
0000
0003
1000
0000
0010
0000
0001
0000
,
0100
0010
0100
0001
1000
0010
1010
0001
,
0010
0000
0100
0000
1000
0000
0100
0002
0000
0003
0100
0000
1000
0000
0010
0000
,
0100
0000
0001
0000
1000
0000
0010
1000
0100
0001
0100
0010
0001
0100
0010
1000
,
0M02
0000
00M0
0000
M020
0003
0M00
0000
200M
0030
0M20
3000
000M
0000
M002
0030
,
0M03
1000
0100
1000
0020
0000
0031
0010
,
2M00
0000
000M
0000
02M0
3000
000M
0000
00M2
0300
M200
0003
000M
0000
20M0
0300
,
300M
0001
0010
0100
0110
0000
1001
0000
,
0002
0000
0103
0001
2000
0000
3100
1000
,
0010
0000
0001
0000
0010
0000
2000
0000
0MM2
0000
3003
0001
2MM0
0000
0000
0000
,
3020
0000
0032
0000
0000
0000
2003
0000
3002
0000
0023
0000
2030
0000
0000
3002
,
0000
0023
0430
0320
0030
0001
0002
0000
,
0203
0000
2300
0000
0000
0000
3002
0000
2003
0000
3200
0000
0302
0000
0000
2003
,
0000
0000
3020
0000
0034
0000
0023
0000
0030
0000
2000
0000
3002
0000
0000
0203
,
0000
0000
2300
0000
0000
3002
0000
0000
0023
0000
2030
0000
3002
0000
0000
2003
,
0000
3020
0430
0320
0030
1000
0002
0000
,
0023
2030
3020
0032
,
0203
2300
3200
0301
,
0001
0000
0000
0000
0001
0000
0000
0000
0001
0000
0000
0000
1000
0001
1000
0001
,
0010
0100
1000
0001
0100
0010
0100
0010
1000
0100
0010
0001
2000
0000
0000
0000
,
3011
0000
0000
0000
1000
0100
0010
0100
0001
0100
1000
0000
0002
0000
0000
0000
,
1103
0000
0000
0000
0000
0000
0001
0010
0001
1000
0100
1000
0001
0010
0100
1000
0100
0010
0002
0000
0000
0000
0000
0000
,
1103
0000
0000
0000
1000
0010
0100
0010
0001
0010
1000
0000
2000
0000
0000
0000
,
3101
0000
0000
0000
0001
0010
0200
0300
0001
0100
0020
0030
0002
0000
0000
0000
,
1103
0000
0000
0000
1000
0010
0100
0001
0010
0100
1000
0000
2000
0000
0000
0000
,
3011
0000
0000
0000
0000
0000
0001
0010
0001
0100
0001
0100
0010
1000
0100
0010
0001
0100
0020
0000
0000
0000
0000
0000
,
1130
0000
0000
0000
1000
0010
0100
0010
0001
0010
1000
0000
0200
0000
0000
0000
,
1310
0000
0000
0000
0000
0000
1000
0100
0010
0001
0010
0100
1000
0010
0100
0001
0100
0010
2M0M
0000
0000
0000
0000
0000
,
3200
0302
2003
3002
,
0203
0000
2300
0000
3010
1000
2M0M
0M00
,
3M20
0000
0M32
0000
0M00
0000
2M03
0000
3M02
0000
0M23
0000
2M30
0000
0M00
3002
,
0M00
0M23
4M30
3M20
0030
0001
00M2
00M0
,
02M3
0000
23M0
0000
00M0
0000
30M2
0000
20M3
0000
32M0
0000
03M2
0000
00M0
2003
,
00M0
0000
32M0
0000
03M4
0000
02M3
0000
0300
0000
2000
0000
3020
0000
0000
0032
,
0000
0000
2003
0000
0000
3200
0000
0000
0302
0000
0023
0000
2030
0000
0000
3002
,
0000
0203
4300
3200
0300
2000
3002
0000
,
0023
0230
0302
2003
,
3002
0000
0203
0000
0310
0001
0M02
0M00
,
0M23
0000
2M30
0000
0M00
0000
3M02
0000
2M03
0000
3M20
0000
0M32
0000
0M00
2003
,
0M00
3M20
0M34
0M23
0030
1000
20M0
00M0
,
32M0
0000
03M2
0000
00M0
0000
20M3
0000
30M2
0000
02M3
0000
23M0
0000
00M0
3002
,
00M0
0000
02M3
0000
43M0
0000
32M0
0000
0300
0000
0002
0000
0203
0000
0000
2300
,
0000
0000
3002
0000
0000
0023
0000
0000
2030
0000
3200
0000
0302
0000
0000
2003
,
0000
3020
0034
0023
0030
0020
0032
0000
,
0203
2300
3002
2003
,
3200
0302
0023
0230
,
1310
0000
0000
0000
1000
0010
1000
0010
0100
0001
0010
0000
0200
0000
0000
0000
,
1310
0000
0000
0000
0000
0000
1000
0010
1000
0001
0010
0001
1000
0100
0010
0001
0010
0100
2000
0000
0000
0000
0000
0000
,
3011
0000
0000
0000
1000
0010
0100
0010
0001
1000
0200
0300
0002
0000
0000
0000
,
1103
0000
0000
0000
0001
0010
0200
0300
1000
0010
0200
0300
2002
0000
0000
0000
,
30M3
00M0
00M0
00M0
00M0
00M0
00M0
0000
0000
M000
M000
M000
M000
M000
M000
0000
0000
000M
000M
000M
000M
000M
000M
000M
000M
000M
0000
0000
0M00
0M00
0M00
0M00
,
0M00
0000
0000
00M0
00M0
0000
0000
0000
0000
0000
0000
0000
0000
0000
0000
0000
0000
0000
0000
0000
0000
0000
0000
0000
0000
0000
0000
0000
0000
0000
0000
0000
;
