#TITLE:DESPACITO356;
#SUBTITLE:;
#ARTIST:Luis Fonsi ft. Daddy Yankee;
#TITLETRANSLIT:;
#SUBTITLETRANSLIT:;
#ARTISTTRANSLIT:;
#GENRE:Reggaeton;
#CREDIT:;
#MUSIC:DESPACITO356 [3.9].ogg;
#BANNER:DESPACITO356 [3.9].png;
#BACKGROUND:;
#CDTITLE:cdtitle.png;
#SAMPLESTART:99.186;
#SAMPLELENGTH:12.000;
#SELECTABLE:YES;
#OFFSET:-0.311;
#BPMS:0.000=178.000
,28.000=356.000
,220.000=89.000
,249.875=44.500
,250.000=178.000
,251.000=356.000
,303.000=178.000
,304.000=356.000
,356.000=44.500
,357.000=712.000
,477.000=356.000
,479.000=712.000
,591.000=178.000
,592.000=44.500
,598.500=712.000
,738.500=89.000
,752.500=178.000
;
#STOPS:250.000=0.809
,250.250=0.771
,250.500=0.253
,250.750=0.253
,303.000=0.590
,303.250=0.590
,303.500=0.253
,303.750=0.253
,477.000=0.169
,478.000=0.169
,591.000=0.590
,591.250=0.590
,591.500=0.253
,591.750=0.253
,598.500=0.340
,752.500=0.590
,752.750=0.590
,753.000=0.253
,753.250=0.253
;
#DISPLAYBPM:*;
#ORIGIN:;
#PREVIEWVID:;
#JACKET:DESPACITO356 [3.9]-jacket.png;
#DISCIMAGE:;
#BGCHANGES:;
#FGCHANGES:;

//--------------- dance-single - Haley Halcyon ----------------
#NOTES:
     dance-single:
     Haley Halcyon:
     Challenge:
     17:
     0.692199,2.735131,0.269189,0.545461,0.442744,684,646,38,77,0,0,0,0,0,0.692199,2.735131,0.269189,0.545461,0.442744,684,646,38,77,0,0,0,0,0:
0000
0000
0000
0000
,
0000
0000
0000
0000
0000
0000
0000
0000
0000
0000
0000
0000
0000
0000
0000
0000
0000
0000
0000
0000
0000
0001
1000
0000
,
0000
0000
0000
0000
0000
0000
0000
0100
0000
0000
0000
0000
0000
0000
0001
0000
0000
0000
0000
0000
0010
0000
0000
0000
,
0000
0000
0000
0000
0000
0000
0000
0000
0000
1000
0000
0000
0000
0000
0000
0000
0000
0000
0000
0000
0000
0000
0000
0000
0001
0000
0000
0000
0000
0100
0000
0000
0000
0000
0001
0000
0000
0000
0000
1000
0000
0000
0000
0000
0000
0000
0000
0000
,
0000
0000
0000
0000
0000
0000
0000
0100
0000
0000
0000
0000
0000
0010
0000
0000
0000
0000
0000
0000
0100
0000
0000
0000
0000
0000
0001
0000
0000
0000
0000
0000
0000
0000
0000
0000
0000
0000
0000
0000
0000
0000
0000
0000
0000
0000
0000
0000
,
0000
0000
0000
0000
0000
0000
0000
0000
0000
0000
0000
0000
0000
0000
1000
0100
,
2000
0000
3000
0001
0200
0000
0300
0010
,
0001
0000
1000
0000
0100
0000
0010
0100
,
0010
0001
1000
0010
,
0100
0000
0010
0000
1000
0000
0100
0010
,
0001
0100
1000
0100
,
0001
0000
0010
0000
0100
0000
1000
0010
,
1000
0001
0100
0010
,
0001
0000
1000
0000
0100
0000
0010
0001
,
1000
0010
0001
0010
,
2000
0100
0001
3010
,
1002
0100
0010
1003
,
1000
0100
0001
0100
,
0010
1000
0100
0010
,
1000
0001
0000
1000
0001
0000
0010
0100
,
0010
0000
0001
0000
1000
0000
0001
1000
,
0020
0000
0030
0100
,
0002
0000
0003
0100
,
2000
0000
3000
0000
,
0000
1000
0100
0010
,
0001
0000
0000
0000
0010
0000
0000
0000
1000
0000
0000
0000
,
0100
0000
0000
0000
0010
0000
0000
0000
1000
0000
0000
0000
,
0002
0000
0003
2000
,
0000
3000
0020
0000
,
0000
0000
1030
0100
,
0001
1000
0010
0100
,
0001
1000
0001
0000
,
0010
0100
0010
0000
,
1000
0010
0001
0000
,
0010
0100
0001
2000
,
0000
3001
0010
0000
,
1000
0001
0010
0000
,
0100
0000
1000
0100
0020
0000
0000
0000
,
0030
0000
0000
0000
,
2002
0000
3003
0000
,
0000
0100
0010
1000
,
0100
0000
0000
0000
0001
0000
0000
0000
0010
0000
0000
0000
,
1000
0000
0000
0000
0010
0000
0000
0000
0001
0000
0000
0000
,
0200
0000
0000
0300
0001
0000
0020
0000
,
0000
0030
0100
0000
1000
0001
0000
0000
,
2000
0000
3100
0000
,
0020
0000
0031
0000
,
1000
0010
0001
0000
,
1000
0010
0001
0000
,
0001
0100
1000
0000
,
0001
0100
1000
0002
,
0000
0000
1003
0000
,
0000
0000
0000
0000
0001
0000
0010
0100
,
2000
0000
3000
0100
,
0002
0000
0003
0100
,
2002
0000
0000
0000
0000
0000
0000
0000
0000
0000
0000
0000
3003
0000
0000
0000
0000
0000
0000
0000
0000
0000
0000
0000
1000
0000
0000
0001
0000
0000
1000
0000
0000
0000
0000
0000
0100
0000
0000
0000
0000
0000
0010
0000
0000
0000
0000
0000
1000
0000
0000
0000
0000
0000
0010
0000
0000
0000
0000
0000
0100
0000
0000
0000
0000
0000
0000
0000
0001
0000
0000
0000
0000
0000
0000
0000
0010
0000
0000
0000
0000
0000
0000
0000
0100
0000
0000
0000
0000
0000
0000
0000
0000
0000
0000
0000
,
1001
0000
0000
0000
0000
0000
0000
0000
0000
0000
0000
0000
0000
0000
0000
0000
0000
0000
0000
0000
0000
0000
0000
0000
0001
0000
0000
0000
0000
0000
1000
0000
0000
0010
0000
0000
1000
0000
0000
0000
0000
0000
0100
0000
0000
0000
0000
0000
0001
0000
0000
0000
0000
0000
1000
0000
0000
0000
0000
0000
0010
0000
0000
0000
0000
0000
0000
0000
0001
0000
0000
0000
0000
0000
0000
0000
0101
0000
0000
0000
0000
0000
0000
0000
1000
0000
0000
0000
0000
0000
0000
0000
0000
0000
0000
0000
,
2002
0000
0000
0000
3003
0000
0000
0000
0100
0000
0010
0000
0001
0000
0100
0000
0010
0000
0001
0000
1000
0100
0000
0000
0001
0000
1000
0100
0000
0000
0002
0000
,
0003
0000
0002
2000
0000
0000
0000
0000
0000
0000
3003
0000
1000
0000
0100
0000
0001
0000
0000
0000
1010
0000
0100
0000
0011
0000
0000
0000
1000
0000
0100
0000
,
2002
0000
3003
0000
0001
0100
1000
0010
0100
0001
0010
1000
0000
0010
0001
0000
,
2002
0000
3003
0000
1000
0100
0010
0100
0001
0010
0100
0010
0001
0000
0010
2000
,
0002
0000
3003
0000
0010
0100
0010
0100
0001
1000
0001
0010
0100
0000
0010
2000
,
3000
0000
0002
0000
0000
0000
0000
0000
0000
0000
0000
0000
0003
0000
0000
0000
2000
3000
0200
0300
0020
0030
0002
0003
1000
0000
0000
0000
0010
0000
0000
0000
,
0100
0000
0100
1000
0010
0000
0010
0001
,
1000
0000
0100
1000
0001
0000
1001
0000
,
0000
0011
2200
3300
,
1001
0000
0000
0000
0000
0000
0001
0010
,
0100
0000
1000
0001
0100
0000
0100
1000
,
0001
0000
0010
0100
1000
0000
1001
0000
,
0000
1010
0202
0303
,
1001
0000
0000
0000
0000
0000
1000
0010
,
1000
0000
0010
0001
1000
0000
0100
0010
,
1000
0000
0100
1000
0001
0000
1001
0000
,
0000
0101
2020
3030
,
1001
0110
1000
0001
,
1000
0000
0000
0000
0000
0000
0000
0000
0110
0000
0000
0000
0000
0000
0000
0000
1000
0000
0000
0000
0000
0000
0000
0000
0002
0003
0200
0300
0020
0030
2000
3000
,
0001
1000
0010
0000
0001
1000
0100
0000
,
1000
0001
0010
0000
0001
1000
0010
0000
,
1001
0000
0011
2200
,
3300
1001
0000
0000
,
0001
0100
0010
0000
0100
0010
0001
0000
,
0100
0010
1000
0000
0010
1000
0100
0000
,
1001
0000
1100
0022
,
0033
1001
0000
0000
,
0001
0010
0100
0000
0001
1000
0010
0000
,
0100
0010
1000
0000
0001
0010
1000
0000
,
1001
0101
0000
2020
,
3030
2001
0010
0100
,
0010
0100
0010
0100
,
3001
0010
1000
0000
0100
0000
0001
0000
,
0000
1000
0010
0001
,
0000
1000
0010
0100
,
0001
0010
0000
0001
,
0010
1000
0000
0001
,
0100
1000
0000
0001
,
0000
0001
0010
0100
,
1000
0001
0000
0000
,
1000
0010
0100
0000
,
1000
0001
0000
0011
,
0000
0000
0000
1000
,
0000
1100
0000
0000
,
0000
0001
0000
1000
,
0010
0001
0000
2000
,
0000
3000
0000
0001
,
0000
0010
0000
1000
,
0100
1000
0000
0001
,
0000
1000
0000
0011
,
0000
0000
0000
0001
,
0000
1100
0000
0000
,
0000
1000
0100
1000
,
0010
0100
0000
0001
,
0000
0000
0000
0100
,
0010
0100
1000
0002
,
0000
0003
0000
2000
,
0000
3000
0000
0001
,
0000
1000
0010
0100
,
0001
1000
0000
1010
,
0000
0001
0010
0100
,
1000
0001
0000
0011
,
0000
1001
0110
1000
,
0000
0100
0000
0001
,
0000
1000
0000
0010
,
0000
0100
0000
0002
,
0000
0000
0000
0003
,
0000
0000
0000
0100
0000
0000
0000
0000
0000
0000
0000
1000
,
0000
0000
0000
0000
0000
0000
0000
0001
0000
0000
0000
0000
,
0000
0000
0000
0010
0000
0000
0000
0000
0000
0000
0000
0100
,
0000
0000
0000
0000
0000
0000
0000
0000
0000
0000
0000
0001
0000
0000
0000
0000
,
0000
0000
0000
0000
0000
1000
0000
0000
0000
0001
0000
0000
,
0010
0001
0000
1000
,
0000
0001
0100
0001
,
0000
1000
0000
0001
,
0010
0100
0010
1000
,
0000
0001
0000
0100
,
0000
0000
0010
0000
,
0000
0001
1000
0001
,
0000
1000
0000
0100
,
0010
0001
0000
0100
,
0000
0010
1000
0100
,
0000
0010
0000
0100
,
0000
0001
1000
0100
,
0000
0010
0000
0000
,
0000
1000
0000
0100
,
0000
0020
0000
0030
,
0000
0001
0000
2000
,
0000
0000
0000
3000
,
0000
0000
0000
1001
,
0000
0000
0000
0000
0000
0000
0000
0000
0000
0000
0000
0000
0000
0000
0000
0000
0000
0000
0000
0000
0000
0000
0000
0000
2000
3000
0020
0030
0200
0300
0002
0003
,
1000
0000
0000
0000
0000
0000
0100
0000
0000
0000
0000
0000
1000
0000
0000
0000
0000
0000
0100
0000
0000
0000
0000
0000
0010
0000
0000
0000
0000
0000
0100
0000
0000
0000
0000
0000
0010
0000
0000
0000
0000
0000
0001
0000
0000
0000
0000
0000
0100
0000
0000
0000
0000
0000
0000
0000
0000
0000
0000
0000
1000
0000
0000
0000
0000
0000
0001
0000
0000
0000
0000
0000
0000
0000
0000
0000
0000
0000
1000
0000
0000
0000
0000
0000
0000
0000
0000
0000
0000
0000
0000
0000
0000
0000
0000
0000
0001
0000
0000
0000
0000
0000
0100
0000
0000
0000
0000
0000
0001
0000
0000
0000
0000
0000
0010
0000
0000
0000
0000
0000
0100
0000
0000
0000
0000
0000
0010
0000
0000
0000
0000
0000
0100
0000
0000
0000
0000
0000
1000
0000
0000
0000
0000
0000
0000
0000
0000
0000
0010
0000
0000
0000
0000
0000
0000
0000
0101
0000
0000
0000
0000
0000
0000
0000
0000
1000
0000
0000
0000
0000
0000
0000
0000
0000
0000
0001
0000
0000
0000
0000
0000
0000
0000
0000
0000
0000
0000
0000
0000
0000
0000
0000
,
1000
0010
1000
0100
0010
0001
0100
0010
0001
1000
0000
0100
0000
0020
0000
0000
0000
0000
0000
0030
0002
0000
0000
0000
0003
0000
0000
0000
0000
0000
0000
0000
,
0000
1000
0000
0000
0000
0100
0000
0010
,
0000
0100
0000
0000
0000
0001
0000
0000
,
0000
1000
0000
0000
0000
0100
0000
0010
,
0000
0100
0000
1000
0000
0001
0000
0000
,
0000
0000
0000
0000
0000
1000
0000
0010
,
0000
0001
0000
0000
0000
0001
0000
0100
,
0000
1000
0000
0000
0000
0001
0000
0010
,
0000
0100
0000
0010
0000
0001
0000
0000
,
0000
0000
0000
0000
0000
1000
0000
0100
,
0000
0010
0000
0000
0000
0001
0000
0100
,
0000
0010
0000
0000
0000
0100
0000
1000
,
0000
0010
0000
1000
0000
0100
0000
0000
,
0000
1000
0000
0000
0000
0010
0000
0100
,
0000
0001
0000
0100
0000
0010
0000
0000
,
0000
0010
0000
0000
0000
1000
0000
0000
,
0000
0100
0000
0001
0000
0010
0000
0000
,
0000
0001
0000
0000
0000
0000
0000
0000
,
0000
1000
0000
0000
0000
0100
0000
0000
,
0000
0001
0000
0010
0000
1000
0000
0000
,
0000
0001
0000
0000
0000
0001
0000
0100
,
0000
0010
0000
0000
0000
0001
0000
0000
,
0000
0010
0000
1000
0000
0100
0000
0000
,
0000
0001
0000
0000
0000
0100
0000
0000
,
0000
0001
0000
0000
0000
0010
0000
0000
,
0000
0100
0000
0000
0000
0000
0000
0000
,
0000
0010
0000
0000
0000
1000
0000
0000
,
0000
0100
0000
0001
0000
0010
0000
0000
,
0000
0100
0000
0000
0000
0000
0000
0000
,
0000
0001
0000
0000
0000
1000
0000
0100
,
0000
0010
0000
0100
0000
0001
0000
0000
,
0000
1000
0000
0000
0000
0100
0000
0010
,
0000
0001
0000
0100
0000
1000
0000
0000
,
0000
0001
0000
0000
0000
2000
0000
0000
,
0000
3000
0000
0000
0000
0001
0000
0000
,
0000
0000
0010
0000
0000
0000
0000
0000
0000
0000
0100
0000
0001
0000
1000
0100
,
0010
0100
1000
0000
0001
0000
0001
0100
0010
0100
0001
0000
1000
0001
0010
0000
,
0100
0000
0000
1000
0000
0000
0001
0000
0000
0100
0000
0000
0010
0000
0000
0001
0000
0000
0010
0000
0000
0000
1000
0000
0000
0000
0000
0000
0010
0000
0000
0000
0000
0001
0000
0000
1000
0000
0000
0100
0000
0000
0001
0000
0000
1000
0000
0000
,
0100
0000
0001
0000
0010
0000
1000
0100
1000
0000
0001
0000
1000
0000
0010
0000
0100
0000
2000
0000
0000
0000
3002
0000
0000
0000
1000
0000
0010
0000
0100
0000
,
1003
0000
0000
0000
0002
0003
0020
0030
2000
3000
0200
0300
0000
0000
0000
0000
0000
0000
0000
0000
0000
0000
0000
0000
0000
0000
0000
0000
0000
0000
0000
0000
;
