#VERSION:0.83;
#TITLE:DANCE;
#SUBTITLE:This file is also available in HD! See Z-I-v;
#ARTIST:CLMD & Tungevaag;
#TITLETRANSLIT:;
#SUBTITLETRANSLIT:;
#ARTISTTRANSLIT:;
#GENRE:Dance;
#CREDIT:;
#MUSIC:DANCE.wav;
#BANNER:DANCE.png;
#BACKGROUND:DANCE-bg.png;
#CDTITLE:;
#SAMPLESTART:86.840;
#SAMPLELENGTH:11.803;
#SELECTABLE:YES;
#OFFSET:-0.283;
#BPMS:0.000=122.000;
#STOPS:;
#SPEEDS:0.000=1.000=0.000=0;
#SCROLLS:0.000=1.000;
#TICKCOUNTS:0.000=4;
#TIMESIGNATURES:0.000=4=4;
#LABELS:0.000=Song Start;
#COMBOS:0.000=1;
#ORIGIN:;
#PREVIEWVID:;
#JACKET:DANCE-jacket.jpg;
#CDIMAGE:;
#DISCIMAGE:;
#BGCHANGES:-8.000=DANCE-bg.png=1.000=0=0=1===CrossFade_Fastest=#000000=,
1.424=DANCE.avi=1.000=0=0=0=StretchNoLoop====,
254.000=DANCE-bg.png=1.000=0=0=1===CrossFade_Fastest=#000000=,
99999.000=-nosongbg-=1.000=0=0=0=StretchNoLoop====
;
#FGCHANGES:;

//--------------- dance-single - Haley Halcyon ----------------
#NOTEDATA:;
#STEPSTYPE:dance-single;
#DESCRIPTION:Haley Halcyon;
#DIFFICULTY:Beginner;
#METER:1;
#RADARVALUES:0,0,0,0,0;
#CREDIT:Haley Halcyon;
#NOTES:
0000
0000
0000
0000
,
0000
0000
0000
0000
,
0000
0000
0000
0000
,
0000
0000
0000
0000
,
0000
0000
0000
0000
,
1000
0000
0000
0000
,
1000
0000
0000
0000
,
0001
0000
0000
0000
,
0001
0000
0000
0000
,
1000
0000
0000
0000
,
1000
0000
0000
0000
,
0010
0000
0000
0000
,
0000
0000
0000
0000
,
1000
0000
0000
0000
,
0001
0000
0000
0000
,
0010
0000
0000
0000
,
0010
0000
0000
0000
,
0001
0000
0000
0000
,
1000
0000
0000
0000
,
0010
0000
0000
0000
,
0010
0000
0000
0000
,
1000
0000
0000
0000
,
0001
0000
0000
0000
,
0001
0000
0000
0000
,
1000
0000
0000
0000
,
1000
0000
0000
0000
,
0100
0000
0000
0000
,
0010
0000
0000
0000
,
0001
0000
0000
0000
,
1000
0000
0000
0000
,
0000
0000
0000
0000
,
0001
0000
0000
0000
,
0000
0000
0000
0000
,
0010
0000
0000
0000
,
0100
0000
0000
0000
,
1000
0000
0000
0000
,
0001
0000
0000
0000
,
0000
0000
0000
0000
,
1001
0000
0000
0000
,
0000
0000
0000
0000
,
0110
0000
0000
0000
,
0000
0000
0000
0000
,
1001
0000
0000
0000
,
0000
0000
0000
0000
,
0110
0000
0000
0000
,
0000
0000
0000
0000
,
1000
0000
0000
0000
,
0010
0000
0000
0000
,
1000
0000
0000
0000
,
0010
0000
0000
0000
,
0100
0000
0000
0000
,
0001
0000
0000
0000
,
0100
0000
0000
0000
,
0001
0000
0000
0000
,
1000
0000
0000
0000
,
1000
0000
0000
0000
,
0001
0000
0000
0000
,
0001
0000
0000
0000
,
0010
0000
0000
0000
,
0010
0000
0000
0000
,
0100
0000
0000
0000
,
0100
0000
1000
0000
;

//--------------- dance-single - Haley Halcyon ----------------
#NOTEDATA:;
#STEPSTYPE:dance-single;
#DESCRIPTION:Haley Halcyon;
#DIFFICULTY:Easy;
#METER:2;
#RADARVALUES:0,0,0,0,0;
#CREDIT:Haley Halcyon;
#NOTES:
0000
0000
0000
0000
,
0000
0000
0000
0000
,
0000
0000
0000
0000
,
0000
0000
0000
0000
,
0000
0000
0000
0000
,
1000
0000
0001
0000
,
1000
0000
0000
0000
,
0001
0000
0100
0000
,
0001
0000
0000
0000
,
1000
0000
0010
0000
,
1000
0000
0000
0000
,
0002
0000
0000
0000
,
0003
0000
0000
0000
,
1000
0000
1000
0000
,
0001
0000
0000
0000
,
0001
0000
0001
0000
,
1000
0000
0000
0000
,
1000
0000
1000
0000
,
0010
0000
0000
0000
,
0010
0000
0010
0000
,
0100
0000
0001
0000
,
1001
0000
1000
0000
,
0100
0000
0010
0000
,
0001
0000
0001
0000
,
0010
0000
0100
0000
,
1001
0000
1000
0000
,
0010
0000
0100
0000
,
0001
0000
0100
0000
,
0010
0000
1000
0000
,
0001
0000
0000
0000
,
0001
0000
0000
0000
,
0010
0000
0001
0000
,
0010
0000
0000
0000
,
0100
0000
0010
0000
,
0100
0000
0000
0000
,
1000
0000
2000
0000
,
3001
0000
0002
0000
,
1003
0000
0000
0000
,
1100
0000
0000
0000
,
0000
0000
1001
0000
,
0011
0000
0000
0000
,
0110
0000
1100
0000
,
1001
0000
0000
0000
,
0000
0000
0101
0000
,
0110
0000
0000
0000
,
0020
0000
2030
0000
,
3001
0000
0010
0000
,
1000
0000
0010
0000
,
0001
0000
0010
0000
,
1000
0000
0010
0000
,
0001
0000
0100
0000
,
1000
0000
0100
0000
,
0001
0000
0100
0000
,
0200
0000
0320
0000
,
1030
0000
0001
0000
,
0010
0000
0010
0000
,
0001
0000
1000
0000
,
0010
0000
0010
0000
,
1000
0000
0100
0000
,
0010
0000
0010
0000
,
0001
0000
0100
0000
,
0010
0000
1000
0001
;

//--------------- dance-single - Haley Halcyon ----------------
#NOTEDATA:;
#STEPSTYPE:dance-single;
#DESCRIPTION:Haley Halcyon;
#DIFFICULTY:Medium;
#METER:3;
#RADARVALUES:0,0,0,0,0;
#CREDIT:Haley Halcyon;
#NOTES:
0000
0000
0000
0000
,
0000
0000
0000
0000
,
0000
0000
0000
0000
,
0000
0000
0000
0000
,
0000
0000
0000
0000
,
1000
0000
1000
0000
,
0001
0000
0001
0000
,
0010
0000
0100
0000
,
0010
0000
0010
0000
,
0001
0000
1000
0000
,
0001
0000
1000
0000
,
0020
0000
0030
0000
,
1000
0000
0001
0000
,
1100
0000
1001
0000
,
0101
0000
1001
0000
,
1010
0000
1001
0000
,
0011
0000
1001
0000
,
0001
0000
0010
0000
,
1000
0000
0100
0000
,
0001
0000
1000
0000
,
0002
0000
2000
3003
,
1001
0000
1000
0000
,
0100
0000
0010
0000
,
0001
0000
0100
0000
,
0010
0000
1000
0000
,
1001
0000
0010
0000
,
0100
0000
1000
0000
,
0010
0000
0100
0000
,
0001
0000
1000
0001
,
2000
0000
0000
0000
,
3200
0000
0000
0000
,
0320
0000
0032
0000
,
0203
0000
0000
0000
,
0320
0000
2030
0000
,
3200
0000
0000
0000
,
1300
0000
2000
0000
,
3001
0000
0002
0000
,
0003
0000
0000
0000
,
1000
0100
0010
0000
,
0000
0000
0010
0000
,
0001
0100
0010
0000
,
0010
0000
1000
0000
,
0001
1000
0100
0000
,
0100
0010
0001
0000
,
1000
0001
0100
0000
,
0020
0000
0200
0330
,
1001
0000
1000
0000
,
0100
0000
0010
0000
,
0001
0000
0100
0000
,
0010
0000
1000
0000
,
1001
0000
0010
0000
,
0100
0000
1000
0000
,
0010
0000
0100
0000
,
0001
0000
1000
0001
,
1001
0000
1010
0000
,
0110
0000
0101
0000
,
1001
0000
0011
0000
,
0110
0000
1100
0000
,
1000
0100
1000
0000
,
0001
0100
0001
0000
,
1000
0010
1000
0000
,
0001
0000
0010
0001
;

//--------------- dance-single - Haley Halcyon ----------------
#NOTEDATA:;
#STEPSTYPE:dance-single;
#DESCRIPTION:Haley Halcyon;
#DIFFICULTY:Hard;
#METER:8;
#RADARVALUES:0,0,0,0,0;
#CREDIT:Haley Halcyon;
#NOTES:
0000
0000
0000
0000
,
0000
0000
0000
0000
,
0000
0000
0000
0000
,
0000
0000
0000
0000
,
0000
0000
0000
0000
,
1000
0000
0100
0000
1000
0000
0010
0000
0100
0000
0000
0100
0000
0000
0100
0000
,
0000
0000
0000
0000
0100
0000
0001
0000
1000
0000
0000
1000
0000
0000
1000
0000
,
0000
0000
0000
0000
1000
0000
0100
0000
0010
0000
0000
0010
0000
0000
0010
0000
,
0000
0000
0001
0000
0100
0000
0010
0000
1000
0000
0000
1000
0000
0000
1000
0000
,
0000
0000
0000
0000
0001
0000
1000
0000
0010
0000
0000
0100
0000
0000
0010
0000
,
0000
0000
0000
0000
1000
0000
0001
0000
0010
0000
0000
0100
0000
0000
0020
0000
,
0000
0000
0000
0000
0030
0000
0000
0010
,
0001
0000
0000
0001
0010
0000
0000
0010
0200
0000
0000
0000
1300
0000
0001
0000
,
1000
0000
1000
0100
0010
0000
0010
0100
,
1000
0000
0001
0000
0010
0000
0000
0010
0001
0000
0000
0000
0001
0000
0100
0000
,
0010
0000
0010
0100
0001
0000
0000
0001
,
0100
0010
1000
0010
0100
0001
1000
0100
,
1000
0000
0001
0100
0010
0000
0100
0010
,
1000
0000
0100
0000
0010
0000
0000
0010
0001
0000
0000
0000
1000
0000
0010
0000
,
0100
0000
0010
1000
0001
0000
0000
0000
,
1000
0000
0000
1000
0100
0000
0000
0100
0010
0000
0000
0010
0001
0000
1000
0000
,
0001
0000
1100
0000
1000
0100
0010
0100
,
1000
0000
1010
0000
0010
0100
0001
1000
,
0100
0000
0011
0000
0010
0100
1000
0001
,
1000
0000
0000
1000
0010
0000
0000
0010
0200
0000
0000
0000
0301
0000
1000
0000
,
0001
0000
0000
0000
0011
0000
0000
0010
0100
0000
1000
0000
0001
0000
0100
0000
,
0001
0000
0000
0000
1100
0000
0000
0100
0010
0000
0001
0000
0100
0000
0020
0000
,
0030
1000
0200
0300
0001
0100
1000
0020
,
0030
0100
0110
0000
2000
0000
3002
0000
,
0003
0000
0000
0000
,
0001
0000
0000
0000
,
1000
0100
0001
0010
,
2000
0000
3000
0000
,
0001
0100
0010
1000
,
0002
0000
0000
0000
0003
0000
0000
0001
,
1000
0000
0100
0000
0010
0000
0000
0010
0000
0000
0000
0000
0001
0000
0000
0000
,
0001
0000
0100
0000
0010
0000
0000
0010
0000
0000
0000
0000
2000
0000
0002
0000
,
0000
3003
0000
0000
,
1000
0100
0110
0010
,
0100
0000
0010
0000
0001
1000
0001
1000
,
0001
0100
0110
0010
,
0100
0000
0010
0000
0100
0010
1000
0001
,
1000
0100
1000
0000
0001
0100
0001
0010
,
0000
0010
0001
0000
1000
0100
1000
0000
,
0001
0100
0001
0100
0010
0100
0010
0100
,
0010
0000
0000
0010
1000
0000
0000
1000
0200
0000
0000
0000
0310
0000
0100
0000
,
1000
0000
1000
0010
0100
0000
0100
0010
,
1000
0000
0001
0000
0100
0000
0000
0100
0001
0000
0000
0000
0001
0000
0010
0000
,
0100
0000
0100
1000
0010
0000
0000
0010
,
0100
0001
0010
0100
1000
0001
0100
0010
,
1000
0000
0001
0010
0100
0000
0010
0100
,
1000
0000
0010
0000
0100
0000
0000
0100
0001
0000
0000
0000
1000
0000
0100
0000
,
0010
0000
0001
0100
0010
0000
1100
0000
,
1000
0000
0000
1000
0010
0000
0000
0010
0100
0000
0001
0000
1000
0000
0100
0000
,
0010
0000
0101
0000
1000
0010
0100
0010
,
1000
0000
1100
0000
0100
0010
0001
1000
,
0010
0000
0101
0000
0100
0010
1000
0001
,
1000
0000
0000
1000
0100
0000
0000
0100
0020
0000
0000
0000
0031
0000
1000
0000
,
0001
0000
0000
0000
0101
0000
0000
0100
0010
0000
1000
0000
0001
0000
0010
0000
,
0001
0000
0000
0000
1010
0000
0000
0010
0100
0000
0001
0000
0010
0000
0200
0000
,
0300
1000
0020
0030
0001
0010
1000
0200
,
0300
0010
0110
0000
2000
0000
3002
0000
,
0003
0000
0000
0000
;

//--------------- dance-single - Haley Halcyon ----------------
#NOTEDATA:;
#STEPSTYPE:dance-single;
#DESCRIPTION:Haley Halcyon;
#DIFFICULTY:Challenge;
#METER:12;
#RADARVALUES:0,0,0,0,0;
#CREDIT:Haley Halcyon;
#NOTES:
0000
0000
0000
0000
,
0000
0000
0000
0000
,
0000
0000
0000
0000
,
0000
0000
0000
0000
,
0000
0000
0000
0000
,
1000
0000
0001
0000
0100
0000
0001
0000
0010
0000
0000
0100
0000
0000
2000
0000
,
0000
0000
0000
0000
3010
0000
0100
0000
0002
0000
0000
0023
0000
0000
0230
0000
,
0000
0000
0000
0000
1300
0000
0010
0000
0200
0000
0000
0302
0000
0000
0023
0000
,
0000
0000
0130
0000
1000
0000
0010
0000
0002
0000
0000
0023
0000
0000
2030
0000
,
0000
0000
3000
0000
1000
0000
0100
0000
0020
0000
0000
0230
0000
0000
2300
0000
,
0000
0000
3000
0000
0010
0000
0100
0000
0002
0000
0000
2003
0000
0000
3200
0000
,
0000
0000
0010
0000
0000
0000
0301
1000
,
0200
0000
0000
0310
0200
0000
0000
1300
0010
0200
0000
0000
0301
0000
1000
0000
,
0001
0000
0101
0000
0001
0000
2000
0001
0000
0000
3100
0000
1000
0000
0010
0000
,
1000
0000
1001
0000
0001
0000
0020
0001
0000
0000
0130
0000
1000
0000
0010
0000
,
1000
0000
1001
0000
0001
0000
0200
0010
0000
0000
0301
0000
0000
0000
0001
0000
,
1000
0100
0001
0100
1000
0010
0100
0100
,
0001
0000
1000
0000
0100
0000
0010
1000
0010
0000
0100
0000
1000
0000
0001
0000
,
1000
0000
0010
0000
0100
0000
0010
0001
0010
0000
0100
0000
0001
0000
1000
0000
,
0100
1000
0100
0000
0010
0100
0010
0000
0001
0010
0001
0000
1000
0001
1000
0000
,
0020
0000
0000
0130
0020
0000
0000
1030
0100
0020
0000
0000
0031
0000
1000
0000
,
0001
0100
0010
0100
0001
1000
0100
0001
,
0100
1000
0001
0100
0010
0100
1000
0100
,
0001
1000
0100
0010
0100
1000
0010
0001
,
0020
0000
0000
0130
0020
0000
0000
1030
0100
0020
0000
0000
0031
0000
0001
0000
,
1000
0100
0010
0100
1000
0001
0100
1000
,
0100
0001
1000
0100
0010
0001
0100
2000
,
3000
0100
0020
0030
1000
0100
0010
2000
,
3000
0000
0010
0000
0001
0000
0000
0001
2000
0000
0000
0000
0002
0000
0000
0000
,
3003
0000
0000
0000
,
1100
0000
0000
0000
,
0100
0001
0100
1000
,
0001
0000
0000
0000
,
0100
1000
0100
0001
,
1000
0000
0000
0000
0000
0000
0000
0001
,
1000
0000
0100
0000
0010
0000
0000
0020
0000
0000
0000
0000
0031
0000
1000
0000
,
0001
0000
0100
0000
0010
0000
0000
0020
0000
0000
0000
0000
2030
0000
0002
0000
,
0000
3003
0000
0000
,
1100
0100
1000
0100
1000
0100
1000
0100
,
1000
0100
1000
0100
1001
0001
1000
0001
,
0011
0010
0001
0010
0001
0010
0001
0010
,
0110
0100
0010
0100
1100
1000
0100
0010
,
0011
0000
0002
0000
0203
0000
0310
1000
,
0000
1000
0020
0000
0130
0001
1000
0001
,
0010
0001
0010
0000
0100
0010
0100
0000
1000
0100
1000
0000
0001
1000
0001
0000
,
0200
0000
0000
0310
0200
0000
0000
0301
0010
0200
0000
0000
1300
0000
0001
0000
,
1000
0000
0010
0000
0100
0000
0010
0100
1000
0000
0001
0000
0010
0000
0100
0000
,
0001
0000
1000
0000
0100
0000
0001
1000
0010
0000
0100
0000
1000
0000
0001
0000
,
1000
0000
0100
0000
0001
0000
0100
0010
1000
0000
0010
0000
0100
0000
1000
0000
,
0010
0100
1000
0100
0010
1000
0001
0001
,
1000
0000
0010
0000
0100
0000
0010
0100
1000
0000
0001
0000
0010
0000
0100
0000
,
0001
0000
1000
0000
0100
0000
0001
1000
0010
0000
0100
0000
1000
0000
0001
0000
,
1000
0000
0100
0000
0001
0000
0100
0010
1000
0000
0010
0000
0100
0000
1000
0000
,
0020
0000
0000
0130
0020
0000
0000
1030
0100
0020
0000
0000
0031
0000
0001
0000
,
1000
0100
0010
0100
1000
0001
0100
1000
,
0100
0001
1000
0100
0010
0100
0001
0100
,
1000
0001
0100
0010
0100
0001
0010
1000
,
0020
0000
0000
0130
0020
0000
0000
0031
0100
0020
0000
0000
1030
0000
1000
0000
,
0001
0100
0010
0100
0001
1000
0100
0001
,
0100
1000
0001
0100
0010
1000
0100
0002
,
0003
0100
0020
0030
0001
0100
0010
0002
,
0003
0010
1010
0000
0002
0000
2000
0000
,
3003
0000
0000
0000
;

//--------------- dance-single - ----------------
#NOTEDATA:;
#STEPSTYPE:dance-single;
#DESCRIPTION:;
#DIFFICULTY:Edit;
#METER:6;
#RADARVALUES:0.315237,0.427299,0.76887,0,0,287,187,100,0,0,0,0,0,0,0.315237,0.427299,0.76887,0,0,287,187,100,0,0,0,0,0,0;
#CHARTNAME:;
#CHARTSTYLE:;
#CREDIT:Lyric Video;
#NOTES:
0000
0000
0000
0000
,
0000
0000
0000
0000
,
0000
0000
0000
0000
,
0000
0000
0000
0000
,
0000
0000
0000
0000
,
0001
0000
1000
0000
,
0010
0000
0100
0000
,
0001
0000
1000
0000
,
0010
0000
0100
0100
,
0100
1000
0001
0000
,
0110
0000
0001
1000
,
0100
0000
0000
0000
,
1001
0110
0001
1000
,
0101
1000
0010
1000
,
0010
1000
0101
1000
,
0010
0000
0100
0010
0001
0000
0000
0000
,
0010
1000
1001
0000
,
0101
1000
0010
1000
,
0010
1000
0101
1000
,
0010
0000
0100
0010
0001
0000
0000
0000
,
0010
1000
1001
0110
,
1000
1001
1100
1010
,
0101
0011
1001
0110
,
1010
0011
0101
1001
,
0011
1100
1001
0011
,
1000
1001
1100
1010
,
0101
0011
1001
0110
,
0001
1000
0010
0100
,
1001
1000
0110
1001
,
0000
0000
0000
0000
,
0010
0000
0000
0000
,
1000
0000
0000
0000
,
0001
0000
0000
0000
,
0100
0000
0000
0000
,
1001
0000
0000
0000
,
0110
0000
0000
0000
,
1001
0000
0000
0000
,
0110
0000
0000
0000
,
1010
0110
1001
0100
,
0100
0100
0100
0100
,
1010
0110
1001
0001
,
0001
0001
0001
0001
,
1010
0110
1001
1000
,
1000
1000
1000
1000
,
0001
0010
0100
1000
,
0010
1000
1001
0110
,
1000
1001
1100
1010
,
0101
0011
1001
0110
,
1010
0011
0101
1001
,
0011
1100
1001
0011
,
1000
1001
1100
1010
,
0101
0011
1001
0110
,
0001
1000
0010
0100
,
1001
1000
0110
1001
,
1000
1001
1100
1010
,
0101
0011
1001
0110
,
1010
0011
0101
1001
,
0011
1100
1001
0011
,
1000
1001
1100
1010
,
0101
0011
1001
0110
,
0001
1000
0010
0100
,
1001
1000
0110
1001
;
