#VERSION:0.83;
#TITLE:Built to Scale;
#SUBTITLE:;
#ARTIST:Tsunku;
#TITLETRANSLIT:;
#SUBTITLETRANSLIT:;
#ARTISTTRANSLIT:;
#GENRE:;
#ORIGIN:;
#CREDIT:;
#BANNER:Built to Scale.png;
#BACKGROUND:;
#PREVIEWVID:;
#JACKET:;
#CDIMAGE:;
#DISCIMAGE:Built to Scale (English).png;
#LYRICSPATH:;
#CDTITLE:;
#MUSIC:Built to Scale.ogg;
#OFFSET:-1.095000;
#SAMPLESTART:1.118000;
#SAMPLELENGTH:4.898000;
#SELECTABLE:YES;
#BPMS:0.000=98.000,
80.000=132.000;
#STOPS:;
#DELAYS:;
#WARPS:;
#TIMESIGNATURES:0.000=4=4;
#TICKCOUNTS:0.000=4;
#COMBOS:0.000=1;
#SPEEDS:0.000=1.000=0.000=0;
#SCROLLS:0.000=1.000;
#FAKES:;
#LABELS:0.000=Song Start;
#BGCHANGES:-2.000=BTS DS HQ.mp4=1.000=0=0=0=StretchNoLoop====,
99999=-nosongbg-=1.000=0=0=0 // don't automatically add -songbackground-
;
#KEYSOUNDS:;
#ATTACKS:
;

//---------------dance-single - Haley Halcyon----------------
#NOTEDATA:;
#CHARTNAME:;
#STEPSTYPE:dance-single;
#DESCRIPTION:Haley Halcyon;
#CHARTSTYLE:;
#DIFFICULTY:Beginner;
#METER:1;
#RADARVALUES:0.043111,0.068447,0.000000,0.000000,0.014602,31.000000,31.000000,0.000000,0.000000,0.000000,0.000000,0.000000,0.000000,0.000000,0.043111,0.068447,0.000000,0.000000,0.014602,31.000000,31.000000,0.000000,0.000000,0.000000,0.000000,0.000000,0.000000,0.000000;
#CREDIT:;
#OFFSET:-1.095000;
#BPMS:0.000000=98.000000
,80.000000=132.000000
;
#STOPS:;
#DELAYS:;
#WARPS:;
#TIMESIGNATURES:0.000000=4=4
;
#TICKCOUNTS:0.000000=4
;
#COMBOS:0.000000=1
;
#SPEEDS:0.000000=1.000000=0.000000=0
;
#SCROLLS:0.000000=1.000000
;
#FAKES:;
#LABELS:0.000000=Song Start
;
#ATTACKS:TIME=8.457269:LEN=1.836736:MODS=Dark:TIME=13.355228:LEN=2.448979:MODS=Dark:TIME=18.253185:LEN=1.836735:MODS=Dark:TIME=23.151146:LEN=1.836735:MODS=Dark:TIME=25.447063:LEN=1.224489:MODS=Dark:TIME=28.049105:LEN=1.836735:MODS=Dark:TIME=32.947067:LEN=2.448978:MODS=Dark:TIME=37.845028:LEN=1.836735:MODS=Dark:TIME=42.742985:LEN=1.836735:MODS=Dark:TIME=45.038902:LEN=1.224491:MODS=Dark:TIME=52.135380:LEN=1.363636:MODS=Dark:TIME=53.953560:LEN=1.363636:MODS=Dark:TIME=55.771740:LEN=1.363640:MODS=Dark:TIME=57.362652:LEN=1.363636:MODS=Dark:TIME=59.408108:LEN=1.363632:MODS=Dark:TIME=61.226288:LEN=1.363636:MODS=Dark:TIME=63.044468:LEN=1.363636:MODS=Dark:TIME=64.635376:LEN=0.909088:MODS=Dark:TIME=66.453560:LEN=1.363632:MODS=Dark:TIME=70.089920:LEN=1.818184:MODS=Overhead, Starlight-note:TIME=73.726280:LEN=1.363640:MODS=Overhead, Starlight-note:TIME=77.362648:LEN=1.363632:MODS=Overhead, Starlight-note:TIME=79.067192:LEN=0.909088:MODS=Overhead, Starlight-note:TIME=82.362648:LEN=16.590912:MODS=*100 Hidden, *100 Dark, *100 75% Stealth:TIME=1.110330:LEN=97.843231:MODS=*100 c125;
#NOTES:
// measure 0
0000
0000
0000
0000
,  // measure 1
0000
0000
0000
0000
,  // measure 2
0000
0000
0000
0000
,  // measure 3
0000
0000
0000
0001
,  // measure 4
0000
0000
0000
0000
,  // measure 5
0000
0000
0000
0000
,  // measure 6
1000
0000
0000
0000
,  // measure 7
0000
0000
0000
0100
,  // measure 8
0000
0000
0000
0000
,  // measure 9
0000
0000
0000
0010
,  // measure 10
0000
0000
0000
0000
0000
0000
0000
0001
0000
0000
0000
0000
0000
0000
0000
0000
,  // measure 11
0000
0000
0000
1000
,  // measure 12
0000
0000
0000
0000
,  // measure 13
0000
0000
0000
0000
,  // measure 14
0001
0000
0000
0000
,  // measure 15
0000
0000
0000
0010
,  // measure 16
0000
0000
0000
0000
,  // measure 17
0000
0000
0000
0100
,  // measure 18
0000
0000
0000
0000
0000
0000
0000
1000
0000
0000
0000
0000
0000
0000
0000
0000
,  // measure 19
0000
0000
0000
0000
,  // measure 20
0000
0000
0000
0000
,  // measure 21
0000
0000
0000
0000
0000
0000
0000
1000
,  // measure 22
0000
0000
0000
0000
0000
0000
0000
0001
,  // measure 23
0000
0000
0000
0000
0000
0000
0000
0100
,  // measure 24
0000
0000
0000
0010
,  // measure 25
0000
0000
0000
0000
0000
0000
0000
1000
,  // measure 26
0000
0000
0000
0000
0000
0000
0000
0001
,  // measure 27
0000
0000
0000
0000
0000
0000
0000
0010
,  // measure 28
0000
0000
0100
0000
,  // measure 29
0000
0000
0000
1000
,  // measure 30
0000
0000
0000
0000
,  // measure 31
0000
0000
0000
0000
,  // measure 32
0010
0000
0000
0000
,  // measure 33
0000
0000
0000
0100
,  // measure 34
0000
0000
0000
0000
,  // measure 35
0000
0000
0000
0001
,  // measure 36
0000
0000
0000
0000
0000
0000
0000
1000
0000
0000
0000
0000
0000
0000
0000
0000
,  // measure 37
0000
0000
0000
0000
,  // measure 38
0000
0000
0000
0001
,  // measure 39
0000
0000
0000
1000
,  // measure 40
0000
0000
0000
0000
,  // measure 41
0010
0000
0000
1000
,  // measure 42
0000
0000
0000
0001
,  // measure 43
0000
0000
0000
1000
,  // measure 44
0000
0000
0000
0001
,  // measure 45
0000
0000
0000
0000
,  // measure 46
0000
0000
0000
0000
0000
0000
0000
0100
;

//---------------dance-single - Haley Halcyon----------------
#NOTEDATA:;
#CHARTNAME:;
#STEPSTYPE:dance-single;
#DESCRIPTION:Haley Halcyon;
#CHARTSTYLE:;
#DIFFICULTY:Easy;
#METER:5;
#RADARVALUES:0.215555,0.296605,0.000000,0.038939,0.277440,155.000000,155.000000,0.000000,4.000000,0.000000,0.000000,0.000000,0.000000,0.000000,0.215555,0.296605,0.000000,0.038939,0.277440,155.000000,155.000000,0.000000,4.000000,0.000000,0.000000,0.000000,0.000000,0.000000;
#CREDIT:;
#NOTES:
0000
0000
0000
0000
,
0000
0000
0000
0000
,
0000
0000
0000
0000
,
1000
0000
0000
0001
0000
0000
1000
0000
0000
0001
0000
0000
1000
0000
0000
0000
,
0000
0000
0000
0000
,
1000
0001
1000
0001
,
1000
0000
0000
0000
,
0001
0000
0000
1000
0000
0000
0001
0000
0000
1000
0000
0000
0001
0000
0000
0000
,
0000
0000
0000
0000
,
0001
0000
0000
1000
0000
0000
0010
0000
0000
1000
0000
0000
0001
0000
0000
1000
,
0000
0001
0000
0010
0000
0001
0000
1000
0000
0000
0000
0000
0000
0000
0000
0000
,
1000
0000
0000
0100
0000
0000
0010
0000
0000
0001
0000
0000
1000
0000
0000
0000
,
0000
0000
0000
0000
,
1000
0010
0100
0001
,
1000
0000
0000
0000
,
0001
0000
0000
0100
0000
0000
0010
0000
0000
1000
0000
0000
0001
0000
0000
0000
,
0000
0000
0000
0000
,
0001
0000
0000
0010
0000
0000
0100
0000
0000
1000
0000
0000
0001
0000
0000
1000
,
0000
0010
0000
0100
0000
0010
0000
1000
0000
0000
0000
0000
0000
0000
0000
0000
,
0000
0000
0000
0000
,
0000
0000
0000
0000
,
0000
0000
1000
0000
0000
0001
0000
0000
1000
0000
0000
0001
0000
0000
1000
0000
,
0000
0000
0001
0000
0000
1000
0000
0000
0001
0000
0000
1000
0000
0000
0001
0000
,
0000
0000
1000
0000
0000
0010
0000
0000
0100
0000
0000
0010
0000
0000
1000
0000
,
0001
0000
0000
0010
0000
0000
0100
0000
0000
0010
0000
0000
0001
0000
0000
0000
,
0000
0000
1000
0000
0000
0100
0000
0000
0010
0000
0000
0001
0000
0000
1000
0000
,
0000
0000
0001
0000
0000
0100
0000
0000
0010
0000
0000
1000
0000
0000
0001
0000
,
0000
0000
1000
0000
0000
0010
0000
0000
0100
0000
0000
0001
0000
0000
1000
0000
,
0001
0010
0001
0010
0001
0000
0000
0000
,
1000
0000
0000
0010
0000
0000
0100
0000
0000
0001
0000
0000
1000
0000
0000
0000
,
0000
0000
0000
0000
,
0001
0010
1000
0010
,
0001
0000
0000
0000
,
0001
0000
0000
0100
0000
0000
0010
0000
0000
1000
0000
0000
0001
0000
0000
0000
,
0000
0000
0000
0000
,
0001
0000
0000
0100
0000
0000
0010
0000
0000
1000
0000
0000
0001
0000
0000
1000
,
0000
0100
0000
0010
0000
0001
0000
1000
0000
0000
0000
0000
0000
0000
0000
0000
,
0000
0000
0000
0000
,
0001
0000
0000
0010
0000
0000
0100
0000
0000
1000
0000
0000
0001
0000
0000
0000
,
1000
0000
0000
0010
0000
0000
0100
0000
0000
0001
0000
0000
1000
0000
0000
0000
,
0001
0100
0010
1000
,
0001
0000
1000
0100
0010
0001
1000
0000
,
0001
0000
0000
0010
0000
0000
0100
0000
0000
1000
0000
0000
0001
0000
0000
0000
,
1000
0000
0000
0010
0000
0000
0100
0000
0000
0001
0000
0000
1000
0000
0000
0000
,
0001
0000
0000
0100
0000
0000
0010
0000
0000
1000
0000
0000
0001
0000
2000
0000
,
0000
0000
3000
0200
0000
0000
0300
0020
,
0000
0000
0030
0002
0000
0000
0003
1000
;
