#VERSION:0.83;
#TITLE:Astronomia 2k19;
#SUBTITLE:;
#ARTIST:Stephan F;
#TITLETRANSLIT:;
#SUBTITLETRANSLIT:;
#ARTISTTRANSLIT:;
#GENRE:House;
#CREDIT:;
#MUSIC:audio.ogg;
#BANNER:banner.png;
#BACKGROUND:bg.png;
#CDTITLE:;
#SAMPLESTART:61.875;
#SAMPLELENGTH:12.381;
#SELECTABLE:YES;
#OFFSET:-1.875;
#BPMS:0.000=126.000;
#STOPS:;
#JACKET:jacket.jpg;
#BGCHANGES:;
#FGCHANGES:;

//--------------- dance-single - Haley Halcyon ----------------
#NOTEDATA:;
#STEPSTYPE:dance-single;
#CREDIT:Haley Halcyon;
#DIFFICULTY:Beginner;
#METER:2;
#RADARVALUES:0,0,0,0,0;
#NOTES:
0000
0000
0000
0000
,
0000
0000
0000
0000
,
0000
0000
0000
0000
,
0000
0000
0000
0000
,
1000
0000
0000
0000
,
0100
0000
0000
0000
,
1000
0000
0000
0000
,
0000
0000
0000
0000
,
0001
0000
0000
0000
,
0100
0000
0000
0000
,
0010
0000
0000
0000
,
0000
0000
0000
0000
,
1000
0000
0000
0000
,
0001
0000
0000
0000
,
1000
0000
0001
0000
,
1000
0000
0000
0000
,
0010
0000
0010
0000
,
0100
0000
0100
0000
,
0001
0000
0001
0000
,
0001
0000
0001
0000
,
1000
0000
1000
0000
,
0100
0000
0100
0000
,
0010
0000
0010
0000
,
0010
0000
0010
0000
,
1001
0000
0001
0000
,
1000
0000
1000
0000
,
0010
0000
0010
0000
,
0010
0000
0010
0000
,
0100
0000
0100
0000
,
0001
0000
0001
0000
,
1000
0000
1000
0000
,
2000
0000
3000
0000
,
1001
0000
0001
0000
,
0100
0000
0001
0000
,
1000
0000
1000
0000
,
0001
0000
0001
0000
,
1001
0000
1000
0000
,
0010
0000
0100
0000
,
0001
0000
0001
0000
,
1000
0000
1000
0000
,
1001
0000
0001
0000
,
0010
0000
0100
0000
,
1000
0000
1000
0000
,
0001
0000
0001
0000
,
1000
0000
1010
0000
,
0001
0000
0011
0000
,
1000
0000
0001
0000
,
1000
0000
0200
0000
,
0300
0000
0000
0000
;

//--------------- dance-single - Haley Halcyon ----------------
#NOTEDATA:;
#STEPSTYPE:dance-single;
#CREDIT:Haley Halcyon;
#DIFFICULTY:Easy;
#METER:5;
#RADARVALUES:0,0,0,0,0;
#NOTES:
0000
0000
0000
0000
,
0000
0000
0000
0000
,
0000
0000
0000
0000
,
0000
0000
0000
0000
,
1000
0000
0000
0000
,
0100
0000
0000
0000
,
0010
0000
0000
0000
,
0000
0000
0000
0000
,
0001
0000
0001
0000
,
1000
0000
1000
0000
,
0010
0000
0100
0100
,
0010
0000
0100
0100
,
0001
0000
1000
0000
,
0001
0000
1000
0000
,
0100
0100
0100
0100
,
1000
0001
1000
0000
,
1001
0000
0001
0001
,
0010
0000
0010
0010
,
0100
0000
1000
0001
,
0100
0000
0001
1000
,
1100
0000
0100
0100
,
1000
0000
1000
1000
,
0001
0000
0100
0001
,
0100
0000
0001
0100
,
0101
0000
1000
1000
,
0010
0000
0100
0100
,
0001
0000
1000
0001
,
1000
0000
0001
1000
,
0001
0001
1000
1000
,
0010
0010
1000
1000
,
0100
0100
0100
0100
,
0100
0100
0010
0000
,
1001
0000
0001
0001
,
1000
0000
0010
1000
,
0001
0001
0100
0001
,
0100
0100
0001
0100
,
0101
0000
0001
0100
,
0110
0000
0010
1000
,
0001
0001
0100
0001
,
0100
0100
0001
0100
,
0110
0000
0010
0100
,
0101
0000
0001
1000
,
0100
0100
1000
0100
,
1000
1000
0100
1000
,
0002
0003
2000
3000
,
0002
0003
2000
3000
,
0010
0010
0010
0010
,
0010
0010
2000
0000
,
3000
0000
0000
0000
;

//--------------- dance-single - Haley Halcyon ----------------
#NOTEDATA:;
#STEPSTYPE:dance-single;
#CREDIT:Haley Halcyon;
#DIFFICULTY:Medium;
#METER:9;
#RADARVALUES:0,0,0,0,0;
#NOTES:
0000
0000
0000
0000
,
0000
0000
0000
0000
,
0000
0000
0000
0000
,
0000
0000
0000
0000
,
1000
0000
0000
0000
,
0001
0000
0000
0000
,
0100
0000
0000
0000
,
0100
0000
0000
0000
,
0001
0000
0001
0010
0001
0000
0100
0000
,
0010
0000
1000
0100
1000
0000
0001
0100
,
0001
0000
1000
0010
0100
0010
1000
0010
,
0100
0000
0001
0010
0100
0010
0001
0010
,
0001
0001
1000
1000
,
0010
0010
0100
0100
,
0001
0010
0001
0000
1000
0100
1000
0000
,
0001
0000
0001
0000
0100
0010
0100
0001
,
1000
0000
0001
0010
0001
0000
1000
0000
,
0100
0000
0010
0001
0010
0000
0100
1000
,
0100
0000
1000
0001
0100
0001
0010
0001
,
1000
0000
0001
1000
0100
1000
0010
1000
,
0001
0000
1000
0100
1000
0000
0010
0000
,
0100
0000
0001
0010
0001
0000
0100
0010
,
1000
0000
0001
1000
0001
0100
0001
0010
,
0001
0000
1000
0001
1000
0100
1000
0010
,
1001
0000
1000
0010
1000
0000
0001
0000
,
0100
0000
0010
1000
0010
0000
0100
0001
,
0100
0000
0001
1000
0100
1000
0010
1000
,
0001
0000
1000
0001
0100
0001
0010
0001
,
1000
0100
1000
0000
0001
0010
0001
0000
,
0100
0001
0100
0000
0010
1000
0010
0000
,
0100
0001
1000
0001
0100
0001
1000
0000
,
0010
0100
0010
0100
0020
0000
0000
0000
,
1030
0000
0001
0010
0100
0000
1000
0000
,
0001
0000
1000
0010
1000
0000
0100
0010
,
0001
0000
1000
0001
0100
0010
1000
0001
,
1000
0000
0001
1000
0100
0010
0001
1000
,
0001
0000
1000
0100
0010
0000
0100
0000
,
1000
0000
0001
0100
0010
0000
1000
0010
,
1000
0000
0001
0010
0100
1000
0001
0010
,
0001
0000
1000
0010
0100
0001
1000
0010
,
1000
0000
0001
0010
0100
0000
1000
0000
,
0001
0000
1000
0100
0001
0000
0100
1000
,
0001
0000
1000
0010
0100
0010
0001
0010
,
1000
0000
0001
0010
0100
0010
1000
0010
,
0001
1000
0010
0100
,
0001
0010
0100
1000
,
0020
0030
0020
0030
0020
0030
0020
0030
,
0020
0030
0020
0030
0200
0000
0000
0000
,
0300
0000
0000
0000
;

//--------------- dance-single - Haley Halcyon ----------------
#NOTEDATA:;
#STEPSTYPE:dance-single;
#CREDIT:Haley Halcyon;
#DIFFICULTY:Hard;
#METER:12;
#RADARVALUES:0,0,0,0,0;
#NOTES:
0000
0000
0000
0000
,
0000
0000
0000
0000
,
0000
0000
0000
0000
,
0000
0000
0000
0000
,
2000
0000
0000
3000
,
0020
0000
0000
0030
,
0200
0000
0000
0000
,
0002
0000
0000
0300
,
1003
0100
1000
0100
0010
0000
0010
0000
,
0001
0100
0001
0100
0010
0000
1000
0001
,
1000
0000
0001
0010
0100
0010
0100
0010
,
0001
0000
1000
0010
0100
0010
0100
0010
,
1000
1100
0001
0101
,
1000
1010
0001
0011
,
1000
0001
1000
0000
0001
1000
0001
0000
,
0011
0000
1100
0000
0001
0100
0010
0000
,
1000
0000
1000
0100
0010
0000
0100
0000
,
1000
0000
0001
0100
0001
0000
1000
0100
,
1000
0000
1000
0010
0001
0010
0001
0010
,
1000
0000
0001
0010
1000
0010
1000
0010
,
0001
0000
1000
0010
0100
0000
0001
0000
,
1000
0000
0001
0010
0100
0000
0010
0100
,
1000
0000
0001
0100
1000
0100
1000
0100
,
0001
0000
1000
0100
0001
0100
0001
0100
,
1000
0000
0001
0010
0100
0000
1000
0000
,
0001
0000
0001
0100
0010
0000
0100
0010
,
1000
0000
0001
0010
1000
0010
0100
0010
,
0001
0000
1000
0010
0001
0010
0100
0010
,
1000
0001
1000
0100
1000
0001
1000
0000
,
0001
1000
0001
0010
0001
1000
0001
0000
,
1000
0010
1000
0000
0001
0100
0001
0000
,
1000
0100
1000
0100
0020
0000
0030
0000
,
0011
0000
1000
0001
0010
0000
0101
0000
,
1100
0000
0001
0100
1000
0000
0100
0001
,
1000
0000
0001
0010
1000
0001
1000
0010
,
0001
0000
1000
0010
0001
1000
0001
0010
,
1000
0000
0001
0010
0100
0000
1100
0000
,
1010
0000
0001
0100
1000
0000
0100
0001
,
1000
0000
0001
0010
1000
0001
1000
0010
,
0001
0000
1000
0010
0001
1000
0001
0010
,
1000
0000
0001
0010
0100
0000
0110
0000
,
0101
0000
0001
0010
0100
0000
0001
0100
,
1000
0000
0001
0100
1000
0001
0010
1000
,
0001
0000
1000
0100
0001
1000
0010
0001
,
1000
0100
1000
0000
0001
0100
0001
0000
,
1000
0010
1000
0000
0001
0010
0001
0000
,
1000
1000
0010
0010
0100
0100
0001
0001
,
1000
0001
1000
0001
0200
0000
0000
0000
,
0300
0000
0000
0000
;

//--------------- dance-single - Haley Halcyon ----------------
#NOTEDATA:;
#STEPSTYPE:dance-single;
#CREDIT:Haley Halcyon;
#DIFFICULTY:Challenge;
#METER:14;
#RADARVALUES:0,0,0,0,0;
#NOTES:
0000
0000
0000
0000
,
0000
0000
0000
0000
,
0000
0000
0000
0000
,
0000
0000
0000
0000
,
2000
0100
0010
0100
,
3002
0100
0010
0100
,
0023
0100
1000
0100
,
0001
0100
1000
0100
,
0031
0100
0001
1000
0010
0100
0001
0000
,
1000
0010
1000
0100
0010
0000
0100
1000
,
0001
0000
0100
0010
0001
0010
0100
0010
,
1000
0000
0001
0010
1000
0010
0100
0010
,
0001
0001
1000
1000
0010
0010
0100
0100
,
1000
1000
0100
0100
0001
0001
0010
0010
,
0001
0010
0001
0010
0100
1000
0100
1000
0010
0100
0001
1000
0100
0010
0001
1000
,
0010
0000
0000
0000
0110
0000
0000
0000
0001
0000
1010
0000
0100
0001
1000
0000
,
1100
0000
0000
0000
0000
0010
0001
0000
0000
1000
0000
0000
0010
0000
0000
0100
0000
0000
0001
0000
0000
0000
0000
0000
,
0101
0000
0000
0000
0000
0010
1000
0000
0000
0100
0000
0000
0001
0000
0000
0100
0000
0000
0010
0000
0000
0001
0000
0000
,
1001
0000
0000
0000
0000
1000
0010
0000
0000
0001
0000
0000
1000
0000
0000
0001
0000
0000
1000
0000
0000
0100
0000
0000
,
1001
0000
0000
0000
0000
0001
0010
0000
0000
1000
0000
0000
0001
0000
0000
1000
0000
0000
0001
0000
0000
0100
0000
0000
,
1100
0000
0000
0000
0000
0001
1000
0000
0000
0010
0000
0000
0001
0000
0000
1000
0000
0000
0100
0000
0000
0000
0000
0000
,
0101
0000
0000
0000
0000
1000
0001
0000
0000
0001
0000
0000
0010
0000
0000
0100
0000
0000
0001
0000
0000
0100
0000
0000
,
1001
0000
0000
0000
0000
0010
0100
0000
0000
1000
0000
0000
0001
0000
0000
0010
0000
0000
1000
0000
0000
0001
0000
0000
,
1001
0000
0000
0000
0000
0100
0010
0000
0000
1000
0000
0000
0001
0000
0000
0100
0000
0000
1000
0000
0000
0001
0000
0000
,
1001
0000
1010
0001
0101
1000
0110
0000
,
1001
0000
0000
0000
0000
0010
0001
0000
0000
1000
0000
0000
1010
0000
0000
0100
0000
0000
1001
0000
0000
0010
0000
0000
,
0011
0000
0000
0000
0000
0100
1000
0000
0000
0010
0000
0000
0001
0000
0000
0010
0000
0000
1000
0000
0000
0100
0000
0000
,
0001
0000
0000
0000
0000
1000
0010
0000
0000
0001
0000
0000
0100
0000
0000
1000
0000
0000
0001
0000
0000
0010
0000
0000
,
1001
1000
1100
0100
0110
0010
0011
0001
,
1001
1000
1010
0010
0110
0100
0101
0001
,
1000
0000
0000
0100
0000
0010
0001
0000
0000
1000
0000
0000
0100
0000
0000
0010
0000
0000
0001
0000
1000
0010
0000
0000
,
0100
0000
0000
0010
0000
1000
0001
0000
0000
0100
0000
0000
0002
0000
0000
0000
0000
0000
0000
0000
0000
0000
0000
0000
,
1003
0000
0000
0000
0000
0010
0001
0000
0000
0100
0000
0000
0110
0000
0000
0010
0000
0000
1010
0000
0000
0000
0000
0000
,
1001
0000
0000
0000
0000
0010
1000
0000
0000
1000
0000
0000
1100
0000
0000
0000
0000
0000
0011
0000
0000
0001
0000
0000
,
1001
0000
0000
0000
0000
0001
0100
0000
0000
0010
0000
0000
0001
0000
0000
1000
0000
0000
0100
0000
0100
0001
0000
0000
,
1001
0000
0000
0000
0000
1000
0100
0000
0000
0010
0000
0000
1000
0000
0000
0001
0000
0000
0100
0000
0100
1000
0000
0000
,
1100
0000
0000
0000
0000
0001
0010
0000
0000
0100
0000
0000
0001
0000
0000
0100
0000
0000
1100
0000
0000
0000
0000
0000
,
0101
0000
0000
0000
0000
1000
0100
0000
0000
0010
0000
0000
1000
0000
0000
0001
0000
0000
0100
0000
0000
1000
0000
0000
,
1001
0000
0000
0000
0000
0001
0100
0000
0000
1000
0000
0000
0001
0000
0000
0010
0000
0000
0100
0000
0100
0001
0000
0000
,
1001
0000
0000
0000
0000
1000
0100
0000
0000
0010
0000
0000
1000
0000
0000
0001
0000
0000
0100
0000
0100
1000
0000
0000
,
1001
0000
0000
1000
0000
0001
0100
0000
0000
0010
0000
0000
0100
0000
0000
0001
0000
0000
1000
0000
0100
1000
0000
0000
,
0011
0000
0000
0001
0000
0100
0001
0000
0000
1000
0000
0000
0010
0000
0000
0100
0000
0000
1000
0000
0100
0010
0000
0000
,
1010
0000
0000
0001
0000
0100
0001
0000
0000
0010
0000
0000
1000
0000
0000
0001
0000
0000
0100
0000
0100
1000
0000
0000
,
0011
0000
0000
1000
0000
0100
1000
0000
0000
0010
0000
0000
0001
0000
0000
1000
0000
0000
0100
0000
0100
0001
0000
0000
,
1000
1000
1000
1000
0010
0010
0010
0010
,
0100
0100
0100
0100
0001
0001
0001
0001
,
1000
0010
0100
0001
1000
0100
0010
0001
,
0100
0010
1000
0100
0020
0000
0000
0000
,
0030
0000
0000
0000
;

//--------------- dance-double - Haley Halcyon ----------------
#NOTEDATA:;
#STEPSTYPE:dance-double;
#CREDIT:Haley Halcyon;
#DIFFICULTY:Medium;
#METER:6;
#RADARVALUES:0,0,0,0,0;
#NOTES:
00000000
00000000
00000000
00000000
,
00000000
00000000
00000000
00000000
,
00000000
00000000
00000000
00000000
,
00000000
00000000
00000000
00000000
,
01000000
00000000
00000000
00000000
,
00001000
00000000
00000000
00000000
,
00010000
00000000
00000000
00000000
,
00000000
00000000
00000000
00000000
,
00000100
00001000
00000010
00000100
,
00000001
00000010
00000100
00001000
,
00000010
00000000
00010000
00001000
,
00100000
00000000
00001000
00010000
,
00000100
00000100
00010000
00010000
,
00000010
00000010
00001000
00001000
,
00000100
00010000
00001000
00100000
,
00010000
00010000
01000000
00100000
,
10000000
00000000
10000000
01000000
,
00100000
00000000
00001000
00100000
,
00010000
00000000
01000000
00010000
,
01000000
00000000
00010000
01000000
,
00010000
00000000
00100000
00001000
,
00010000
00000000
00000100
00001000
,
00000010
00000000
00000100
00000001
,
00000100
00000000
00000001
00000010
,
00001001
00000000
00000001
00000010
,
00000100
00000000
00000010
00000100
,
00010000
00000000
00000100
00010000
,
00001000
00000000
00100000
00001000
,
00010000
00010000
00001000
00001000
,
01000000
01000000
00010000
00010000
,
10000000
00100000
01000000
00010000
,
00100000
01000000
00020000
00000000
,
00031000
00001000
00010000
00000100
,
00000010
00000010
00000001
00001000
,
00000100
00010000
00001000
01000000
,
00100000
01000000
00001000
00010000
,
00000100
00000100
00010000
00001000
,
00100000
00100000
00010000
01000000
,
00100000
10000000
00100000
00010000
,
00001000
00010000
00100000
10000000
,
01000000
01000000
00100000
00010000
,
01000000
01000000
00010000
00100000
,
00001000
00010000
00000100
00000010
,
00000100
00010000
00001000
00100000
,
00020000
00030000
20000000
30000000
,
00200000
00300000
00020000
00030000
,
00000010
00001000
00000100
00000010
,
00000001
00000100
00000020
00000000
,
00000030
00000000
00000000
00000000
;

//--------------- dance-double - Haley Halcyon ----------------
#NOTEDATA:;
#STEPSTYPE:dance-double;
#CREDIT:Haley Halcyon;
#DIFFICULTY:Hard;
#METER:11;
#RADARVALUES:0,0,0,0,0;
#NOTES:
00000000
00000000
00000000
00000000
,
00000000
00000000
00000000
00000000
,
00000000
00000000
00000000
00000000
,
00000000
00000000
00000000
00000000
,
00020000
00000000
00000000
00000000
,
00030200
00000000
00000000
00000000
,
00000320
00000000
00000000
00000000
,
00000002
00000000
00000000
00000030
,
00001003
00000000
00000010
00001000
00000100
00000000
00010000
00000000
,
00001000
00000000
00010000
01000000
00100000
00000000
01000000
10000000
,
00010000
00000000
10000000
00100000
01000000
00010000
01000000
00100000
,
10000000
00000000
01000000
00100000
00001000
00010000
00001000
00100000
,
01000000
11000000
00010000
00110000
,
00000100
00001100
00010000
00011000
,
00000010
00010000
00000010
00001000
00000001
00001000
00000001
00000000
,
00001010
00000000
00001100
00000000
00010000
00001000
00100000
00010000
,
10000000
00000000
00010000
00100000
00001000
00000000
01000000
00000000
,
00010000
00000000
00010000
00100000
01000000
00000000
00100000
01000000
,
10000000
00000000
10000000
00100000
01000000
00010000
00100000
00001000
,
00010000
00000000
00010000
00001000
00100000
00010000
01000000
00100000
,
10000000
00000000
00010000
00100000
00001000
00000000
00010000
00000000
,
00000100
00000000
00000100
00010000
00000010
00000000
00000010
00001000
,
00000001
00000000
00000001
00000100
00000010
00001000
00000100
00010000
,
00001000
00000000
00001000
00010000
00000100
00001000
00000010
00000100
,
00000001
00000000
00000001
00001000
00000100
00000000
00010000
00000000
,
00001000
00000000
01000000
00010000
10000000
00000000
00100000
01000000
,
00010000
00000000
01000000
00100000
00010000
00001000
01000000
00100000
,
00010000
00000000
00001000
00010000
01000000
00100000
00001000
00010000
,
02000000
03000000
00200000
00300000
00020000
00030000
02000000
03000000
,
00002000
00003000
00020000
00030000
00000200
00000300
00002000
00003000
,
00000010
00001000
00000100
00010000
00001000
00010000
00000010
00001000
,
00000100
00010000
01000000
00100000
00002000
00000000
00000000
00000000
,
10003000
00000000
10000000
00100000
01000000
00000000
01001000
00000000
,
00010100
00000000
00001000
00000100
00000001
00000000
00000100
00001000
,
00000010
00000000
00010000
00000010
00001000
00000100
00010000
00000010
,
00001000
00000000
00000100
00010000
00000010
00001000
00000100
00010000
,
00000010
00000000
00001000
00000100
00010000
00000000
00001000
00000000
,
01000000
00000000
01000000
00100000
00010000
00000000
00100000
10000000
,
00010000
00000000
00100000
00001000
00010000
00000100
00000010
00001000
,
00010000
00000000
00000010
00010000
00001000
01000000
00100000
00010000
,
00001000
00000000
01000000
00000100
00001000
00000000
00000001
00000000
,
00000010
00000000
00001000
00010000
00000010
00000000
00010000
00001000
,
00100000
00000000
00000010
00010000
00100000
00010000
00000010
00010000
,
00001000
00000000
01000000
00001000
00000100
00001000
01000000
00001000
,
00020000
00030000
00000200
00000300
00002000
00003000
00000002
00000003
,
00000020
00000030
00002000
00003000
00020000
00030000
00200000
00300000
,
10000000
00010000
10000000
00010000
01000000
00001000
01000000
00001000
,
00010000
00000100
00010000
00000100
00000020
00000000
00000000
00000000
,
00000030
00000000
00000000
00000000
;

//--------------- dance-double - Haley Halcyon ----------------
#NOTEDATA:;
#STEPSTYPE:dance-double;
#CREDIT:Haley Halcyon;
#DIFFICULTY:Challenge;
#METER:16;
#RADARVALUES:0,0,0,0,0;
#NOTES:
00000000
00000000
00000000
00000000
,
00000000
00000000
00000000
00000000
,
00000000
00000000
00000000
00000000
,
00000000
00000000
00000000
00000000
,
20020000
00000000
00000000
30030000
,
02000200
00000000
00000000
03000300
,
00002002
00000000
00000000
00003000
,
00020000
00000000
00000000
00000003
,
00030100
00000100
00001000
00000010
00000100
00000100
00001000
00000100
,
00000001
00000001
00000010
00000100
00010000
00010000
00001000
00100000
,
00010000
00010000
01000000
00100000
10000000
00100000
10000000
01000000
,
00100000
00100000
00001000
00010000
00000100
00010000
00000100
00010000
,
00000010
00000010
00000100
00000100
00000001
00000001
00010000
00010000
,
01000000
01000000
00100000
00100000
00001000
00001000
01000000
01000000
,
00100000
01000000
00010000
00100000
00001000
00010000
00000010
00001000
00000100
00010000
00000010
00001000
00000010
00000100
00000010
00001000
,
00000001
00000000
00000000
00000000
00010001
00000000
00000000
00000000
00001000
00000000
00100100
00000000
00001000
00100000
00010000
00000000
,
10010000
00000000
00000000
00000000
00000000
10000000
01000000
00000000
00000000
00100000
00000000
00000000
00001000
00000000
00000000
01000000
00000000
00000000
00100000
00000000
00000000
00000000
00000000
00000000
,
01000000
00000000
00000000
00000000
00000000
00001000
00010000
00000000
00000000
00000100
00000000
00000000
00000010
00000000
00000000
00000100
00000000
00000000
00010000
00000000
00001000
00010000
00000000
00000000
,
00000100
00000000
00000000
00000000
00000000
01000000
00010000
00000000
00000000
00000100
00000000
00000000
00010000
00000000
00000000
01000000
00000000
00000000
00001000
00000000
01000000
00001000
00000000
00000000
,
00010000
00000000
00000000
00000000
00000000
00000100
00010000
00000000
00000000
01000000
00000000
00000000
00010000
00000000
00000000
00000100
00000000
00000000
00010000
00000000
00001000
00010000
00000000
00000000
,
00001000
00000000
01000100
01000000
00100000
00010000
00000100
00000000
,
00010100
00000000
00000000
00000000
00000000
00001000
00000010
00000000
00000000
00000100
00000000
00000000
00000001
00000000
00000000
00000100
00000000
00000000
00001000
00000000
00001000
00010000
00000000
00000000
,
00000100
00000000
00000000
00000000
00000000
00010000
01000000
00000000
00000000
00100000
00000000
00000000
00010000
00000000
00000000
01000000
00000000
00000000
00001000
00000000
00010000
00001000
00000000
00000000
,
00100000
00000000
00000000
00000000
00000000
00000010
00001000
00000000
00000000
00000100
00000000
00000000
00000010
00000000
00000000
00001000
00000000
00000000
00010000
00000000
00000000
00001000
00000000
00000000
,
00011000
00000000
01000100
00010000
01000000
00100000
10100000
00000000
,
01001000
00000000
00000000
00000000
00000000
00010000
00001000
00000000
00000000
00010000
00000000
00000000
01000000
00000000
00000000
00010000
00000000
00000000
00000100
00000000
00001000
00000001
00000000
00000000
,
00000100
00000000
00000000
00000000
00000000
00000010
00000100
00000000
00000000
00001000
00000000
00000000
00010000
00000000
00000000
01000000
00000000
00000000
10000000
00000000
00100000
10000000
00000000
00000000
,
01000000
00000000
00000000
00000000
00000000
00100000
01000000
00000000
00000000
00010000
00000000
00000000
00001000
00000000
00000000
00000100
00000000
00000000
00000001
00000000
00000010
00000001
00000000
00000000
,
00001000
00000000
00000000
00000100
00000000
00000100
00010000
00000000
00000000
00001000
00000000
00000000
01000000
00000000
00000000
00010000
00000000
00000000
00100000
00000000
00000000
01000000
00000000
00000000
,
10000000
00000000
00000000
00100000
00000000
00100000
01000000
00000000
00000000
00001000
00000000
00000000
00010000
00000000
00000000
00000010
00000000
00000000
00001000
00000000
00001000
00000100
00000000
00000000
,
00000010
00000000
00000000
00001000
00000000
00001000
00010000
00000000
00000000
00000100
00000000
00000000
00000010
00000000
00000000
00000001
00000000
00000000
00000100
00000000
00000000
00001000
00000000
00000000
,
00010000
00000000
00000000
01000000
00000000
01000000
10000000
00000000
00000000
00100000
00000000
00000000
02000000
00000000
00000000
00000000
00000000
00000000
00000000
00000000
00000000
00000000
00000000
00000000
,
03001000
00000000
00000000
00010000
00000000
00000100
00001000
00000000
00000000
00000010
00000000
00000000
00000100
00000000
00000000
00000001
00000000
00000000
00001000
00000000
00000000
00000000
00000000
00000000
,
00000100
00000000
00000000
00000010
00000000
00000100
00010000
00000000
00000000
00001000
00000000
00000000
10000000
00000000
00000000
00001000
00000000
00000000
01000000
00000000
00000000
00100000
00000000
00000000
,
00010000
00000000
00000000
00000100
00000000
00010000
00000010
00000000
00000000
00000100
00000000
00000000
00000001
00000000
00000000
00010000
00000000
00000000
00000010
00000000
00000000
00010000
00000000
00000000
,
00001000
00000000
00000000
00100000
00000000
00001000
01000000
00000000
00000000
00100000
00000000
00000000
10000000
00000000
00000000
01000000
00000000
00000000
00100000
00000000
00000000
00001000
00000000
00000000
,
00011000
00000000
00000000
00000100
00000000
00001000
00000010
00000000
00000000
00000100
00000000
00000000
00001000
00000000
00000000
00000100
00000000
00000000
00000001
00000000
00000000
00000000
00000000
00000000
,
00001001
00000000
00000000
00001000
00000000
00000100
00010000
00000000
00000000
00001000
00000000
00000000
00100000
00000000
00000000
01000000
00000000
00000000
00010000
00000000
00010000
01000000
00000000
00000000
,
10000000
00000000
00000000
00010000
00000000
01000000
00001000
00000000
00000000
00010000
00000000
00000000
01000000
00000000
00000000
00010000
00000000
00000000
00000100
00000000
00000000
00001000
00000000
00000000
,
00000001
00000000
00000000
00001000
00000000
00000010
00010000
00000000
00000000
00001000
00000000
00000000
00000010
00000000
00000000
00001000
00000000
00000000
00100000
00000000
00000000
00010000
00000000
00000000
,
01010000
00000000
00000000
10000000
00000000
01000000
00100000
00000000
00000000
00001000
00000000
00000000
00010000
00000000
00000000
00000100
00000000
00000000
01000000
00000000
00000000
00000000
00000000
00000000
,
01100000
00000000
00000000
00001000
00000000
00010000
00000010
00000000
00000000
00001000
00000000
00000000
00000100
00000000
00000000
00010000
00000000
00000000
00000100
00000000
00001000
00000001
00000000
00000000
,
00000011
00000000
00000000
00000010
00000000
00000100
00010000
00000000
00000000
00001000
00000000
00000000
00100000
00000000
00000000
00010000
00000000
00000000
10000000
00000000
00010000
01000000
00000000
00000000
,
10100000
00000000
00000000
00100000
00000000
01000000
00001000
00000000
00000000
00010000
00000000
00000000
00000010
00000000
00000000
00001000
00000000
00000000
00000001
00000000
00000010
00000100
00000000
00000000
,
00000110
00000100
00010100
00010000
00011000
00001000
01001000
01000000
,
01100000
00100000
00110000
00010000
00011000
00001000
00001010
00000010
,
00000001
00000100
00000010
00010000
00001000
01000000
00100000
00010000
,
00000010
00010000
00001000
00100000
02000000
00000000
00000000
00000000
,
03000000
00000000
00000000
00000000
;
