#TITLE:ć„›Dee;
#SUBTITLE:;
#ARTIST:Mitchie M ft. Miku & Luka;
#TITLETRANSLIT:Ai Dee;
#SUBTITLETRANSLIT:;
#ARTISTTRANSLIT:;
#GENRE:;
#CREDIT:HaleyHalcyon;
#MUSIC:AiDee [3.9].ogg;
#BANNER:AiDee [3.9].png;
#BACKGROUND:AiDee [3.9]-bg.png;
#JACKET:AiDee [3.9]-jacket.png;
#CDTITLE:cdtitle.png;
#SAMPLESTART:54.844;
#SAMPLELENGTH:15.000;
#SELECTABLE:YES;
#OFFSET:-0.010;
#BPMS:0.000=128.000
,180.000=192.000
,180.188=64.000
,180.250=192.000
,180.438=64.000
,180.500=192.000
,180.688=64.000
,180.750=192.000
,180.938=64.000
,181.000=192.000
,181.188=64.000
,181.250=192.000
,181.438=64.000
,181.500=192.000
,181.688=64.000
,181.750=192.000
,181.938=64.000
,182.000=192.000
,182.188=64.000
,182.250=192.000
,182.438=64.000
,182.500=192.000
,182.688=64.000
,182.750=192.000
,182.938=64.000
,183.000=192.000
,183.188=64.000
,183.250=192.000
,183.438=64.000
,183.500=192.000
,183.688=64.000
,183.750=192.000
,183.938=64.000
,184.000=128.000
,191.500=192.000
,191.688=64.000
,191.750=192.000
,191.938=64.000
,192.000=128.000
,216.000=256.000
,220.000=128.000
,232.000=512.000
,232.500=256.000
,232.750=64.000
,232.875=32.000
,233.000=128.000
,262.000=256.000
,263.000=192.000
,263.188=64.000
,263.313=192.000
,263.688=64.000
,263.813=192.000
,264.000=128.000
,270.500=512.000
,272.000=256.000
,272.500=128.000
,272.750=64.000
,273.000=128.000
;
#STOPS:216.000=0.234
,217.000=0.234
,218.000=0.234
,219.000=0.234
,262.000=0.117
,262.500=0.117
,270.500=0.177
,271.000=0.177
,271.500=0.177
;
#BGCHANGES:;
#FGCHANGES:;

//--------------- dance-single - HaleyHalcyon ----------------
#NOTES:
     dance-single:
     HaleyHalcyon:
     Hard:
     9:
     0,0,0,0,0:
0000
0000
0000
0000
,
0000
1000
0001
1000
,
0002
0000
0000
0000
0003
0000
0100
0000
0020
0030
0000
0200
0300
0000
0002
0000
,
0003
0000
0010
0100
2000
0000
0000
0000
3000
0000
0001
0000
0001
0000
1000
0000
,
0020
0000
0000
0000
0030
0000
0100
0000
0020
0030
0000
2000
3000
0000
0200
0000
,
0300
0000
0010
0001
2000
0000
0000
0000
3000
0000
0001
0000
0001
0000
1000
0000
,
0020
0000
0030
0100
0002
0000
0000
0000
,
0003
1000
0100
0010
0002
0003
0100
0020
,
0030
2000
0002
0000
0000
3000
1000
0000
,
0010
0000
1000
0000
0010
0000
0000
0000
0103
0000
0000
0100
0010
0000
1010
0000
,
1001
0001
0001
0010
100M
0000
0000
1000
,
0010
0001
1000
0020
0030
0100
0010
1000
,
0000
0001
0001
0100
0010
1000
0100
0010
,
100M
0000
0010
0000
0002
0000
0000
0000
0003
0000
4000
0000
3040
0000
0430
0304
,
0000
0003
1000
0000
1000
0000
0100
0000
M001
0000
0000
0000
0000
0000
0001
0000
,
0100
0010
0001
2000
3000
0010
0100
0001
,
0000
0010
0010
0100
1000
1000
0010
0100
,
100M
0000
0100
0000
0010
0000
2000
0000
0001
0000
3001
0000
1000
0010
1000
0001
,
0200
0300
0200
0300
0200
0300
0200
0300
,
0002
0003
0020
0030
0200
0300
2000
3000
,
0001
1000
0001
1000
0001
0010
0100
1000
0001
1000
0001
1000
0001
0100
0010
1000
,
0001
1000
0001
1000
0001
0010
0100
1000
0002
0000
0003
0002
0000
0003
0002
0000
,
2003
0000
3100
0010
0020
0000
0031
0002
,
0000
0000
1003
0000
0400
0000
0000
0300
2000
0000
3000
2000
0000
3000
2000
0000
,
3002
0000
0103
0100
0020
0000
1030
0200
,
0000
0310
0004
0000
0003
0010
0100
1000
,
000M
0010
0100
0001
00M0
0001
0010
1000
,
0M00
1000
0010
0100
M000
0100
0010
0002
,
1000
0000
1000
0000
,
4003
0010
0001
3100
,
0020
0000
0000
0000
0130
0000
0001
0000
0020
0000
0000
2030
0000
0000
3020
0000
,
0030
0000
0001
0100
0020
0000
0000
0000
0030
0000
1000
0000
1000
0000
0001
0000
,
0200
0000
0000
0000
0310
0000
0100
0000
0002
0000
0000
0023
0000
0000
0230
0000
,
0300
0000
1000
0010
0200
0000
0000
0000
0300
0000
0001
0000
0001
0000
1000
0000
,
0020
0000
1030
0100
0020
0000
0001
0000
,
0130
1000
0001
0100
0020
0030
0100
2000
,
000M
3200
0301
2000
00M0
0000
3001
0M20
,
0000
0031
1000
0001
,
0020
0000
0000
0000
0030
0000
0100
0000
0020
0000
0000
0032
0000
0000
2003
0000
,
3000
0000
0010
0100
0002
0000
0000
0000
0003
0000
1000
0000
1000
0000
0100
0000
,
0020
0000
0000
0000
0030
0000
0100
0000
0002
0000
0000
0203
0000
0000
0320
0000
,
0030
0000
0001
1000
0020
0000
0000
0000
0030
0000
1000
0000
1000
0000
0010
0000
,
0200
0000
0310
1000
0200
0000
0310
0001
,
2000
0000
3100
0002
0003
0200
0300
2000
,
0001
0010
0001
0010
,
340M
00M0
000M
00M0
000M
00M0
000M
00M0
000M
00M0
000M
00M0
000M
00M0
000M
00M0
,
1300
0000
0100
0010
0000
0200
0000
0000
1300
0001
0100
0000
0010
0000
0000
0010
,
2000
0000
0000
0000
3100
0000
0020
0000
0000
0000
0000
0000
0031
0000
0000
0000
0001
0000
0000
0100
0000
0000
0010
0000
0000
0000
0000
0000
4000
0000
0000
0000
,
3000
0000
0100
0000
0001
0000
0100
0000
0010
0000
0010
0001
0000
0001
1000
0000
,
0001
0000
0100
0000
1000
0000
0100
0000
0010
0000
0010
1000
0000
1000
0001
0000
,
0000
0000
0001
0000
0010
0100
1000
0000
1000
0100
0000
0100
0010
0000
0001
0000
,
0000
0000
1000
0000
0010
0100
0001
0000
0001
0100
0000
0100
0010
0000
1000
0000
,
0001
0000
0100
0020
0000
0030
0100
0000
0001
0000
0010
0200
0000
0300
0010
0000
,
0001
0100
1000
0001
0010
1000
0001
0000
,
1100
1010
0101
0011
,
0001
0000
0010
0000
0100
0000
1000
0000
0002
0000
0003
0000
0002
0003
0000
0000
,
0002
0003
0000
0000
0000
0000
0000
0000
0002
0000
0003
0000
0000
0000
0000
0000
0002
0000
0000
0003
0000
0000
0000
0000
0002
0000
0000
0000
0003
0000
0000
0000
,
0004
4000
0000
0000
0000
0000
0000
0000
0000
0000
0000
0000
0000
0000
0000
0000
,
3003
0000
0000
M00M
1001
0000
0001
0000
0020
0000
0000
0230
0000
0000
0302
0000
,
0000
0003
0100
1000
0002
0000
0000
0000
0003
0000
0001
0000
0010
0000
0100
0000
,
2000
0000
0000
0000
3001
0000
1000
0000
0020
0000
0000
0230
0000
0000
2300
0000
,
0000
3000
0100
0001
2000
0000
0000
0000
3001
0000
0010
0000
0010
0000
0100
0000
,
2000
0000
3010
0100
0002
1000
0000
1003
,
0010
1000
0100
0010
2000
3000
0010
0002
,
0000
2003
0010
0100
0001
0100
0010
0100
,
3001
1000
0001
0000
0020
0000
0000
0030
0200
0300
0200
0300
4000
3004
4003
3004
,
2003
0000
0000
0000
3010
0000
0100
0000
0002
0000
0000
0203
0000
0000
2300
0000
,
3000
0000
0100
0001
0020
0000
0000
0000
0030
0000
0001
0000
0001
0000
1000
0000
,
0040
0000
0000
0000
1030
0000
1000
0000
0020
0000
0000
0230
0000
0000
2300
0000
,
3000
0000
0100
0001
2000
0000
0000
0000
3000
0000
0001
0000
0001
0000
0010
0000
,
0200
0000
0300
1000
0002
0000
0003
0100
,
0020
0030
1000
0200
0300
0020
0030
0002
,
0000
0000
0000
2000
0000
0000
0000
0000
,
0000
0000
0000
0000
,
0000
0000
3003
0000
;

//--------------- dance-single - HaleyHalcyon ----------------
#NOTES:
     dance-single:
     HaleyHalcyon:
     Challenge:
     10:
     0,0,0,0,0:
0000
0000
0000
0000
0000
0000
0000
0000
0000
0000
0000
0000
M000
000M
M000
000M
,
M00M
0001
1000
0001
,
0020
0000
0230
0000
1300
0000
2000
0000
3020
0000
0130
0002
0000
0103
0020
0000
,
0230
0000
0301
0010
0200
0000
1000
0000
0320
0000
0032
0000
2003
0000
3002
0000
,
0203
0000
0010
0000
0301
0000
0002
0000
0023
0000
0130
2000
0000
3100
0020
0000
,
0031
0000
1000
0010
0200
0000
0001
0000
0310
0000
0020
0000
2030
0000
3002
0000
,
0023
0100
0031
0002
0203
0010
0302
0100
,
1003
2000
3200
2300
3020
2030
3100
0020
,
0031
0100
0010
1000
0100
0010
0001
0100
0010
1000
0100
0010
0002
0000
0003
0000
,
0001
0000
0010
0000
0100
0000
0000
0000
0110
0000
0000
0010
0001
0000
1000
0000
,
1001
0000
1000
0000
0100
0000
0010
0000
0011
0000
0001
0010
0001
0010
0100
0000
,
1000
0000
0001
0000
0100
0000
0010
0000
0100
0001
1000
0010
1000
0100
1000
0001
,
1000
0001
0011
0100
0001
1000
1010
0001
,
1000
0000
0100
0000
0010
0000
0001
0100
0010
0000
2000
3000
0002
0003
0010
0002
,
1003
0000
0001
0000
0100
0000
0010
0000
1010
0000
1000
0010
1000
0010
0100
0000
,
0001
0000
1000
0000
0100
0000
0010
0000
0100
1000
0001
0010
0001
0100
0001
1000
,
0001
1000
1010
0100
1000
0001
0011
1000
,
0001
0000
0100
0000
0110
0000
0001
0000
0010
0001
0100
0001
1000
0010
0200
0000
,
0302
1003
0002
1003
0002
1003
0002
1003
,
0200
1300
0002
0013
0200
0310
0002
1003
,
1000
0100
1000
0010
0100
0001
0010
0001
1000
0010
1000
0100
0010
0001
0100
0001
,
1000
0100
1000
0010
0100
0001
0010
0001
1000
0100
1000
0001
0100
0001
1000
0100
,
1000
0010
0100
0001
1000
0001
1000
0010
,
0100
0000
0010
0000
4000
0000
0000
0000
3001
0010
0001
1000
0010
1000
0001
0010
,
0001
0010
0100
1000
0001
1000
0001
0010
,
0100
0000
0010
0000
0004
0000
0000
0000
1003
0010
0100
0001
0010
0001
0100
0010
,
2000
0100
3100
0100
0020
0100
0130
0100
,
0002
0100
0103
0100
0020
0100
0130
0100
,
1002
0000
0010
0000
1000
0000
0010
0003
,
0001
0000
0010
0000
0100
0000
1000
0000
0100
0000
0010
0000
0001
0000
0000
0100
0000
0000
0010
0000
0000
1000
0000
0000
0100
0000
0000
0000
0010
0000
0000
0000
0001
0000
0000
0000
1000
0000
0000
0000
0000
0000
0000
0000
0000
0000
0000
0000
,
0001
0010
0001
1000
0100
0010
0100
1000
0001
0010
0001
1000
0010
1000
0001
0100
,
0010
0000
1000
0001
1000
0010
1000
0002
0000
0003
0100
0000
1000
0000
0100
0000
,
0001
0100
0010
1000
0001
1000
0100
1000
0001
0100
0001
1000
0100
1000
0010
1000
,
0010
0000
1000
0001
1000
0100
1000
0002
0000
0000
0013
0000
1000
0000
0010
0000
,
0001
0010
0100
1000
0001
0000
1000
0000
0001
0010
0100
0000
1000
0010
0100
0000
,
0001
0001
0100
0010
0002
0003
0010
1000
,
0002
0103
0010
0200
0300
0001
0010
0200
,
0300
1000
0010
0000
0100
0000
0001
0010
0000
0100
1000
0001
0010
0000
0001
1000
,
0M20
0M00
0M00
0M00
0M00
0000
0M00
0000
0M30
0M00
0M00
0M00
1M00
0000
0M00
0M00
0M02
0000
0000
0000
0003
0000
0M20
0000
0000
0000
0M30
0000
0M02
0M00
0M03
0000
,
1000
0001
0000
0002
1003
0000
0000
0000
1000
0000
0010
0000
0001
0000
0010
0000
,
1000
0100
0010
0001
1000
0001
0010
0001
1000
0100
1000
0001
0100
0001
1000
0100
,
0010
0000
0001
0010
0100
0010
0001
2000
0000
0000
3010
0000
0001
0000
0010
0000
,
1000
0100
0010
0100
1000
0000
0001
0000
0100
0000
0010
0000
0101
0000
1000
0000
,
0002
0000
0013
0000
0020
0000
0031
0010
0001
0100
0002
0003
1000
0000
0020
0000
,
0001
0100
1030
1200
0010
0001
1300
1000
,
0001
1000
0001
1000
0001
1000
0001
1000
0001
1000
0001
1000
0001
1000
0001
1000
,
0001
0000
0001
1000
0000
1000
0000
0000
0100
0010
0100
0000
1000
0000
0000
1000
,
0010
0000
0000
0000
0100
0000
0010
0000
0000
0000
0000
0000
1000
0000
0000
0000
0001
0000
0000
0010
0000
0000
0100
0000
0000
0000
0000
0000
1000
0000
0001
0000
,
1000
0000
1000
0000
0010
0000
0010
0000
0100
0000
0010
0001
0000
0010
1000
0000
,
0001
0000
0001
0000
0010
0000
0010
0000
0100
0000
0100
0001
0000
0100
1000
0000
,
0000
0000
1001
0000
0001
1000
0001
0000
1000
0001
0000
1000
0001
0000
1001
0000
,
0000
0000
0110
0000
0010
0100
0010
0000
0100
0010
0000
0100
0010
0000
0110
0000
,
0001
0000
1000
0200
0000
0300
0010
0000
0001
0000
1000
0020
0000
0030
0100
0000
,
0001
0100
0010
1000
0100
0010
1001
0000
,
1000
1100
1110
1111
,
0001
0000
0010
0000
0100
0000
1000
0000
0002
0000
0003
0000
0002
0003
0000
0000
,
0002
0003
0000
0000
0000
0000
0000
0000
0002
0000
0003
0000
0000
0000
0000
0000
0002
0000
0000
0003
0000
0000
0000
0000
0002
0000
0000
0000
0003
0000
0000
0000
,
0001
0010
0100
0010
0001
1000
0010
0100
0001
1000
0100
0010
0100
1000
0001
0010
,
M200
00M0
000M
00M0
1300
0010
0100
0001
1000
0010
1000
0001
0010
0001
1000
0100
,
0010
0001
0101
1010
1100
0100
0001
0100
,
1000
0100
0010
0001
1000
0001
0100
0001
1000
0100
1000
0001
0100
0001
0010
0001
,
0010
0001
0011
1100
1010
0010
0001
0010
,
1000
0010
0100
0001
1000
0000
0001
0000
1000
0010
0100
0000
0001
0010
0100
0000
,
1000
1000
0100
0010
2000
3000
0010
0001
,
2000
3010
2000
3002
0023
0032
2003
3200
,
0310
0100
1000
0000
0002
0000
0003
0000
2000
3000
2000
3000
0010
0100
0010
0100
,
0001
0100
0001
1000
0010
0100
0010
1000
0001
0100
0001
1000
0100
1000
0001
0010
,
0100
0000
1000
0001
1000
0100
1000
0002
0000
0003
0010
0000
0010
0000
0010
0000
,
0400
0000
0000
0000
0310
0100
0010
0001
1000
0100
1000
0001
0100
0001
0010
0100
,
0010
0100
2000
3000
0002
0000
2003
0000
3020
0000
0032
0000
0023
0000
2030
0000
,
3002
0000
0000
0000
0000
0000
0103
0000
0M00
1000
0000
0000
2000
0000
0000
0000
0000
0000
3100
0000
0M00
0001
0000
0000
,
0020
0000
0130
0002
0000
0203
0000
4300
,
0000
0000
0000
3004
0000
0000
0000
0000
,
0000
0000
0000
0000
0000
0000
0003
0220
,
0000
0000
0330
0000
,
0000
0000
0000
0000
,
M000
0000
0000
0000
;

//--------------- dance-double - HaleyHalcyon ----------------
#NOTES:
     dance-double:
     HaleyHalcyon:
     Medium:
     6:
     0,0,0,0,0:
00000000
00000000
00000000
00000000
,
00000000
00001000
00010000
00011000
,
00100000
00010000
10000000
00100000
,
01000000
00010000
00100000
00001000
,
00010000
00000100
00001000
00000010
,
00000100
00000001
00000010
00000100
,
00001000
00000010
00010000
00000100
,
01000000
00000000
00001000
00000000
00100000
00000000
00010000
20000000
,
00000000
00200000
00000000
00000000
30000000
00000000
01300000
00000000
,
01000000
00010000
00100000
00000000
00101000
00000000
00010100
00000000
,
00001001
00000001
00000100
00000001
00000010
00000000
00000100
00000010
,
00000001
00001000
00000100
00200000
00300000
00001000
01000000
00010000
,
00000000
00100000
00100000
01000000
10000000
10000000
01000000
00010000
,
00001000
00000100
00000002
00000000
00000000
00000000
00000003
00000000
,
00001001
00001000
00001000
00000100
00000010
00000000
00000110
00000100
,
00010000
00010000
00001000
02000000
03000000
00100000
00010000
00001000
,
00000000
00100000
00100000
01000000
10000000
10000000
00010000
01000000
,
00100000
00010000
00001000
00000010
00000002
00000000
00001003
00000000
,
00010100
00011000
01001000
00011000
,
00010001
00010010
10001000
00101000
,
00001000
00010000
00000010
00100000
00001000
00010000
00000100
01000000
,
00001000
00000000
00010000
00000000
00000010
00000000
00100000
00000000
00002000
00000000
00003000
00002000
00000000
00003000
00002000
00000000
,
20003000
00000000
30000000
01000000
00100000
00000000
00100000
00001000
,
00000000
00000000
00020000
00000000
00000002
00000000
00030000
00000000
00002003
00000000
00003000
00002000
00000000
00003000
00002000
00000000
,
00003002
00000000
00000003
00000100
00000010
00000000
00010000
00200000
,
00300000
10000000
00002000
00000000
00003000
00010000
00001000
00100000
,
00000000
00001000
00010000
00000010
00000000
00010000
00001000
01000000
,
00000000
00001000
00010000
00000100
00000000
00010000
00001000
00200000
,
00000020
00000000
00000000
00300030
,
00100010
00000000
00000000
00011000
,
00100000
00010000
00100000
00010000
10000000
01000000
10000000
01000000
,
00100000
00001000
00010000
00000100
,
00000010
00000001
00000010
00000001
00001000
00000100
00001000
00000100
,
00010000
00001000
00100000
00010000
,
20000000
30000000
00100000
01000000
00002000
00003000
00200000
00300000
,
00001000
00010000
00000100
00001000
00000002
00000003
00000100
00000020
,
00000031
00000020
00000000
00000001
00000000
00000000
00000000
00000001
,
00000000
00000030
00000100
00000000
00001000
00000000
00010000
00000000
,
00000200
00000000
00000000
00000000
00000300
00000000
00010000
00000000
00002000
00000000
00003000
00002000
00000000
00003000
00002000
00000000
,
00013000
00001000
20000000
00000000
30000000
01000000
00100000
00010000
,
02000000
00000000
00000000
00000000
03000000
00000000
00001000
00000000
00020000
00000000
00030000
00020000
00000000
00030000
00020000
00000000
,
00030000
00000002
00000000
00000003
00000000
00000001
00000010
00000001
,
00002000
00003000
00000100
00010000
00002000
00003000
01000000
00010000
,
00200000
00300000
00010000
20000000
30000000
02000000
03000000
00200000
,
10000000
01000000
00010000
00001000
,
00300040
00000000
00000000
00000000
00000000
00000000
00000000
00000030
,
00000010
00001000
00000010
00000100
00000001
00000100
00000020
00000030
,
00010000
00000100
00100000
00001000
01000000
00010000
00400000
00300000
,
01000000
00100000
00010000
10000000
00100000
01000000
00001000
00010000
,
00000100
00010000
00000010
00001000
00000100
00000010
00000001
00001000
,
00000000
00000001
00000001
00000001
00000010
00001000
00010000
00100000
,
00000000
10000000
10000000
10000000
01000000
00010000
00001000
00000100
,
00000001
00001000
00000001
00001000
00000100
00010000
00000100
00010000
,
00001000
01000000
00001000
01000000
00010000
10000000
10010000
00000000
,
11000000
00110000
00001100
00000011
,
00000001
00000010
00000100
00010000
00002000
00003000
00002000
00003000
,
00002000
00003000
00002000
00003000
00002000
00003000
00002000
00003000
,
00004000
00000000
00000000
00000000
,
00003000
00000000
00011000
00001000
00100000
00010000
10000000
00100000
,
01000000
00010000
00100000
00001000
00010000
00000100
00001000
00000010
,
00000100
00000001
00000010
00000001
00001000
00000100
00000010
00000100
,
00010000
00001000
00100000
01000000
00100000
00010000
10000000
00100000
,
01000000
00010000
00100000
00001000
00100000
00000010
00010000
00001000
,
01000000
00100000
00010000
00001000
00000010
00000001
00001000
00000010
,
00010000
00000100
00000010
00000001
00001000
00000100
00001000
00000010
,
00010000
00000000
00001000
00000000
00100000
00100000
04000000
00000000
,
13000000
00100000
01000000
00001000
00010000
00000010
00001000
00000001
,
00000100
00000010
00010000
00001000
01000000
00100000
00100000
00100000
,
00400000
00000000
10300000
10000000
01000000
00100000
00010000
00100000
,
00001000
00010000
00000100
00001000
00000010
00000100
00000001
00000010
,
00000200
00000000
00010300
00001000
02000000
00000000
03001000
00010000
,
00000200
00000300
00001000
00000020
00000030
00200000
00300000
00000200
,
00000000
00000000
00000000
02000000
00000000
00000000
00000000
00000000
,
00000000
00000000
00000000
00000000
,
00000000
00000000
03000300
00000000
;
