#TITLE:A Fool Moon Night;
#SUBTITLE:;
#ARTIST:KOXX;
#TITLETRANSLIT:;
#SUBTITLETRANSLIT:;
#ARTISTTRANSLIT:;
#GENRE:;
#CREDIT:Haley Halcyon;
#MUSIC:A Fool Moon Night [3.9].ogg;
#BANNER:A Fool Moon Night [3.9].png;
#BACKGROUND:A Fool Moon Night [3.9]-bg.png;
#JACKET:A Fool Moon Night [3.9]-jacket.jpg;
#CDTITLE:cdtitle.png;
#SAMPLESTART:77.826;
#SAMPLELENGTH:13.913;
#SELECTABLE:YES;
#OFFSET:-0.435;
#BPMS:0.000=138.000
,82.000=69.000
,98.000=34.500
,98.250=100.500
,99.000=138.000
,160.000=220.000
,160.750=69.000
,161.000=690.000
,161.208=27.600
,161.250=690.000
,161.458=27.600
,161.500=690.000
,161.708=27.600
,161.750=690.000
,161.958=27.600
,162.000=690.000
,162.208=27.600
,162.250=690.000
,162.458=27.600
,162.500=690.000
,162.708=27.600
,162.750=690.000
,162.958=27.600
,163.000=690.000
,163.208=27.600
,163.250=690.000
,163.458=27.600
,163.500=690.000
,163.708=27.600
,163.750=690.000
,163.958=27.600
,164.000=690.000
,164.208=27.600
,164.250=690.000
,164.458=27.600
,164.500=690.000
,164.708=27.600
,164.750=690.000
,164.958=27.600
,165.000=690.000
,165.208=27.600
,165.250=690.000
,165.458=27.600
,165.500=690.000
,165.708=27.600
,165.750=690.000
,165.958=27.600
,166.000=690.000
,166.208=27.600
,166.250=690.000
,166.458=27.600
,166.500=690.000
,166.708=27.600
,166.750=690.000
,166.958=27.600
,167.000=690.000
,167.208=27.600
,167.250=690.000
,167.458=27.600
,167.500=690.000
,167.708=27.600
,167.750=690.000
,167.958=27.600
,168.000=690.000
,168.208=27.600
,168.250=690.000
,168.458=27.600
,168.500=690.000
,168.708=27.600
,168.750=690.000
,168.958=27.600
,169.000=690.000
,169.208=27.600
,169.250=690.000
,169.458=27.600
,169.500=690.000
,169.708=27.600
,169.750=690.000
,169.958=27.600
,170.000=690.000
,170.208=27.600
,170.250=690.000
,170.458=27.600
,170.500=690.000
,170.708=27.600
,170.750=690.000
,170.958=27.600
,171.000=690.000
,171.208=27.600
,171.250=690.000
,171.458=27.600
,171.500=690.000
,171.708=27.600
,171.750=690.000
,171.958=27.600
,172.000=690.000
,172.208=27.600
,172.250=690.000
,172.458=27.600
,172.500=690.000
,172.708=27.600
,172.750=690.000
,172.958=27.600
,173.000=690.000
,173.208=27.600
,173.250=690.000
,173.458=27.600
,173.500=690.000
,173.708=27.600
,173.750=690.000
,173.958=27.600
,174.000=690.000
,174.208=27.600
,174.250=690.000
,174.458=27.600
,174.500=690.000
,174.708=27.600
,174.750=690.000
,174.958=27.600
,175.000=690.000
,175.208=27.600
,175.250=690.000
,175.458=27.600
,175.500=690.000
,175.708=27.600
,175.750=690.000
,175.958=27.600
,176.000=690.000
,176.208=27.600
,176.250=690.000
,176.458=27.600
,176.500=690.000
,176.708=27.600
,176.750=690.000
,176.958=27.600
,177.000=690.000
,177.208=27.600
,177.250=690.000
,177.458=27.600
,177.500=690.000
,177.708=27.600
,177.750=690.000
,177.958=27.600
,178.000=690.000
,178.208=27.600
,178.250=690.000
,178.458=27.600
,178.500=690.000
,178.708=27.600
,178.750=690.000
,178.958=27.600
,179.000=690.000
,179.208=27.600
,179.250=690.000
,179.458=27.600
,179.500=690.000
,179.708=27.600
,179.750=690.000
,179.958=27.600
,180.000=690.000
,180.208=27.600
,180.250=690.000
,180.458=27.600
,180.500=690.000
,180.708=27.600
,180.750=690.000
,180.958=27.600
,181.000=690.000
,181.208=27.600
,181.250=690.000
,181.458=27.600
,181.500=690.000
,181.708=27.600
,181.750=690.000
,181.958=27.600
,182.000=690.000
,182.208=27.600
,182.250=690.000
,182.458=27.600
,182.500=690.000
,182.708=27.600
,182.750=690.000
,182.958=27.600
,183.000=690.000
,183.208=27.600
,183.250=690.000
,183.458=27.600
,183.500=690.000
,183.708=27.600
,183.750=690.000
,183.958=27.600
,184.000=690.000
,184.208=27.600
,184.250=690.000
,184.458=27.600
,184.500=690.000
,184.708=27.600
,184.750=690.000
,184.958=27.600
,185.000=690.000
,185.208=27.600
,185.250=690.000
,185.458=27.600
,185.500=690.000
,185.708=27.600
,185.750=690.000
,185.958=27.600
,186.000=690.000
,186.208=27.600
,186.250=690.000
,186.458=27.600
,186.500=690.000
,186.708=27.600
,186.750=690.000
,186.958=27.600
,187.000=690.000
,187.208=27.600
,187.250=690.000
,187.458=27.600
,187.500=690.000
,187.708=27.600
,187.750=690.000
,187.958=27.600
,188.000=690.000
,188.208=27.600
,188.250=690.000
,188.458=27.600
,188.500=690.000
,188.708=27.600
,188.750=690.000
,188.958=27.600
,189.000=690.000
,189.208=27.600
,189.250=690.000
,189.458=27.600
,189.500=690.000
,189.708=27.600
,189.750=690.000
,189.958=27.600
,190.000=690.000
,190.208=27.600
,190.250=690.000
,190.458=27.600
,190.500=690.000
,190.708=27.600
,190.750=690.000
,190.958=27.600
,191.000=690.000
,191.208=27.600
,191.250=690.000
,191.458=27.600
,191.500=690.000
,191.708=27.600
,191.750=690.000
,191.958=27.600
,192.000=690.000
,192.208=27.600
,192.250=690.000
,192.458=27.600
,192.500=690.000
,192.708=27.600
,192.750=690.000
,192.958=27.600
,193.000=690.000
,193.208=27.600
,193.250=690.000
,193.458=27.600
,193.500=690.000
,193.708=27.600
,193.750=690.000
,193.958=27.600
,194.000=690.000
,194.208=27.600
,194.250=690.000
,194.458=27.600
,194.500=690.000
,194.708=27.600
,194.750=690.000
,194.958=27.600
,195.000=690.000
,195.208=27.600
,195.250=690.000
,195.458=27.600
,195.500=690.000
,195.708=27.600
,195.750=690.000
,195.958=27.600
,196.000=690.000
,196.208=27.600
,196.250=690.000
,196.458=27.600
,196.500=690.000
,196.708=27.600
,196.750=690.000
,196.958=27.600
,197.000=690.000
,197.208=27.600
,197.250=690.000
,197.458=27.600
,197.500=690.000
,197.708=27.600
,197.750=690.000
,197.958=27.600
,198.000=690.000
,198.208=27.600
,198.250=690.000
,198.458=27.600
,198.500=690.000
,198.708=27.600
,198.750=690.000
,198.958=27.600
,199.000=690.000
,199.208=27.600
,199.250=690.000
,199.458=27.600
,199.500=690.000
,199.708=27.600
,199.750=690.000
,199.958=27.600
,200.000=690.000
,200.208=27.600
,200.250=690.000
,200.458=27.600
,200.500=690.000
,200.708=27.600
,200.750=690.000
,200.958=27.600
,201.000=690.000
,201.208=27.600
,201.250=690.000
,201.458=27.600
,201.500=690.000
,201.708=27.600
,201.750=690.000
,201.958=27.600
,202.000=690.000
,202.208=27.600
,202.250=690.000
,202.458=27.600
,202.500=690.000
,202.708=27.600
,202.750=690.000
,202.958=27.600
,203.000=690.000
,203.208=27.600
,203.250=690.000
,203.458=27.600
,203.500=690.000
,203.708=27.600
,203.750=690.000
,203.958=27.600
,204.000=690.000
,204.208=27.600
,204.250=690.000
,204.458=27.600
,204.500=690.000
,204.708=27.600
,204.750=690.000
,204.958=27.600
,205.000=690.000
,205.208=27.600
,205.250=690.000
,205.458=27.600
,205.500=690.000
,205.708=27.600
,205.750=690.000
,205.958=27.600
,206.000=690.000
,206.208=27.600
,206.250=690.000
,206.458=27.600
,206.500=690.000
,206.708=27.600
,206.750=690.000
,206.958=27.600
,207.000=690.000
,207.208=27.600
,207.250=690.000
,207.458=27.600
,207.500=690.000
,207.708=27.600
,207.750=690.000
,207.958=27.600
,208.000=690.000
,208.208=27.600
,208.250=690.000
,208.458=27.600
,208.500=690.000
,208.708=27.600
,208.750=690.000
,208.958=27.600
,209.000=690.000
,209.208=27.600
,209.250=690.000
,209.458=27.600
,209.500=690.000
,209.708=27.600
,209.750=690.000
,209.958=27.600
,210.000=690.000
,210.208=27.600
,210.250=690.000
,210.458=27.600
,210.500=690.000
,210.708=27.600
,210.750=690.000
,210.958=27.600
,211.000=690.000
,211.208=27.600
,211.250=690.000
,211.458=27.600
,211.500=690.000
,211.708=27.600
,211.750=690.000
,211.958=27.600
,212.000=690.000
,212.208=27.600
,212.250=690.000
,212.458=27.600
,212.500=690.000
,212.708=27.600
,212.750=690.000
,212.958=27.600
,213.000=690.000
,213.208=27.600
,213.250=690.000
,213.458=27.600
,213.500=690.000
,213.708=27.600
,213.750=690.000
,213.958=27.600
,214.000=690.000
,214.208=27.600
,214.250=690.000
,214.458=27.600
,214.500=690.000
,214.708=27.600
,214.750=690.000
,214.958=27.600
,215.000=690.000
,215.208=27.600
,215.250=690.000
,215.458=27.600
,215.500=690.000
,215.708=27.600
,215.750=690.000
,215.958=27.600
,216.000=690.000
,216.208=27.600
,216.250=690.000
,216.458=27.600
,216.500=690.000
,216.708=27.600
,216.750=690.000
,216.958=27.600
,217.000=690.000
,217.208=27.600
,217.250=690.000
,217.458=27.600
,217.500=690.000
,217.708=27.600
,217.750=690.000
,217.958=27.600
,218.000=690.000
,218.208=27.600
,218.250=690.000
,218.458=27.600
,218.500=690.000
,218.708=27.600
,218.750=690.000
,218.958=27.600
,219.000=690.000
,219.208=27.600
,219.250=690.000
,219.458=27.600
,219.500=690.000
,219.708=27.600
,219.750=690.000
,219.958=27.600
,220.000=690.000
,220.208=27.600
,220.250=690.000
,220.458=27.600
,220.500=690.000
,220.708=27.600
,220.750=690.000
,220.958=27.600
,221.000=690.000
,221.208=27.600
,221.250=690.000
,221.458=27.600
,221.500=690.000
,221.708=27.600
,221.750=690.000
,221.958=27.600
,222.000=690.000
,222.208=27.600
,222.250=690.000
,222.458=27.600
,222.500=690.000
,222.708=27.600
,222.750=690.000
,222.958=27.600
,223.000=690.000
,223.208=27.600
,223.250=690.000
,223.458=27.600
,223.500=690.000
,223.708=27.600
,223.750=690.000
,223.958=27.600
,224.000=690.000
,224.208=27.600
,224.250=690.000
,224.458=27.600
,224.500=690.000
,224.708=27.600
,224.750=690.000
,224.958=27.600
,225.000=138.000
,227.000=34.500
,227.167=336.000
,228.000=138.000
;
#STOPS:;
#DISPLAYBPM:138.000;
#BGCHANGES:;
#FGCHANGES:;

//--------------- dance-single - Drill Hell ----------------
#NOTES:
     dance-single:
     Drill Hell:
     Hard:
     11:
     0,0,0,0,0:
0000
0000
0000
0000
0000
0000
0000
0000
0000
0000
0000
0000
0000
0000
0000
0000
0000
0000
1000
0000
0100
0000
0010
0000
0002
0000
0000
0000
0000
0000
0000
0000
0000
1000
0000
0000
0000
0000
0000
0000
0000
0000
0010
0000
0000
0000
0000
0000
,
0100
0000
0000
1000
0000
0000
0010
0000
0100
0000
0000
1000
0000
0000
0010
0000
,
0100
0000
0000
0000
0000
0000
0000
0000
0000
1000
0000
0000
0003
0000
0000
0000
0000
0000
0001
0000
0100
0000
0010
0000
2000
0000
0000
0000
0000
0000
0000
0000
0000
0001
0000
0000
0000
0000
0000
0000
0000
0000
0010
0000
0000
0000
0000
0000
,
0100
0000
0000
0001
0000
0000
0010
0000
0100
0000
0000
0001
0000
0000
0010
0000
,
0100
0000
0000
0000
0000
0000
0000
0000
0000
0001
0000
0000
3000
0000
0000
0000
0000
0000
1000
0000
0010
0000
0100
0000
0002
0000
0000
0000
0000
0000
0000
0000
0000
0200
0000
0000
0003
0000
0000
0000
0000
0000
0301
0000
0000
0000
0000
0000
,
2001
0000
0000
0200
3000
0000
1300
0000
1002
0000
0000
0020
0003
0000
0031
0000
,
2001
0000
0000
0020
3000
0000
1030
0000
1010
0000
0000
0010
1000
0000
0100
0000
,
0110
0000
0000
0010
0001
0000
0100
0000
1010
0000
0000
1000
0000
0000
0100
0000
,
0011
0000
0000
0010
1000
0000
0010
0000
0110
0000
0000
0100
1000
0000
1000
0000
,
1001
0000
0000
0001
0100
0000
0100
0000
0110
0000
0000
0010
0001
0000
0001
0000
,
0011
0000
0000
0010
1000
0000
1000
0000
1100
0000
0000
0100
0001
0000
0001
0000
,
0101
0000
0000
0100
1000
0000
1000
0000
2002
0000
0000
0000
0000
0000
3003
0000
,
1000
0000
0000
0000
0000
0000
0001
0000
0010
0000
0100
0000
1000
0000
0000
0000
0000
0000
0000
0000
0000
0000
0000
0000
0001
0000
0000
0000
0000
0000
0001
0000
0000
0000
0000
0000
0020
0000
0000
0030
0000
0000
0200
0000
0000
0300
0000
0000
,
1000
0000
1000
0000
0020
0030
0200
0300
0001
0000
0001
0020
0030
0010
0200
0300
,
2000
3000
0010
0000
0200
0300
0001
0000
1000
0000
1000
0000
0020
0030
0200
0300
,
0001
0000
0001
0000
0020
0030
0200
0300
1000
0000
1000
0020
0030
0010
0200
0300
,
0004
0003
0040
0030
0400
0300
4000
3000
0002
0003
0001
1000
0020
0030
0200
0300
,
1000
0000
1000
0100
0020
0030
2000
3000
0100
0000
0100
0002
0003
0001
0200
0300
,
2000
3000
0010
0000
0200
0300
0001
0000
2000
3000
1000
0001
0020
0030
0200
0300
,
0001
0000
0001
0100
0020
0030
0002
0003
0100
0000
0100
2000
3000
1000
0200
0300
,
0001
0010
0100
1000
0010
0100
1000
0100
0002
0000
0000
0023
0230
0320
0230
0000
,
0000
0000
0000
2300
3020
0230
0302
0000
0000
0000
0000
0023
2030
3020
0032
0000
,
0000
0000
0000
0203
2300
3200
0302
0000
1003
0000
1000
0010
1000
0100
1000
0000
,
0001
0000
0001
0010
0001
0100
0001
0000
0100
0000
0100
1000
0100
0001
0100
0000
,
0010
0000
0010
0001
0010
1000
0020
0000
2030
3002
0000
0000
1003
0000
1000
0100
,
0010
0000
0001
0000
0100
0000
0100
1000
0100
0000
0001
0000
0020
0030
0200
0300
,
2000
3000
0002
0003
2000
3000
1000
0010
0200
0300
1000
0000
0100
0000
0001
0010
,
0100
0000
0020
0030
0002
0003
1000
0010
0100
0000
0020
0030
2000
3000
0100
0010
,
0200
0300
2000
3000
0002
0003
0100
0010
0200
0300
0002
0003
1000
0000
0100
0010
,
0200
0300
2000
3000
0001
0000
0100
2000
3000
0100
0002
0003
0020
0030
0100
0000
,
2000
3000
0001
0000
2000
3000
0100
0010
0200
0300
2000
3000
0002
0003
0100
0010
,
0200
0300
0002
0003
2000
3000
0100
0002
0003
0100
2000
3000
0001
0000
1000
0100
,
0010
0001
0100
0010
1000
0000
0000
0001
0000
0000
0001
0000
0100
0000
0000
0010
,
0000
0000
1000
0000
0100
0000
0000
0100
0000
0000
0001
0000
0100
0000
1000
0000
,
0010
0000
0100
0000
0002
0000
0003
0002
0000
0003
2000
3000
2000
0000
3000
2000
,
0000
3000
2000
3000
0002
0000
0003
0002
0000
0003
0020
0030
0020
0000
0030
0200
,
0000
0300
0200
0300
1000
0000
0000
0001
0000
0000
0001
0000
0100
0000
0000
0010
,
0000
0000
0001
0000
0010
0000
0000
0010
0000
0000
1000
0000
0100
0000
0001
0000
,
0100
0000
1000
0000
0002
0000
0003
0002
0000
0003
2000
3000
2000
0000
3000
2000
,
0000
3000
2000
3000
0010
1000
0100
0010
0001
0100
0010
1000
0002
0000
0000
0003
,
1000
0000
0000
0000
1000
0001
1000
0001
1000
0001
1000
0001
1000
0001
1000
0001
,
1000
0001
1000
0001
1000
0001
1000
0001
1000
0001
1000
0001
0010
0001
0010
0001
,
0010
0001
0010
0001
1000
0001
1000
0001
1000
0001
1000
0001
0010
0001
0010
0001
,
0010
0001
0010
0001
0100
0001
0100
0001
0100
0001
0100
0001
1000
0001
1000
0001
,
1000
0001
1000
0001
0100
0010
0100
0010
0100
0010
0100
0010
0100
0010
0100
0010
,
0100
0010
0100
0010
1000
0010
1000
0010
1000
0010
1000
0010
1000
0010
1000
0010
,
1000
0010
1000
0010
1000
0100
1000
0100
1000
0100
1000
0100
0010
0100
0010
0100
,
0010
0100
0010
0100
0001
0100
0001
0100
0001
0100
0001
0100
0010
0100
0010
0100
,
0040
0000
0000
0030
0001
1000
0001
1000
0001
1000
0001
1000
0001
1000
0001
1000
,
0001
1000
0001
1000
0001
1000
0001
1000
0001
1000
0001
1000
0010
1000
0010
1000
,
0010
1000
0010
1000
0001
1000
0001
1000
0001
1000
0001
1000
0010
1000
0010
1000
,
0010
1000
0010
1000
0100
1000
0100
1000
0100
1000
0100
1000
0001
1000
0001
0100
,
0001
0100
0001
0100
0010
0100
0010
0100
0010
0100
0010
0100
0010
0100
0010
0100
,
0010
0100
0010
0100
0010
0100
0010
0100
0010
0100
0010
0100
0010
0100
0010
0100
,
0010
0100
0010
0100
0001
1000
0001
1000
0001
1000
0001
1000
0100
0010
0100
0010
,
0100
0010
0100
0010
0001
1000
0001
1000
0001
1000
0001
1000
0010
0100
0010
0100
,
0010
0100
0010
0100
0001
0000
1000
0100
0000
0010
0100
1000
0020
0000
0000
0000
,
1030
0000
0000
0000
;

//--------------- dance-single - Jack Hell ----------------
#NOTES:
     dance-single:
     Jack Hell:
     Challenge:
     15:
     0,0,0,0,0:
0000
0000
0000
0000
0000
0000
0000
0000
0000
0000
0000
0000
0000
0000
0000
0000
0000
0000
1000
0000
0100
0000
0010
0000
0002
0000
0000
0000
0000
0000
0000
0000
0000
1000
0000
0000
0000
0000
0000
0000
0000
0000
0010
0000
0000
0000
0000
0000
,
0100
0000
0000
1000
0000
0000
0010
0000
0100
0000
0000
1000
0000
0000
0010
0000
,
0100
0000
0000
0000
0000
0000
0000
0000
0000
1000
0000
0000
0003
0000
0000
0000
0000
0000
0001
0000
0100
0000
0010
0000
2000
0000
0000
0000
0000
0000
0000
0000
0000
0001
0000
0000
0000
0000
0000
0000
0000
0000
0010
0000
0000
0000
0000
0000
,
0100
0000
0000
0001
0000
0000
0010
0000
0100
0000
0000
0001
0000
0000
0010
0000
,
0100
0000
0000
0000
0000
0000
0000
0000
0000
0001
0000
0000
3000
0000
0000
0000
0000
0000
1000
0000
0010
0000
0100
0000
0002
0000
0000
0000
0000
0000
0000
0000
0000
0200
0000
0000
0003
0000
0000
0000
0000
0000
0301
0000
0000
0000
0000
0000
,
2001
0000
0000
0200
3000
0000
1300
0000
1002
0000
0000
0020
0003
0000
0031
0000
,
2001
0000
0000
0020
3000
0000
1030
0000
1010
0000
0000
0010
1000
0000
0100
0000
,
0110
0000
0000
0010
0001
0000
0100
0000
1010
0000
0000
1000
0000
0000
0100
0000
,
0011
0000
0000
0010
1000
0000
0010
0000
0110
0000
0000
0100
1000
0000
1000
0000
,
1001
0000
0000
0001
0100
0000
0100
0000
0110
0000
0000
0010
0001
0000
0001
0000
,
0011
0000
0000
0010
1000
0000
1000
0000
1100
0000
0000
0100
0001
0000
0001
0000
,
0101
0000
0000
0100
1000
0000
1000
0000
2002
0000
0000
0000
0000
0000
3003
0000
,
1000
0000
0000
0000
0000
0000
0001
0000
0010
0000
0100
0000
1000
0000
0000
0000
0000
0000
0000
0000
0000
0000
0000
0000
0001
0000
0000
0000
0000
0000
0001
0000
0000
0000
0000
0000
0020
0000
0000
0030
0000
0000
0200
0000
0000
0300
0000
0000
,
1000
0000
1000
0000
0020
0030
0200
0300
0001
0000
0001
0020
0030
0010
0200
0300
,
2000
3000
0010
0000
0200
0300
0001
0000
1000
0000
1000
0000
0020
0030
0200
0300
,
0001
0000
0001
0000
0020
0030
0200
0300
1000
0000
1000
0020
0030
0010
0200
0300
,
0004
0003
0040
0030
0400
0300
4000
3000
0002
0003
0001
1000
0020
0030
0200
0300
,
1000
0000
1000
0100
0020
0030
2000
3000
0100
0000
0100
0002
0003
0001
0200
0300
,
2000
3000
0010
0000
0200
0300
0001
0000
2000
3000
1000
0001
0020
0030
0200
0300
,
0001
0000
0001
0100
0020
0030
0002
0003
0100
0000
0100
2000
3000
1000
0200
0300
,
0001
0010
0100
1000
0010
0100
1000
0100
0002
0000
0000
0023
0230
0320
0230
0000
,
0000
0000
0000
2300
3020
0230
0302
0000
0000
0000
0000
0023
2030
3020
0032
0000
,
0000
0000
0000
0203
2300
3200
0302
0000
1003
0000
1000
0010
1000
0100
1000
0000
,
0001
0000
0001
0010
0001
0100
0001
0000
0100
0000
0100
1000
0100
0001
0100
0000
,
0010
0000
0010
0001
0010
1000
0020
0000
2030
3002
0000
0000
1003
0000
1000
0100
,
0010
0000
0001
0000
0100
0000
0100
1000
0100
0000
0001
0000
0020
0030
0200
0300
,
2000
3000
0002
0003
2000
3000
1000
0010
0200
0300
1000
0000
0100
0000
0001
0010
,
0100
0000
0020
0030
0002
0003
1000
0010
0100
0000
0020
0030
2000
3000
0100
0010
,
0200
0300
2000
3000
0002
0003
0100
0010
0200
0300
0002
0003
1000
0000
0100
0010
,
0200
0300
2000
3000
0001
0000
0100
2000
3000
0100
0002
0003
0020
0030
0100
0000
,
2000
3000
0001
0000
2000
3000
0100
0010
0200
0300
2000
3000
0002
0003
0100
0010
,
0200
0300
0002
0003
2000
3000
0100
0002
0003
0100
2000
3000
0001
0000
1000
0100
,
0010
0001
0100
0010
1000
0000
0000
0001
0000
0000
0001
0000
0100
0000
0000
0010
,
0000
0000
1000
0000
0100
0000
0000
0100
0000
0000
0001
0000
0100
0000
1000
0000
,
0010
0000
0100
0000
0002
0000
0003
0002
0000
0003
2000
3000
2000
0000
3000
2000
,
0000
3000
2000
3000
0002
0000
0003
0002
0000
0003
0020
0030
0020
0000
0030
0200
,
0000
0300
0200
0300
1000
0000
0000
0001
0000
0000
0001
0000
0100
0000
0000
0010
,
0000
0000
0001
0000
0010
0000
0000
0010
0000
0000
1000
0000
0100
0000
0001
0000
,
0100
0000
1000
0000
0002
0000
0003
0002
0000
0003
2000
3000
2000
0000
3000
2000
,
0000
3000
2000
3000
0010
1000
0100
0010
0001
0100
0010
1000
0002
0000
0000
0003
,
1000
0000
0000
0000
0000
0000
0000
0000
0000
0000
0000
0000
0000
0000
0000
0000
0000
0000
0000
0000
0000
0000
0000
0000
0200
0000
0000
0000
0000
0300
0200
0000
0000
0000
0300
0000
0200
0000
0000
0300
0000
0000
0200
0000
0300
0000
0000
0000
0200
0300
0000
0000
0000
0000
0200
0000
0300
0000
0000
0000
0200
0000
0000
0300
0000
0000
0200
0000
0000
0000
0300
0000
0200
0000
0000
0000
0000
0300
0200
0000
0000
0000
0300
0000
0200
0000
0000
0300
0000
0000
0200
0000
0300
0000
0000
0000
,
0200
0300
0000
0000
0000
0000
0200
0000
0300
0000
0000
0000
0200
0000
0000
0300
0000
0000
0200
0000
0000
0000
0300
0000
0200
0000
0000
0000
0000
0300
0200
0000
0000
0000
0300
0000
0200
0000
0000
0300
0000
0000
0200
0000
0300
0000
0000
0000
0200
0300
0000
0000
0000
0000
0200
0000
0300
0000
0000
0000
0200
0000
0000
0300
0000
0000
0200
0000
0000
0000
0300
0000
0020
0000
0000
0030
0000
0000
0020
0000
0000
0030
0000
0000
0020
0000
0000
0030
0000
0000
0020
0000
0000
0030
0000
0000
,
0020
0030
0020
0030
0020
0030
0020
0030
0100
0000
0100
0000
0100
0000
0100
0000
0100
0000
0100
0000
0100
0000
0100
0000
0002
0003
0200
0300
0002
0003
0200
0300
,
0002
0003
0200
0300
0002
0003
0200
0300
0010
0000
0100
0000
0010
0000
0100
0000
0010
0000
0100
0000
0010
0000
0100
0000
2000
3000
0200
0300
2000
3000
0200
0300
,
2000
0000
0000
3000
0000
0000
0200
0000
0000
0300
0000
0000
2000
0000
0000
3000
0000
0000
0200
0000
0000
0300
0000
0000
0200
0300
0000
0000
0000
0000
0200
0000
0300
0000
0000
0000
0200
0000
0000
0300
0000
0000
0200
0000
0000
0000
0300
0000
0200
0000
0300
0000
0000
0000
0200
0000
0000
0300
0000
0000
0200
0000
0000
0000
0300
0000
0200
0000
0000
0000
0000
0300
0200
0300
0000
0000
0000
0000
0200
0000
0300
0000
0000
0000
0200
0000
0000
0300
0000
0000
0200
0000
0000
0000
0300
0000
,
0200
0000
0300
0000
0000
0000
0200
0000
0000
0300
0000
0000
0200
0000
0000
0000
0300
0000
0200
0000
0000
0000
0000
0300
0020
0000
0000
0000
0000
0030
0020
0000
0000
0000
0030
0000
0020
0000
0000
0030
0000
0000
0020
0000
0030
0000
0000
0000
0020
0000
0000
0000
0030
0000
0020
0000
0000
0030
0000
0000
0020
0000
0030
0000
0000
0000
0020
0030
0000
0000
0000
0000
0020
0000
0000
0000
0000
0030
0020
0000
0000
0000
0030
0000
0020
0000
0000
0030
0000
0000
0020
0000
0030
0000
0000
0000
,
0020
0000
0000
0000
0030
0000
0020
0000
0000
0030
0000
0000
0020
0000
0030
0000
0000
0000
0020
0030
0000
0000
0000
0000
0002
0000
0000
0000
0003
0000
0020
0030
0000
0000
0000
0000
0002
0000
0000
0003
0000
0000
0020
0000
0030
0000
0000
0000
0002
0000
0003
0000
0000
0000
0020
0000
0000
0030
0000
0000
0002
0003
0000
0000
0000
0000
0020
0000
0000
0000
0030
0000
0200
0300
0000
0000
0000
0000
0020
0000
0000
0000
0030
0000
0200
0000
0300
0000
0000
0000
0020
0000
0000
0030
0000
0000
,
0200
0000
0000
0300
0000
0000
0020
0000
0030
0000
0000
0000
0200
0000
0000
0000
0300
0000
0020
0030
0000
0000
0000
0000
2000
0000
0000
0000
3000
0000
0020
0030
0000
0000
0000
0000
2000
0000
0000
3000
0000
0000
0020
0000
0030
0000
0000
0000
2000
0000
3000
0000
0000
0000
0020
0000
0000
0030
0000
0000
2000
3000
0000
0000
0000
0000
0020
0000
0000
0000
0030
0000
0002
0003
0000
0000
0000
0000
2000
0000
0000
0000
3000
0000
0002
0000
0003
0000
0000
0000
2000
0000
0000
3000
0000
0000
,
0004
0000
0000
0000
0000
0000
0000
0000
0000
0000
0000
0000
0000
0000
0000
0000
0000
0000
0000
0000
0000
0000
0000
0000
0203
0000
0000
0000
0000
0300
0100
0000
0000
0000
0000
0000
0200
0000
0000
0000
0000
0300
0100
0000
0000
0000
0000
0000
0200
0000
0000
0000
0000
0300
0100
0000
0000
0000
0000
0000
0200
0000
0000
0000
0000
0300
0100
0000
0000
0000
0000
0000
0200
0000
0000
0000
0000
0300
0100
0000
0000
0000
0000
0000
0200
0000
0000
0000
0000
0300
0100
0000
0000
0000
0000
0000
,
0200
0000
0000
0000
0000
0300
0100
0000
0000
0000
0000
0000
0200
0000
0000
0000
0000
0300
0100
0000
0000
0000
0000
0000
0200
0000
0000
0000
0000
0300
0100
0000
0000
0000
0000
0000
0200
0000
0000
0000
0000
0300
0100
0000
0000
0000
0000
0000
0200
0000
0000
0000
0000
0300
0100
0000
0000
0000
0000
0000
0200
0000
0000
0000
0000
0300
0100
0000
0000
0000
0000
0000
0020
0000
0030
0000
0000
0000
0020
0000
0000
0030
0000
0000
0020
0000
0000
0000
0030
0000
0020
0000
0000
0000
0000
0030
,
0020
0000
0000
0000
0030
0000
0020
0000
0000
0030
0000
0000
0020
0000
0030
0000
0000
0000
0020
0030
0000
0000
0000
0000
0200
0300
0000
0000
0000
0000
0200
0000
0000
0300
0000
0000
0200
0000
0000
0000
0000
0300
0200
0000
0000
0300
0000
0000
0200
0300
0000
0000
0000
0000
0200
0000
0000
0300
0000
0000
0200
0000
0000
0000
0000
0300
0200
0000
0000
0300
0000
0000
2000
3000
0000
0000
0000
0000
0200
0300
0000
0000
0000
0000
2000
0000
0000
3000
0000
0000
0200
0000
0000
0300
0000
0000
,
2000
0000
0000
0000
0000
3000
0200
0000
0000
0000
0000
0300
2000
0000
0000
3000
0000
0000
0200
0000
0000
0300
0000
0000
0020
0030
0000
0000
0000
0000
0200
0300
0000
0000
0000
0000
0020
0000
0000
0030
0000
0000
0200
0000
0000
0300
0000
0000
0020
0000
0000
0000
0000
0030
0200
0000
0000
0000
0000
0300
0020
0000
0000
0030
0000
0000
0200
0000
0000
0300
0000
0000
0002
0003
0000
0000
0000
0000
0200
0300
0000
0000
0000
0000
0002
0000
0000
0003
0000
0000
0200
0000
0000
0300
0000
0000
,
0002
0000
0000
0000
0000
0003
0200
0000
0000
0000
0000
0300
0002
0000
0000
0003
0000
0000
0200
0000
0000
0300
0000
0000
0010
0000
0000
0000
0000
0000
0010
0000
0000
0000
0000
0000
0010
0000
0000
0000
0000
0000
0010
0000
0000
0000
0000
0000
0020
0030
0000
0000
0000
0000
0020
0030
0000
0000
0000
0000
0020
0030
0000
0000
0000
0000
0020
0030
0000
0000
0000
0000
0020
0000
0030
0000
0000
0000
0020
0000
0030
0000
0000
0000
0020
0000
0030
0000
0000
0000
0020
0000
0030
0000
0000
0000
,
0020
0000
0000
0030
0000
0000
0020
0000
0000
0030
0000
0000
0020
0000
0000
0030
0000
0000
0020
0000
0000
0030
0000
0000
0020
0000
0000
0000
0030
0000
0020
0000
0000
0000
0030
0000
0020
0000
0000
0000
0030
0000
0020
0000
0000
0000
0030
0000
0020
0000
0000
0000
0000
0030
0020
0000
0000
0000
0000
0030
0020
0000
0000
0000
0000
0030
0020
0000
0000
0000
0000
0030
0020
0000
0000
0000
0030
0000
0020
0000
0000
0000
0030
0000
0020
0000
0000
0000
0030
0000
0020
0000
0000
0000
0030
0000
,
0020
0000
0000
0030
0000
0000
0020
0000
0030
0000
0000
0000
0020
0030
0000
0000
0000
0000
0010
0000
0000
0000
0000
0000
2020
3030
0000
0000
0000
0000
0002
0003
0000
0000
0000
0000
2020
0000
3030
0000
0000
0000
0002
0000
0003
0000
0000
0000
2020
0000
0000
3030
0000
0000
0002
0000
0000
0003
0000
0000
2020
0000
0000
0000
3030
0000
0002
0000
0000
0000
0003
0000
2200
0000
0000
0000
0000
3300
0002
0000
0000
0000
0000
0003
2200
0000
0000
0000
0000
0000
3302
0000
0000
0000
0000
0000
,
2203
0000
0000
0000
0000
0000
0000
0000
0000
0000
0000
0000
0002
0000
3300
0000
0000
0000
0000
0000
0000
0000
0000
0000
2200
0000
0003
0000
0000
0000
0000
0000
0000
0000
0000
0000
0002
0000
0000
0000
3300
0000
0000
0000
0000
0000
0000
0000
1000
0000
0000
0000
0003
0000
0000
0000
0000
0000
0000
0000
0101
0000
0000
0000
0000
0000
0000
0000
0000
0000
0000
0000
2000
0000
0000
3000
0000
0000
0000
0000
0000
0000
0000
0000
0202
0000
0000
0303
0000
0000
0000
0000
0000
0000
0000
0000
2000
0000
0000
0000
0000
0000
3000
0000
0000
0000
0000
0000
0202
0000
0000
0000
0000
0000
0303
0000
0000
0000
0000
0000
2000
0000
0000
0000
0000
0000
0000
0000
0000
3000
0000
0000
0202
0000
0000
0000
0000
0000
0000
0000
0000
0303
0000
0000
1000
0000
0000
0000
0000
0000
0000
0000
0000
0000
0000
0000
0011
0000
0000
0000
0000
0000
0000
0000
0000
0000
0000
0000
2000
0000
0000
3000
0000
0000
0000
0000
0000
0000
0000
0000
0022
0000
0000
0033
0000
0000
0000
0000
0000
0000
0000
0000
,
2000
0000
3000
0000
0022
0000
0033
0000
2000
0000
0000
3000
0022
0000
0000
0033
1000
0000
0000
0000
0000
0000
0000
0000
0001
0000
0000
0000
0100
0000
0000
0000
0000
0000
0000
0000
0010
0000
0000
0000
0100
0000
0000
0000
0001
0000
0000
0000
0020
0000
0000
0000
0000
0000
0000
0000
0000
0000
0000
0000
0000
0000
0000
0000
,
0031
0000
0000
0000
;

//--------------- dance-single - Bongo Cat ----------------
#NOTES:
     dance-single:
     Bongo Cat:
     Edit:
     20:
     0,0,0,0,0:
0000
0000
0000
0000
,
0000
0000
0000
0000
,
0000
0000
0000
0000
,
0000
0000
0000
0000
,
0000
0000
0000
0000
,
0000
0000
0000
0000
,
0000
0000
0000
0000
,
0000
0000
0000
0000
,
0000
0000
0000
0000
,
0000
0000
0000
0000
,
0000
0000
0000
0000
,
0000
0000
0000
0000
,
0000
0000
0000
0000
,
0000
0000
0000
0000
,
0000
0000
0000
0000
,
0000
0000
0000
0000
,
0000
0000
0000
0000
,
0000
0000
0000
0000
,
0000
0000
0000
0000
,
0000
0000
0000
0000
,
0000
0000
0000
0000
,
0000
0000
0000
0000
,
0000
0000
0000
0000
,
0000
0000
0000
0000
,
0000
0000
0000
0000
,
0000
0000
0000
0000
,
0000
0000
0000
0000
,
0000
0000
0000
0000
,
0000
0000
0000
0000
,
0000
0000
0000
0000
,
0000
0000
0000
0000
,
0000
0000
0000
0000
,
0000
0000
0000
0000
,
0000
0000
0000
0000
,
0000
0000
0000
0000
,
0000
0000
0000
0000
,
0000
0000
0000
0000
,
0000
0000
0000
0000
,
0000
0000
0000
0000
,
0000
0000
0000
0000
,
0000
0000
0000
0000
0000
0000
0000
0000
0000
0000
0000
0000
0000
0000
0000
0000
0000
0000
0000
0000
0000
0000
0000
0000
0000
0000
0000
0000
0000
0000
0000
0000
0000
0000
0000
0000
0000
0000
0000
0000
0000
0000
0000
0000
0000
0000
0000
0000
1111
0000
0000
0000
0000
0000
0000
0000
0000
0000
0000
0000
0111
1000
0000
0000
0000
0000
0000
0000
0000
0000
0000
0000
0011
1100
0000
0000
0000
0000
0000
0000
0000
0000
0000
0000
0001
1110
0000
0000
0000
0000
0000
0000
0000
0000
0000
0000
0000
1111
0000
0000
0000
0000
0000
0000
0000
0000
0000
0000
1000
0111
0000
0000
0000
0000
0000
0000
0000
0000
0000
0000
1100
0011
0000
0000
0000
0000
0000
0000
0000
0000
0000
0000
1110
0001
0000
0000
0000
0000
0000
0000
0000
0000
0000
0000
1111
0000
0000
0000
0000
0000
0000
0000
0000
0000
0000
0000
0111
1000
0000
0000
0000
0000
0000
0000
0000
0000
0000
0000
0011
1100
0000
0000
0000
0000
0000
0000
0000
0000
0000
0000
0001
1110
0000
0000
0000
0000
0000
0000
0000
0000
0000
0000
,
0000
1111
0000
0000
0000
0000
0000
0000
0000
0000
0000
0000
1000
0111
0000
0000
0000
0000
0000
0000
0000
0000
0000
0000
1100
0011
0000
0000
0000
0000
0000
0000
0000
0000
0000
0000
1110
0001
0000
0000
0000
0000
0000
0000
0000
0000
0000
0000
1111
0000
0000
0000
0000
0000
0000
0000
0000
0000
0000
0000
0111
1000
0000
0000
0000
0000
0000
0000
0000
0000
0000
0000
0011
1100
0000
0000
0000
0000
0000
0000
0000
0000
0000
0000
0001
1110
0000
0000
0000
0000
0000
0000
0000
0000
0000
0000
0000
1111
0000
0000
0000
0000
0000
0000
0000
0000
0000
0000
1000
0111
0000
0000
0000
0000
0000
0000
0000
0000
0000
0000
1100
0011
0000
0000
0000
0000
0000
0000
0000
0000
0000
0000
1110
0001
0000
0000
0000
0000
0000
0000
0000
0000
0000
0000
1111
0000
0000
0000
0000
0000
0000
0000
0000
0000
0000
0000
1011
0100
0000
0000
0000
0000
0000
0000
0000
0000
0000
0000
0001
1110
0000
0000
0000
0000
0000
0000
0000
0000
0000
0000
0100
1011
0000
0000
0000
0000
0000
0000
0000
0000
0000
0000
,
1110
0001
0000
0000
0000
0000
0000
0000
0000
0000
0000
0000
0100
1011
0000
0000
0000
0000
0000
0000
0000
0000
0000
0000
0001
1110
0000
0000
0000
0000
0000
0000
0000
0000
0000
0000
1011
0100
0000
0000
0000
0000
0000
0000
0000
0000
0000
0000
1100
0000
0000
0000
0000
0000
0000
0000
0000
0000
0000
0000
1100
0000
0000
0000
0000
0000
0000
0000
0000
0000
0000
0000
1100
0000
0000
0000
0000
0000
0000
0000
0000
0000
0000
0000
1100
0000
0000
0000
0000
0000
0000
0000
0000
0000
0000
0000
1100
0000
0000
0000
0000
0000
0000
0000
0000
0000
0000
0000
1100
0000
0000
0000
0000
0000
0000
0000
0000
0000
0000
0000
1100
0000
0000
0000
0000
0000
0000
0000
0000
0000
0000
0000
1100
0000
0000
0000
0000
0000
0000
0000
0000
0000
0000
0000
0011
0000
0000
0000
0000
0000
0000
0000
0000
0000
0000
0000
0011
0000
0000
0000
0000
0000
0000
0000
0000
0000
0000
0000
0011
0000
0000
0000
0000
0000
0000
0000
0000
0000
0000
0000
0011
0000
0000
0000
0000
0000
0000
0000
0000
0000
0000
0000
,
0011
0011
0011
0011
1000
0010
1000
0010
1000
0010
1000
0010
0100
0001
0100
0001
,
0100
0000
0000
0000
0000
0000
0000
0000
0000
0000
0000
0000
0001
0000
0000
0000
0000
0000
0000
0000
0000
0000
0000
0000
0100
0000
0000
0000
0000
0000
0000
0000
0000
0000
0000
0000
0001
0000
0000
0000
0000
0000
0000
0000
0000
0000
0000
0000
1100
0011
0000
0000
0000
0000
0000
0000
0000
0000
0000
0000
0110
1001
0000
0000
0000
0000
0000
0000
0000
0000
0000
0000
0011
1100
0000
0000
0000
0000
0000
0000
0000
0000
0000
0000
0001
1110
0000
0000
0000
0000
0000
0000
0000
0000
0000
0000
0000
1111
0000
0000
0000
0000
0000
0000
0000
0000
0000
0000
0000
1111
0000
0000
0000
0000
0000
0000
0000
0000
0000
0000
0000
1111
0000
0000
0000
0000
0000
0000
0000
0000
0000
0000
1000
0111
0000
0000
0000
0000
0000
0000
0000
0000
0000
0000
1100
0011
0000
0000
0000
0000
0000
0000
0000
0000
0000
0000
0110
1001
0000
0000
0000
0000
0000
0000
0000
0000
0000
0000
0011
1100
0000
0000
0000
0000
0000
0000
0000
0000
0000
0000
0001
1110
0000
0000
0000
0000
0000
0000
0000
0000
0000
0000
,
0000
1111
0000
0000
0000
0000
0000
0000
0000
0000
0000
0000
0000
1111
0000
0000
0000
0000
0000
0000
0000
0000
0000
0000
0000
1111
0000
0000
0000
0000
0000
0000
0000
0000
0000
0000
1000
0111
0000
0000
0000
0000
0000
0000
0000
0000
0000
0000
1100
0011
0000
0000
0000
0000
0000
0000
0000
0000
0000
0000
1110
0001
0000
0000
0000
0000
0000
0000
0000
0000
0000
0000
1111
0000
0000
0000
0000
0000
0000
0000
0000
0000
0000
0000
1111
0000
0000
0000
0000
0000
0000
0000
0000
0000
0000
0000
0111
1000
0000
0000
0000
0000
0000
0000
0000
0000
0000
0000
0011
1100
0000
0000
0000
0000
0000
0000
0000
0000
0000
0000
0000
1111
0000
0000
0000
0000
0000
0000
0000
0000
0000
0000
1000
0111
0000
0000
0000
0000
0000
0000
0000
0000
0000
0000
1100
0011
0000
0000
0000
0000
0000
0000
0000
0000
0000
0000
1110
0001
0000
0000
0000
0000
0000
0000
0000
0000
0000
0000
1111
0000
0000
0000
0000
0000
0000
0000
0000
0000
0000
0000
1111
0000
0000
0000
0000
0000
0000
0000
0000
0000
0000
0000
,
0111
1000
0000
0000
0000
0000
0000
0000
0000
0000
0000
0000
0011
1100
0000
0000
0000
0000
0000
0000
0000
0000
0000
0000
0001
1110
0000
0000
0000
0000
0000
0000
0000
0000
0000
0000
1000
0111
0000
0000
0000
0000
0000
0000
0000
0000
0000
0000
1000
0100
0000
0000
0000
0000
0000
0000
0000
0000
0000
0000
0100
1000
0000
0000
0000
0000
0000
0000
0000
0000
0000
0000
1000
0100
0000
0000
0000
0000
0000
0000
0000
0000
0000
0000
0100
1000
0000
0000
0000
0000
0000
0000
0000
0000
0000
0000
1000
0100
0000
0000
0000
0000
0000
0000
0000
0000
0000
0000
0100
1000
0000
0000
0000
0000
0000
0000
0000
0000
0000
0000
1000
0100
0000
0000
0000
0000
0000
0000
0000
0000
0000
0000
0100
1000
0000
0000
0000
0000
0000
0000
0000
0000
0000
0000
0001
0010
0000
0000
0000
0000
0000
0000
0000
0000
0000
0000
0010
0001
0000
0000
0000
0000
0000
0000
0000
0000
0000
0000
0001
0010
0000
0000
0000
0000
0000
0000
0000
0000
0000
0000
0010
0001
0000
0000
0000
0000
0000
0000
0000
0000
0000
0000
,
0001
0010
0000
0000
0000
0000
0000
0000
0000
0000
0000
0000
0010
0001
0000
0000
0000
0000
0000
0000
0000
0000
0000
0000
0001
0010
0000
0000
0000
0000
0000
0000
0000
0000
0000
0000
0010
0001
0000
0000
0000
0000
0000
0000
0000
0000
0000
0000
1000
0100
0000
0000
0000
0000
0000
0000
0000
0000
0000
0000
0010
0001
0000
0000
0000
0000
0000
0000
0000
0000
0000
0000
0100
1000
0000
0000
0000
0000
0000
0000
0000
0000
0000
0000
0001
0010
0000
0000
0000
0000
0000
0000
0000
0000
0000
0000
1000
0100
0000
0000
0000
0000
0000
0000
0000
0000
0000
0000
0010
0001
0000
0000
0000
0000
0000
0000
0000
0000
0000
0000
0100
1000
0000
0000
0000
0000
0000
0000
0000
0000
0000
0000
0001
0010
0000
0000
0000
0000
0000
0000
0000
0000
0000
0000
1000
0100
0000
0000
0000
0000
0000
0000
0000
0000
0000
0000
0010
0001
0000
0000
0000
0000
0000
0000
0000
0000
0000
0000
0100
1000
0000
0000
0000
0000
0000
0000
0000
0000
0000
0000
0001
0010
0000
0000
0000
0000
0000
0000
0000
0000
0000
0000
,
1100
0000
0000
0000
0000
0000
0000
0000
0000
0000
0000
0000
1001
0000
0000
0000
0000
0000
0000
0000
0000
0000
0000
0000
1001
0000
0000
0000
0000
0000
0000
0000
0000
0000
0000
0000
1001
0000
0000
0000
0000
0000
0000
0000
0000
0000
0000
0000
1010
0101
0000
0000
0000
0000
0000
0000
0000
0000
0000
0000
0101
1010
0000
0000
0000
0000
0000
0000
0000
0000
0000
0000
1010
0101
0000
0000
0000
0000
0000
0000
0000
0000
0000
0000
0101
1010
0000
0000
0000
0000
0000
0000
0000
0000
0000
0000
1010
0101
0000
0000
0000
0000
0000
0000
0000
0000
0000
0000
0101
1010
0000
0000
0000
0000
0000
0000
0000
0000
0000
0000
1010
0101
0000
0000
0000
0000
0000
0000
0000
0000
0000
0000
0101
1010
0000
0000
0000
0000
0000
0000
0000
0000
0000
0000
1010
0101
0000
0000
0000
0000
0000
0000
0000
0000
0000
0000
0101
1010
0000
0000
0000
0000
0000
0000
0000
0000
0000
0000
1010
0101
0000
0000
0000
0000
0000
0000
0000
0000
0000
0000
0101
1010
0000
0000
0000
0000
0000
0000
0000
0000
0000
0000
,
1010
0101
0000
0000
0000
0000
0000
0000
0000
0000
0000
0000
0101
1010
0000
0000
0000
0000
0000
0000
0000
0000
0000
0000
1010
0101
0000
0000
0000
0000
0000
0000
0000
0000
0000
0000
0101
1010
0000
0000
0000
0000
0000
0000
0000
0000
0000
0000
1010
0101
0000
0000
0000
0000
0000
0000
0000
0000
0000
0000
0101
1010
0000
0000
0000
0000
0000
0000
0000
0000
0000
0000
1010
0101
0000
0000
0000
0000
0000
0000
0000
0000
0000
0000
0101
1010
0000
0000
0000
0000
0000
0000
0000
0000
0000
0000
1010
0101
0000
0000
0000
0000
0000
0000
0000
0000
0000
0000
0101
1010
0000
0000
0000
0000
0000
0000
0000
0000
0000
0000
1010
0101
0000
0000
0000
0000
0000
0000
0000
0000
0000
0000
0101
1010
0000
0000
0000
0000
0000
0000
0000
0000
0000
0000
1010
0101
0000
0000
0000
0000
0000
0000
0000
0000
0000
0000
1010
0101
0000
0000
0000
0000
0000
0000
0000
0000
0000
0000
1010
0101
0000
0000
0000
0000
0000
0000
0000
0000
0000
0000
1010
0101
0000
0000
0000
0000
0000
0000
0000
0000
0000
0000
,
1010
0101
0000
0000
0000
0000
0000
0000
0000
0000
0000
0000
1010
0101
0000
0000
0000
0000
0000
0000
0000
0000
0000
0000
1010
0101
0000
0000
0000
0000
0000
0000
0000
0000
0000
0000
1010
0101
0000
0000
0000
0000
0000
0000
0000
0000
0000
0000
1000
0100
0000
0000
0000
0000
0000
0000
0000
0000
0000
0000
1000
0100
0000
0000
0000
0000
0000
0000
0000
0000
0000
0000
1000
0100
0000
0000
0000
0000
0000
0000
0000
0000
0000
0000
1000
0100
0000
0000
0000
0000
0000
0000
0000
0000
0000
0000
1000
0100
0000
0000
0000
0000
0000
0000
0000
0000
0000
0000
1000
0100
0000
0000
0000
0000
0000
0000
0000
0000
0000
0000
1000
0100
0000
0000
0000
0000
0000
0000
0000
0000
0000
0000
1000
0100
0000
0000
0000
0000
0000
0000
0000
0000
0000
0000
0001
0010
0000
0000
0000
0000
0000
0000
0000
0000
0000
0000
0001
0010
0000
0000
0000
0000
0000
0000
0000
0000
0000
0000
0001
0010
0000
0000
0000
0000
0000
0000
0000
0000
0000
0000
0001
0010
0000
0000
0000
0000
0000
0000
0000
0000
0000
0000
,
0001
0010
0000
0000
0000
0000
0000
0000
0000
0000
0000
0000
0001
0010
0000
0000
0000
0000
0000
0000
0000
0000
0000
0000
0001
0010
0000
0000
0000
0000
0000
0000
0000
0000
0000
0000
0001
0010
0000
0000
0000
0000
0000
0000
0000
0000
0000
0000
1000
0100
0000
0000
0000
0000
0000
0000
0000
0000
0000
0000
0010
0001
0000
0000
0000
0000
0000
0000
0000
0000
0000
0000
1000
0100
0000
0000
0000
0000
0000
0000
0000
0000
0000
0000
0010
0001
0000
0000
0000
0000
0000
0000
0000
0000
0000
0000
1000
0100
0000
0000
0000
0000
0000
0000
0000
0000
0000
0000
0010
0001
0000
0000
0000
0000
0000
0000
0000
0000
0000
0000
1000
0100
0000
0000
0000
0000
0000
0000
0000
0000
0000
0000
0010
0001
0000
0000
0000
0000
0000
0000
0000
0000
0000
0000
0100
1000
0000
0000
0000
0000
0000
0000
0000
0000
0000
0000
0001
0010
0000
0000
0000
0000
0000
0000
0000
0000
0000
0000
0100
1000
0000
0000
0000
0000
0000
0000
0000
0000
0000
0000
0010
0001
0000
0000
0000
0000
0000
0000
0000
0000
0000
0000
,
1000
0100
0000
0000
0000
0000
0000
0000
0000
0000
0000
0000
0010
0001
0000
0000
0000
0000
0000
0000
0000
0000
0000
0000
1000
0000
0000
0000
0000
0000
0000
0000
0000
0000
0000
0000
0001
0000
0000
0000
0000
0000
0000
0000
0000
0000
0000
0000
1111
0000
0000
0000
0000
0000
0000
0000
0000
0000
0000
0000
1111
0000
0000
0000
0000
0000
0000
0000
0000
0000
0000
0000
1111
0000
0000
0000
0000
0000
0000
0000
0000
0000
0000
0000
1111
0000
0000
0000
0000
0000
0000
0000
0000
0000
0000
0000
1111
0000
0000
0000
0000
0000
0000
0000
0000
0000
0000
0000
1111
0000
0000
0000
0000
0000
0000
0000
0000
0000
0000
0000
1111
0000
0000
0000
0000
0000
0000
0000
0000
0000
0000
0000
1111
0000
0000
0000
0000
0000
0000
0000
0000
0000
0000
0000
1111
0000
0000
0000
0000
0000
0000
0000
0000
0000
0000
0000
1111
0000
0000
0000
0000
0000
0000
0000
0000
0000
0000
0000
1111
0000
0000
0000
0000
0000
0000
0000
0000
0000
0000
0000
1111
0000
0000
0000
0000
0000
0000
0000
0000
0000
0000
0000
,
1111
1111
1111
1111
1111
1111
1111
1111
1111
1111
1111
1111
1111
1111
1111
1111
,
1111
0000
0000
0000
0000
0000
0000
0000
0000
0000
0000
0000
1111
0000
0000
0000
0000
0000
0000
0000
0000
0000
0000
0000
1111
0000
0000
0000
0000
0000
0000
0000
0000
0000
0000
0000
1111
0000
0000
0000
0000
0000
0000
0000
0000
0000
0000
0000
0000
1111
0000
0000
0000
0000
0000
0000
0000
0000
0000
0000
0000
1111
0000
0000
0000
0000
0000
0000
0000
0000
0000
0000
0000
1111
0000
0000
0000
0000
0000
0000
0000
0000
0000
0000
0000
1111
0000
0000
0000
0000
0000
0000
0000
0000
0000
0000
0000
1111
0000
0000
0000
0000
0000
0000
0000
0000
0000
0000
0000
1111
0000
0000
0000
0000
0000
0000
0000
0000
0000
0000
0000
1111
0000
0000
0000
0000
0000
0000
0000
0000
0000
0000
0000
1111
0000
0000
0000
0000
0000
0000
0000
0000
0000
0000
1111
0000
0000
0000
0000
0000
0000
0000
0000
0000
0000
0000
1111
0000
0000
0000
0000
0000
0000
0000
0000
0000
0000
0000
1111
0000
0000
0000
0000
0000
0000
0000
0000
0000
0000
0000
1111
0000
0000
0000
0000
0000
0000
0000
0000
0000
0000
0000
,
1111
0000
0000
0000
0000
0000
0000
0000
0000
0000
0000
0000
1111
0000
0000
0000
0000
0000
0000
0000
0000
0000
0000
0000
1111
0000
0000
0000
0000
0000
0000
0000
0000
0000
0000
0000
1111
0000
0000
0000
0000
0000
0000
0000
0000
0000
0000
0000
0000
1111
0000
0000
0000
0000
0000
0000
0000
0000
0000
0000
0000
1111
0000
0000
0000
0000
0000
0000
0000
0000
0000
0000
0000
1111
0000
0000
0000
0000
0000
0000
0000
0000
0000
0000
0000
1111
0000
0000
0000
0000
0000
0000
0000
0000
0000
0000
0000
1111
0000
0000
0000
0000
0000
0000
0000
0000
0000
0000
0000
1111
0000
0000
0000
0000
0000
0000
0000
0000
0000
0000
0000
1111
0000
0000
0000
0000
0000
0000
0000
0000
0000
0000
0000
1111
0000
0000
0000
0000
0000
0000
0000
0000
0000
0000
1111
0000
0000
0000
0000
0000
0000
0000
0000
0000
0000
0000
1111
0000
0000
0000
0000
0000
0000
0000
0000
0000
0000
0000
1111
0000
0000
0000
0000
0000
0000
0000
0000
0000
0000
0000
1111
0000
0000
0000
0000
0000
0000
0000
0000
0000
0000
0000
,
1111
1111
1111
1111
1101
0000
0111
1000
0000
0001
0010
1000
0202
0003
0000
0300
,
1011
0000
0000
0000
;
