#TITLE:にひきはネコトモ!;
#SUBTITLE:;
#ARTIST:「ネコ・トモ」エンディング曲;
#TITLETRANSLIT:They're Nekotomo!;
#SUBTITLETRANSLIT:;
#ARTISTTRANSLIT:"Neko Tomo" Ending Song;
#GENRE:;
#CREDIT:HFWXWXL Chart;
#MUSIC:They're Nekotomo!.ogg;
#BANNER:They're Nekotomo!.png;
#BACKGROUND:They're Nekotomo!-bg.png;
#CDTITLE:;
#SAMPLESTART:75.529;
#SAMPLELENGTH:25.000;
#SELECTABLE:YES;
#OFFSET:0.000;
#BPMS:0.000=170.000;
#STOPS:;
#BGCHANGES:0.000=They're Nekotomo!.mp4=1.000=0=0=1,
99999.000=-nosongbg-=1.000=0=0=0=StretchNoLoop====
;
#FGCHANGES:;

//--------------- dance-single - ----------------
#NOTES:
     dance-single:
     :
     Beginner:
     5:
     0.154134,0.293572,0.225824,0.025092,0,129,102,27,3,0,0,0.154134,0.293572,0.225824,0.025092,0,129,102,27,3,0,0:
0000
0000
0000
0000
,
0000
0000
0000
0000
,
1000
0000
0000
0000
,
1000
0000
0000
0000
,
0001
0000
0000
0000
,
0010
0000
0000
0000
,
0010
0000
0000
0000
,
0010
0000
0000
0000
,
0010
0000
0000
0000
,
1000
0000
0000
0000
,
1010
0000
0000
0000
,
0101
0000
0000
0000
,
1000
0000
0100
0000
,
2002
0000
3003
0000
,
1000
0000
0001
0000
,
1000
0000
0001
0000
,
1000
0000
0000
0000
,
1000
0000
0000
0000
,
1010
0000
0011
0000
,
1000
0000
0101
0000
,
0001
0000
0100
0000
,
0001
0000
1000
0000
,
0001
0000
0000
0000
,
0100
0000
0000
0000
,
1000
0000
0000
0000
,
0001
0000
0000
0000
,
0001
0000
0000
0000
,
0010
0000
0000
0000
,
0001
0000
0000
0000
,
1000
0000
0000
0000
,
1000
0000
0000
0000
,
0001
0000
0000
0000
,
1000
0000
0000
0000
,
0010
0000
0000
0000
,
1000
0000
0000
0000
,
0010
0000
0000
0000
,
0010
0000
0000
0000
,
0010
0000
0000
0000
,
1001
0000
0000
0000
,
0000
0000
0000
0000
,
0001
0000
0000
0000
,
0001
0000
0000
0000
,
1000
0000
0100
0000
,
0010
0000
0000
0000
,
0001
0000
1000
0000
,
0001
0000
0000
0000
,
0010
0000
0000
0000
,
0100
0000
0000
0000
,
0010
0000
0000
0000
,
0020
0000
0000
0030
,
1010
0000
0011
0000
,
1010
0000
0000
0000
,
0101
0000
1100
0000
,
0101
0000
0000
0000
,
1000
0000
0000
0000
,
0001
0000
0000
0000
,
1000
0000
0000
0000
,
0010
0000
0000
0000
,
0010
0000
0000
0000
,
0100
0000
0000
0000
,
0010
0000
0000
0000
,
1000
0000
0000
0000
,
1010
0000
0101
0000
,
0011
0000
0101
0000
,
1000
0000
0100
0000
,
1001
0000
0000
0000
,
1000
0000
0001
0000
,
1000
0000
0010
0000
,
1000
0000
0001
0000
,
1000
0000
0100
0000
,
1010
0000
0011
0000
,
1000
0000
0101
0000
,
1010
0000
0100
0000
,
0001
0000
1000
0000
,
0101
0000
1100
0000
,
0001
0000
1010
0000
,
0101
0000
0010
0000
,
1000
0000
0001
0000
,
1001
0000
0000
0000
;

//--------------- dance-single - ----------------
#NOTES:
     dance-single:
     :
     Easy:
     7:
     0.353672,0.514377,0.409829,0.142186,0,296,247,49,17,0,0,0.353672,0.514377,0.409829,0.142186,0,296,247,49,17,0,0:
0000
0000
0000
0000
,
0000
0000
0000
0000
,
1000
0001
0010
0000
,
1000
0001
0010
0000
,
0001
1000
0100
0001
,
0010
0100
0000
1000
,
0010
0001
1000
0100
,
0010
0001
0100
0000
,
0010
0001
0000
0100
,
1000
0000
0100
1000
,
1010
1010
0101
0011
,
0000
1010
0101
0011
,
1000
0001
0100
0010
,
1000
2002
0000
3003
,
1000
1100
0001
0011
,
1000
0100
0001
0010
,
1000
0001
1000
0001
,
1000
0001
0100
0010
,
1010
0000
0011
0110
,
1000
0010
0101
0010
,
0101
0000
0100
0010
,
0001
0100
1000
0010
,
1000
0001
0100
0010
,
0100
0010
0001
0100
,
1000
0001
0010
0100
,
0001
0100
0010
1000
,
0001
1000
0010
0100
,
0010
0100
1000
0010
,
0001
1000
0100
0010
,
1000
0010
0100
0001
,
2000
0000
0000
0000
,
3002
0000
0000
0000
,
1003
0100
1000
0100
,
0010
0001
0010
0100
,
1000
0100
0010
0001
,
0010
0100
1000
0100
,
0010
0001
0010
0100
,
0010
0001
0010
0100
,
2002
0000
0000
0000
,
0000
0000
3003
0100
,
0001
0100
0010
0001
,
0000
1000
0100
0001
,
0020
0000
0030
0001
,
0200
0000
0300
1000
,
0010
0001
0010
0100
,
2000
0000
0000
3000
,
0002
0000
0003
0100
,
2000
0000
3000
0100
,
0020
0000
0000
0000
,
0200
0000
0000
0330
,
1010
0000
0011
0110
,
1010
0110
0101
0010
,
0101
0000
1100
0110
,
0101
0110
0100
1010
,
1000
0001
0010
0000
,
0000
1000
0100
0000
,
0001
1000
0100
0001
,
0010
0100
0000
1000
,
0010
0001
1000
0100
,
0010
0001
0010
0000
,
0010
0001
0000
0100
,
1000
0000
0100
1000
,
1010
1010
0101
0011
,
0000
1010
0101
0011
,
1000
0001
0100
0010
,
1000
2002
0000
3003
,
1000
1100
0001
0011
,
1000
0100
0010
0100
,
1000
0001
1000
0001
,
1000
0001
0100
0010
,
1010
0000
0011
0110
,
1000
0010
0101
0010
,
0101
0000
0100
0010
,
0001
0100
1000
0010
,
0101
0000
1100
0110
,
0001
0100
1010
0100
,
1010
0000
0010
0100
,
1000
0010
0001
0000
,
2002
0000
0000
0000
,
0000
0000
0000
0000
,
0000
0000
0000
0000
,
0000
0000
0000
0000
,
3003
0000
0000
0000
;

//--------------- dance-single - ----------------
#NOTES:
     dance-single:
     :
     Medium:
     11:
     0.526923,0.925879,0.58547,0.15055,0,441,371,70,18,0,0,0.526923,0.925879,0.58547,0.15055,0,441,371,70,18,0,0:
0000
0000
0000
0000
,
0000
0000
0000
0000
,
1000
0000
0001
0000
0010
0100
0000
1000
,
0000
0000
0001
0000
0010
0100
0000
0010
,
0001
1000
0100
0001
,
0010
0001
0010
0000
0000
0000
1000
0100
,
0010
0001
1000
0100
,
0010
0000
0001
0010
0001
1000
0000
0100
,
0010
0000
0001
0010
0000
1000
0100
0000
,
1000
0100
0000
0000
0100
0010
1000
0001
,
1010
1010
0101
0011
,
0000
1010
0101
0011
,
1000
0001
0100
0010
,
1000
0100
0002
2000
0000
0000
3003
0000
,
1000
1100
0001
0011
,
1000
0100
0001
0010
,
1000
0100
0001
0010
1000
0100
0001
0010
,
1000
1000
0001
0001
0100
0100
0010
0010
,
1010
1100
0000
0101
0011
0000
0110
0100
,
1000
0100
0010
0000
0101
0010
0101
0010
,
0101
0010
0000
1010
0100
0000
0010
0100
,
0001
0010
0100
0000
1000
0100
0010
0100
,
1000
0000
0001
0000
0100
0000
0010
1000
,
0100
0000
0010
0000
0001
0000
0100
0010
,
1000
0000
0001
0000
0010
0000
0100
1000
,
0001
0000
0100
0000
0010
0000
1000
0100
,
0001
0000
1000
0000
0010
0000
0100
0001
,
0010
0000
0100
0000
1000
0000
0010
0100
,
0001
0000
1000
0000
0100
0000
0010
0001
,
1000
0000
0010
0000
0100
0000
0001
0010
,
2000
0000
0000
0000
0000
0000
0000
3002
,
0000
0000
0000
0203
0000
0000
0000
0300
,
1000
0100
1000
0100
,
0010
0001
0010
0100
,
1000
0100
1000
0000
0100
0010
0001
0000
,
0001
0100
0010
0000
1000
0010
1000
0000
,
0100
0001
0010
0000
0010
1000
0100
0000
,
0010
0100
0010
0000
0010
0001
0010
2000
,
0002
0000
0000
0000
,
0000
0000
0000
0000
3003
0010
0100
0010
,
0001
0000
0100
1000
0100
0010
0001
1000
,
0000
0000
1000
0001
0100
0010
0001
1000
,
0020
0000
0030
0001
,
0200
0000
0300
1000
,
0001
0001
0010
0100
,
2000
0000
0000
3000
,
0002
0000
0003
0100
,
2000
0000
3000
0100
,
0020
0000
0000
0000
,
0200
0000
0000
0330
,
1010
1100
0000
0101
0011
0000
0110
0110
,
1010
1100
0110
0000
0101
0011
0101
0010
,
0101
0011
0000
1010
1100
0000
0110
0110
,
0101
0011
0110
0000
1010
1100
1010
0100
,
1000
0000
0001
0000
0010
0100
0000
1000
,
0000
0000
0001
0000
0010
0100
0000
0010
,
0001
1000
0100
0001
,
0010
0001
0010
0000
0000
0000
1000
0100
,
0010
0001
1000
0100
,
0010
0000
0001
0010
0001
1000
0000
0100
,
0010
0000
0001
0010
0000
1000
0100
0000
,
1000
0100
0000
0000
0100
0010
1000
0001
,
1010
1010
0101
0011
,
0000
1010
0101
0011
,
1000
0001
0100
0010
,
1000
0100
0002
2000
0000
0000
3003
0000
,
1000
1100
0001
0011
,
1000
0010
0100
0001
0010
0001
0010
0100
,
1000
0100
0001
0010
1000
0100
0001
0010
,
1000
1000
0001
0001
0100
0100
0010
0010
,
1010
1100
0000
0101
0011
0000
0110
0100
,
1000
0100
0010
0000
0101
0010
0101
0010
,
0101
0010
0000
1010
0100
0000
0010
0100
,
0001
0010
0100
0000
1000
0100
0010
0100
,
0101
0011
0000
1010
1100
0000
0110
0010
,
0001
0010
0100
0000
1010
0100
1010
0100
,
1010
0100
0000
0101
0010
0000
0100
0010
,
1000
0100
0010
0000
0001
0010
0000
0000
,
2002
0000
0000
0000
,
0000
0000
0000
0000
,
0000
0000
0000
0000
,
0000
0000
0000
0000
,
3003
0000
0000
0000
;

//--------------- dance-single - ----------------
#NOTES:
     dance-single:
     :
     Hard:
     13:
     0.652381,0.925879,0.986936,0.15055,0.100366,546,428,118,18,0,0,0.652381,0.925879,0.986936,0.15055,0.100366,546,428,118,18,0,0:
0000
0000
0000
0000
,
0000
0000
0000
1000
0000
0001
0010
0100
,
1000
0000
0001
0000
0010
0100
0000
1000
,
0000
0000
0001
0000
0010
0100
0000
0010
,
0001
1000
0100
0001
,
0010
0001
0010
0100
0000
0100
1000
0100
,
0010
0001
1000
0100
,
0010
0000
0001
0010
0001
1000
0000
0100
,
0010
0000
0001
0010
0000
1000
0100
0000
,
1000
0100
0001
0010
0100
0010
1000
0001
,
1010
0000
1010
0000
0101
0001
0011
1100
,
0000
0000
1010
0000
0101
0011
0011
0100
,
1000
0100
0000
0000
0001
0010
0000
0000
0100
0010
0000
0000
0100
1000
0000
0000
,
1000
0100
0002
2000
0000
0000
3003
0000
,
1000
1100
0001
0011
,
1000
0010
0100
0001
0010
0001
0010
0100
,
1000
0100
0001
0010
1000
0100
0001
0010
,
1000
0100
1000
0000
0001
0010
0001
0000
0100
0010
0100
0000
0010
0100
0010
0000
,
1010
1100
0000
0101
0011
0000
0110
0110
,
1010
1100
0110
0000
0101
0011
0101
0010
,
0101
0011
0000
1010
1100
0000
0110
0110
,
0101
0011
0110
0000
1010
1100
1010
0100
,
1000
0000
0001
0000
0100
0000
0010
1000
,
0100
0000
0010
0000
0001
0000
0100
0010
,
1000
0000
0001
0000
0010
0000
0100
1000
,
0001
0000
0100
0000
0010
0000
1000
0100
,
0001
0000
1000
0000
0010
0000
0100
0001
,
0010
0000
0100
0000
1000
0000
0010
0100
,
0001
0000
1000
0000
0100
0000
0010
0001
,
1000
0000
0010
0000
0100
0000
0001
0010
,
2000
0000
0000
0000
0000
0000
0000
3002
,
0000
0000
0000
0203
0000
0000
0000
0300
,
1000
0000
0000
1000
0100
0000
0000
0100
1000
0000
0000
1000
0100
0000
0000
0100
,
0010
0000
0000
0010
0001
0000
0000
0001
0010
0000
0000
0010
0100
0000
0000
0100
,
1000
0100
1000
0010
0100
0010
0001
0010
,
0001
0100
0010
0100
1000
0010
1000
0001
,
0100
0001
0010
0100
0010
1000
0100
1000
,
0010
0100
0010
0001
0010
0001
0010
2000
,
0002
0000
0000
0000
,
0000
0000
0000
0000
3003
0010
0100
0010
,
0001
0010
0100
1000
0100
0010
0001
1000
,
0000
0000
1000
0001
0100
0010
0001
1000
,
0020
0000
0030
0001
,
0200
0000
0300
1000
,
0001
0001
0010
0100
,
2000
0000
0000
3000
,
0002
0000
0000
0000
0003
0000
0010
0100
,
2000
0000
3000
0100
,
0020
0000
0000
0000
,
0200
0000
0000
0330
,
1010
1100
0000
0101
0011
0000
0110
0110
,
1010
1100
0110
0000
0101
0011
0101
0010
,
0101
0011
0000
1010
1100
0000
0110
0110
,
0101
0011
0110
0000
1010
1100
1010
0100
,
1000
0000
0001
0000
0010
0100
0000
1000
,
0000
0000
0001
0000
0010
0100
0000
0010
,
0001
1000
0100
0001
,
0010
0001
0010
0100
0000
0100
1000
0100
,
0010
0001
1000
0100
,
0010
0000
0001
0010
0001
1000
0000
0100
,
0010
0000
0001
0010
0000
1000
0100
0000
,
1000
0100
0001
0010
0100
0010
1000
0001
,
1010
0000
1010
0000
0101
0001
0011
1100
,
0000
0000
1010
0000
0101
0011
0011
0100
,
1000
0100
0000
0000
0001
0010
0000
0000
0100
0010
0000
0000
0100
1000
0000
0000
,
1000
0100
0002
2000
0000
0000
3003
0000
,
1000
1100
0001
0011
,
1000
0010
0100
0001
0010
0001
0010
0100
,
1000
0100
0001
0010
1000
0100
0001
0010
,
1000
0100
1000
0000
0001
0010
0001
0000
0100
0010
0100
0000
0010
0100
0010
0000
,
1010
1100
0000
0101
0011
0000
0110
0110
,
1010
1100
0110
0000
0101
0011
0101
0010
,
0101
0011
0000
1010
1100
0000
0110
0110
,
0101
0011
0110
0000
1010
1100
1010
0100
,
0101
0011
0000
1010
1100
0000
0110
0110
,
0101
0011
0110
0000
1010
1100
1010
0100
,
1010
1100
0000
0101
0011
0000
0110
0110
,
1010
1100
0110
0000
0101
1001
0000
0000
,
2002
0000
0000
0000
,
0000
0000
0000
0000
,
0000
0000
0000
0000
,
0000
0000
0000
0000
,
3003
0000
0000
0000
;
