#TITLE:Move That Body!;
#SUBTITLE:;
#ARTIST:DM Ashura feat. Skizzo & Hanna;
#TITLETRANSLIT:;
#SUBTITLETRANSLIT:;
#ARTISTTRANSLIT:;
#GENRE:;
#CREDIT:;
#BANNER:Move That Body!.png;
#BACKGROUND:Move That Body!-bg.png;
#LYRICSPATH:;
#CDTITLE:;
#MUSIC:Move That Body!.ogg;
#OFFSET:0.000000;
#SAMPLESTART:14.896000;
#SAMPLELENGTH:15.000000;
#SELECTABLE:YES;
#BPMS:0.000000=145.000000
;
#STOPS:
;
#BGCHANGES:0.000=Move That Body!.mp4=1.000=0=0=1=StretchNormal====,
99999=-nosongbg-=1.000=0=0=0 // don't automatically add -songbackground-
;
#KEYSOUNDS:;
#ATTACKS:;

//---------------dance-single - ----------------
#NOTES:
     dance-single:
     :
     Beginner:
     4:
     0.235831,0.292332,0.060186,0.120372,0.000000,192.000000,185.000000,7.000000,14.000000,0.000000,0.000000,0.235831,0.292332,0.060186,0.120372,0.000000,192.000000,185.000000,7.000000,14.000000,0.000000,0.000000:
0000
0000
0000
0000
,
0000
0000
0000
0000
,
0000
0000
0000
0000
,
0000
0000
0000
0000
,
0000
0000
0000
0000
,
1000
0000
0100
0000
,
1000
0000
0001
0000
,
0100
0000
0010
0000
,
2002
0000
0000
3003
0000
0000
0000
0000
,
0001
0000
0010
0000
,
1000
0000
0100
0000
,
0001
0000
1000
0000
,
0100
0000
0010
0000
,
1000
0000
0010
0000
,
0100
0000
0001
0000
,
1000
0000
0100
0000
,
0010
0000
1000
0000
,
2002
0000
0000
3003
,
1000
0010
1000
0001
,
0100
1000
0100
0010
,
0001
0010
0100
1000
,
0001
1000
0010
0100
,
0001
1000
0010
0001
,
1000
0001
0100
0010
,
1000
0100
0001
0010
,
0100
0001
1000
0100
,
0010
0001
1000
0100
,
0001
0010
0100
1000
,
0010
0100
0010
0100
,
0010
0001
0010
0001
,
0010
0100
0010
0100
,
1000
0100
0010
0001
,
0010
0001
0100
1000
,
0100
0010
0001
1000
,
0100
0010
1000
0001
,
0001
0000
0100
0000
,
1000
0000
0100
0000
,
0010
0000
0001
0000
,
0100
0000
0010
0000
,
1000
0001
0100
0010
,
1000
0001
0100
1000
,
0001
0010
0001
0100
,
0010
0001
1000
0100
,
1000
0001
0100
0010
,
1000
0100
0001
0100
,
0010
1000
0100
0010
,
0100
0001
0100
0010
,
1000
0100
0001
0010
,
0100
1000
0100
0001
,
0010
0001
0100
0010
,
1000
0100
0001
0010
,
2002
0000
0000
3003
,
0000
0000
0000
0000
,
2002
0000
0000
3003
,
0000
0000
0000
0000
,
2002
0000
0000
3003
,
0000
0000
0000
0000
,
2002
0000
0000
3003
,
0000
0000
0000
0000
,
1000
0001
0100
0010
,
1000
0001
0100
1000
,
0010
0001
0100
0010
,
1000
0100
0010
0001
,
1000
0100
0001
0100
,
0010
1000
0001
0100
,
0010
0001
1000
0100
,
0010
0001
0100
1000
,
2002
0000
0000
0000
,
3003
0000
0000
0000
;

//---------------dance-single - ----------------
#NOTES:
     dance-single:
     :
     Easy:
     6:
     0.314441,0.526198,0.275136,0.120372,0.000000,256.000000,224.000000,32.000000,14.000000,0.000000,0.000000,0.314441,0.526198,0.275136,0.120372,0.000000,256.000000,224.000000,32.000000,14.000000,0.000000,0.000000:
0000
0000
0000
0000
,
0000
0000
0000
0000
,
0000
0000
0000
0000
,
0000
0000
0000
0000
,
0000
0000
0000
0000
,
1000
0001
0100
0010
,
1000
0100
0001
0010
,
0100
1000
0010
0001
,
2002
0000
0000
3003
1001
0000
0000
0000
,
0001
0010
0001
0100
,
1000
0100
0010
0001
,
0100
0010
1000
0100
,
1000
0001
0100
0010
,
1000
0100
0010
0001
,
0100
0010
0001
0010
,
1000
0100
1000
0100
,
0010
0001
1000
0001
,
2002
0000
0000
3003
,
1100
0011
1010
0101
,
1100
1010
1100
0011
,
0101
0011
0110
1100
,
0101
1100
1010
0101
,
0011
1100
0110
0011
,
1000
0001
0100
0010
,
1000
0100
0001
0010
,
0100
0001
1000
0100
,
0010
0001
1000
0100
,
1000
0100
1000
0100
,
0010
0100
0010
0100
,
0010
0001
0010
0001
,
0010
0100
0010
0100
,
1000
0100
0010
0001
,
0001
0010
0100
1000
,
0100
0010
0001
1000
,
0100
0010
1000
0001
,
0001
0001
0100
0100
,
1000
1000
0100
0100
,
0010
0010
0001
0001
,
0100
0100
0010
0010
,
1000
0001
0100
0010
,
1000
0001
0100
1000
,
0001
0010
0001
0100
,
0011
0101
1010
1100
,
1000
0001
0100
0010
,
1000
0100
0001
0100
,
0010
1000
0100
0010
,
0100
0001
0100
0010
,
1000
0100
0001
0010
,
0100
1000
0100
0001
,
0010
0001
0100
0010
,
1000
0100
0001
0010
,
2002
0000
0000
3003
,
1000
0000
0001
0000
,
2002
0000
0000
3003
,
0001
0000
1000
0000
,
2002
0000
0000
3003
,
1000
0000
0001
0000
,
2002
0000
0000
3003
,
0001
0000
1000
0000
,
1000
0001
0100
0010
,
1000
0001
0100
1000
,
0010
0001
0100
0010
,
1000
0100
0010
0001
,
1000
0100
0001
0100
,
0010
1000
0001
0100
,
0010
0001
1000
0100
,
0010
0001
0100
1000
,
2002
0000
0000
0000
,
3003
0000
0000
0000
;

//---------------dance-single - ----------------
#NOTES:
     dance-single:
     :
     Medium:
     9:
     0.520794,0.643131,0.206352,0.120372,0.090279,424.000000,400.000000,24.000000,14.000000,0.000000,0.000000,0.520794,0.643131,0.206352,0.120372,0.090279,424.000000,400.000000,24.000000,14.000000,0.000000,0.000000:
0000
0000
0000
0000
,
0000
0000
0000
0000
,
0000
0000
0000
0000
,
0000
0000
0000
0000
,
0000
0000
0000
0000
,
0001
0000
0100
0000
0010
1000
0001
0000
0100
0000
0010
0000
0001
0010
0000
0100
,
1000
0000
0010
0000
0100
0001
1000
0000
0010
0000
0100
0000
1000
0100
0000
0010
,
0001
0100
0010
1000
0001
0100
0010
2000
,
0002
0000
0000
0000
0000
0000
3003
0000
1000
0010
0000
0001
0100
0000
0010
0100
,
1000
0100
1000
0000
0010
0100
0010
0000
,
0001
0010
0001
0000
0100
0010
0100
0000
,
1000
0100
1000
0000
0010
0100
0010
0000
,
0001
0010
0001
0000
0100
0010
0100
0000
,
0001
0010
0001
0000
0100
0010
0100
0000
,
1000
0100
1000
0000
0010
0100
0010
0000
,
0001
0010
0001
0000
0100
0010
0100
0000
,
1000
0100
1000
0000
0010
0100
0010
0002
,
2000
0000
0000
3003
,
1000
0001
0100
0001
0010
0100
0001
1000
,
0001
0000
0010
0000
0001
0000
0000
0010
0100
0000
0010
0000
0100
0000
0000
0000
,
1000
0000
0100
0000
1000
0000
0000
0100
0010
0000
0100
0000
0010
0000
0000
0000
,
1000
1100
0001
0011
,
0100
0001
0010
0100
1000
0010
0001
0000
,
0000
1000
0100
0010
0001
1000
0100
0010
,
1000
0001
0100
0010
1000
0100
0001
0100
,
0010
1000
0001
0100
0010
1000
0001
0100
,
0001
0010
0001
0000
1000
0100
1000
0000
0010
0100
0010
0000
0100
0010
0100
0000
,
1000
0100
1000
0100
0010
0100
0010
0100
,
0010
0001
0010
0001
0010
0100
0010
0100
,
1000
0100
1000
0010
0100
0010
0001
0010
,
0001
0010
0001
0100
0010
0100
1000
0100
,
1000
1000
0100
0000
0010
0010
0100
0000
,
0001
0001
0010
0000
0100
0100
0010
0000
,
0001
0010
0001
1000
0010
0100
1000
0100
,
0010
0001
1000
0100
1000
0001
0100
0010
,
0001
0001
0010
0000
1000
1000
0100
0000
,
0100
0100
0010
0000
0010
0010
0100
0000
,
0010
0010
0001
0000
0100
0100
1000
0000
,
0010
0010
1000
0000
0100
0100
0001
0000
,
1000
0001
0100
0010
0001
1000
0100
0010
,
0100
0001
1000
0100
0010
0001
1000
0100
,
0001
0010
0100
1000
0001
0100
0010
1000
,
0001
0000
0000
0011
0000
0000
0101
0000
1000
0000
0000
1100
0000
0000
1010
0000
,
1000
0100
1000
0000
0010
0100
0010
0000
,
0001
0010
0001
0000
0100
0010
0100
0000
,
1000
0100
1000
0000
0010
0100
0010
0000
,
0001
0010
0001
0000
0100
0010
0100
0000
,
0001
0010
0001
0000
0100
0010
0100
0000
,
1000
0100
1000
0000
0010
0100
0010
0000
,
0001
0010
0001
0000
0100
0010
0100
0000
,
1000
0100
1000
0000
0010
0100
0010
0002
,
2000
0000
0000
3003
,
1010
0000
0000
0000
0101
0000
0000
2000
,
0002
0000
0000
3003
,
0101
0000
0000
0000
1010
0000
0000
0002
,
2000
0000
0000
3003
,
1010
0000
0000
0000
0101
0000
0000
2000
,
0002
0000
0000
3003
,
0011
0001
0011
0000
1100
1000
1100
0000
,
1000
0001
0100
0010
1000
0001
0100
0010
,
1000
0100
0001
0100
0010
0001
0010
0001
,
0010
0100
0010
1000
0100
1000
0100
0010
,
0001
0100
0001
0100
0010
1000
0100
0010
,
1100
1000
1100
0000
0110
0100
0110
0000
,
0011
0001
0011
0000
0110
0010
0110
0000
,
1000
0001
0100
0010
1000
0001
0100
0010
,
1000
0000
0001
0000
1000
0000
0001
0000
0100
0010
1000
0001
0100
0010
1000
0002
,
2000
0000
0000
0000
,
3003
0000
0000
0000
;

//---------------dance-single - ----------------
#NOTES:
     dance-single:
     :
     Hard:
     14:
     0.776277,0.847764,0.223548,0.120372,0.872698,632.000000,606.000000,26.000000,14.000000,0.000000,0.000000,0.776277,0.847764,0.223548,0.120372,0.872698,632.000000,606.000000,26.000000,14.000000,0.000000,0.000000:
// measure 0
0000
0000
0000
0000
,  // measure 1
0000
0000
0000
0000
,  // measure 2
0000
0000
0000
0000
,  // measure 3
0000
0000
0000
0000
,  // measure 4
0000
0000
0000
0000
,  // measure 5
1000
0001
0000
0010
0100
0000
1000
0100
0000
0001
0010
0000
0100
1000
0100
0010
,  // measure 6
0001
0000
0010
0000
0001
0000
0010
0100
1000
0000
0100
0010
0001
1000
0100
0010
,  // measure 7
0001
0010
1000
0100
0010
0001
1000
0100
,  // measure 8
1001
0000
0110
0000
1100
0000
0011
0000
1000
0100
0000
1000
0100
0010
0001
0010
,  // measure 9
0001
0000
0010
0000
0100
1000
0000
0100
0010
0001
0000
0010
0100
1000
0100
0001
,  // measure 10
0010
0000
0100
0000
1000
0000
0100
0010
0000
0001
0010
0000
0100
1000
0010
0100
,  // measure 11
0001
0000
0010
0000
0100
1000
0100
0001
0010
0001
0000
0010
0100
1000
0100
0001
,  // measure 12
0010
0000
0100
0000
1000
0000
0100
0010
0000
0001
0010
0000
0100
1000
0010
0001
,  // measure 13
1000
0000
0100
0000
0010
0001
0000
0010
0100
1000
0000
0100
0010
0001
0010
1000
,  // measure 14
0100
0000
0010
0000
0001
0000
0010
0100
0000
1000
0100
0000
0010
0001
0100
0010
,  // measure 15
1000
0000
0100
0000
0010
0001
0010
1000
0100
1000
0000
0100
0010
0001
0010
1000
,  // measure 16
0100
0000
0010
0000
0001
0000
0010
0100
0000
1000
0100
0000
0001
0010
0002
0100
,  // measure 17
2000
0000
0000
3003
,  // measure 18
1000
0000
0001
0000
0100
0000
0010
0001
1000
0100
0010
0001
0100
0010
1000
0100
,  // measure 19
0001
0010
0001
0100
0010
0100
1000
0100
,  // measure 20
1000
0100
0010
0000
0001
0010
0100
0000
0010
0100
0010
0000
0100
0010
0100
0000
,  // measure 21
1000
1000
1100
0001
0001
0011
0100
0010
,  // measure 22
0110
0100
0010
0001
0010
0100
1000
0100
1100
0000
0110
0000
0022
0000
0000
0000
,  // measure 23
0033
0000
1000
0000
0100
0010
0001
0000
0010
0100
0000
0001
0010
0000
1000
0100
,  // measure 24
0001
0010
0100
0001
1000
0100
1000
0010
,  // measure 25
0100
0001
0010
0100
1000
0010
0001
0100
,  // measure 26
1000
1100
0010
0110
0001
0011
0100
0110
,  // measure 27
1000
0100
0000
1000
0100
0000
1000
0100
0010
0100
0000
0010
0100
0000
0010
0100
,  // measure 28
0010
0001
0000
0010
0001
0000
0010
0001
0010
0100
0000
0010
0100
0000
0010
0100
,  // measure 29
1000
0100
1000
0000
0010
0100
0010
0000
0001
0010
0001
0000
0100
0010
0100
0000
,  // measure 30
1000
0100
0010
0001
0100
0010
1000
0100
0001
0010
0100
1000
0010
0100
0001
0010
,  // measure 31
1000
0000
0000
1000
0100
0000
0000
0100
1000
0000
0000
1000
0100
0000
0000
0100
,  // measure 32
0010
0000
0000
0010
0001
0000
0000
0001
0010
0000
0000
0010
0100
0000
0000
0100
,  // measure 33
0010
0001
0010
0100
1000
0100
0010
0001
,  // measure 34
1000
0000
0100
0000
0010
0000
0001
0010
0100
1000
0001
0100
0010
1000
0001
0100
,  // measure 35
0010
0000
0001
0000
0010
0001
0000
0000
1000
0000
0100
0000
1000
0100
0000
0000
,  // measure 36
0010
0000
0100
0000
0010
0100
0000
0000
0001
0000
0010
0000
0001
0010
0000
0000
,  // measure 37
0100
0000
1000
0000
0100
1000
0000
0000
0001
0000
0010
0000
0001
0010
0000
0000
,  // measure 38
0100
0000
0010
0000
0100
0010
0000
0000
1000
0000
0100
0000
1000
0100
0000
0000
,  // measure 39
1000
0001
0100
0010
0001
1000
0100
0010
,  // measure 40
0100
0001
1000
0100
0010
0001
1000
0100
,  // measure 41
0001
0010
0100
1000
0001
0100
0010
1000
,  // measure 42
0001
0000
1000
0000
0001
0000
1000
0000
0100
0010
0001
1000
0100
0010
0100
0010
,  // measure 43
0001
0000
0010
0000
0100
1000
0000
0100
0010
0001
0000
0010
0100
1000
0100
0001
,  // measure 44
0010
0000
0100
0000
1000
0000
0100
0010
0000
0001
0010
0000
0100
1000
0010
0100
,  // measure 45
0001
0000
0010
0000
0100
1000
0100
0001
0010
0001
0000
0010
0100
1000
0100
0001
,  // measure 46
0010
0000
0100
0000
1000
0000
0100
0010
0000
0001
0010
0000
0100
1000
0010
0001
,  // measure 47
1000
0000
0100
0000
0010
0001
0000
0010
0100
1000
0000
0100
0010
0001
0010
1000
,  // measure 48
0100
0000
0010
0000
0001
0000
0010
0100
0000
1000
0100
0000
0010
0001
0100
0010
,  // measure 49
1000
0000
0100
0000
0010
0001
0010
1000
0100
1000
0000
0100
0010
0001
0010
1000
,  // measure 50
0100
0000
0010
0000
0001
0000
0010
0100
0000
1000
0100
0000
0001
0010
0002
0100
,  // measure 51
2000
0000
0000
3003
,  // measure 52
1000
0000
0000
1000
0100
0000
0000
0000
0001
0000
0000
0001
0010
0000
2000
0000
,  // measure 53
0002
0000
0000
0000
0000
0000
0000
3003
,  // measure 54
1000
0000
0100
0000
0001
0000
0010
0000
0100
0000
0010
0100
0000
0000
0002
0000
,  // measure 55
2000
0000
0000
0000
0000
0000
0000
3003
,  // measure 56
1100
0000
1010
0000
0101
0000
0011
2000
,  // measure 57
0002
0000
0000
0000
0000
0000
0000
3003
,  // measure 58
1000
0100
1000
0100
0010
0100
0010
0100
0010
0001
0010
0001
0010
0100
1000
0100
,  // measure 59
1000
0000
0100
0000
0010
0001
0000
0010
0100
1000
0000
0100
0010
0001
0010
1000
,  // measure 60
0100
0000
0010
0000
0001
0010
0100
0010
0100
1000
0100
0000
0010
0001
0100
0010
,  // measure 61
0001
0000
0010
0000
0100
1000
0000
0100
0010
0001
0000
0010
0100
1000
0100
0001
,  // measure 62
0010
0000
0100
0000
1000
0100
0010
0100
0010
0001
0010
0000
0100
1000
0010
0100
,  // measure 63
1100
1000
1100
0100
0110
0010
0110
0010
,  // measure 64
0011
0001
0011
0001
0110
0010
0110
0100
,  // measure 65
1000
0100
0000
0010
0001
0000
0010
0100
0000
1000
0100
0000
0010
0001
0100
0010
,  // measure 66
1000
0000
0001
0000
1000
0000
0001
0000
0100
0010
1000
0001
0100
0010
1000
0002
,  // measure 67
2000
0000
0000
0000
,  // measure 68
3003
0000
0000
0000
;
