#TITLE:LEADING CYBER (ANOTHER);
#SUBTITLE:;
#ARTIST:dj TAKA;
#TITLETRANSLIT:;
#SUBTITLETRANSLIT:;
#ARTISTTRANSLIT:;
#GENRE:;
#CREDIT:;
#MUSIC:LEADING CYBER (ANOTHER).ogg;
#BANNER:LEADING CYBER (ANOTHER).png;
#BACKGROUND:LEADING CYBER (ANOTHER)-bg.png;
#CDTITLE:./CDTitles/beatmania IIDX 3rd style.png;
#SAMPLESTART:28.852;
#SAMPLELENGTH:15.000;
#SELECTABLE:YES;
#OFFSET:0.000;
#BPMS:0.000=150.000;
#STOPS:23.750=0.023
,35.500=0.029
,71.750=0.003
,103.500=-0.015
,151.500=0.012
,167.500=0.020
,198.500=0.018
;
#BGCHANGES:;
#FGCHANGES:;

//--------------- dance-single - ----------------
#NOTES:
     dance-single:
     :
     Challenge:
     14:
     0,0,0,0,0:
0000
0000
0000
0000
,
0000
0000
0000
0000
,
0000
0000
0000
0000
,
1000
0000
0100
0000
1000
0000
0100
0010
0001
0000
0010
0001
0010
0000
0100
1000
,
0100
0000
0001
0000
0010
0000
0100
0000
1000
0100
0010
0001
0010
0001
0100
1000
,
1000
0000
1000
0100
0000
0100
0010
0000
0010
0001
0000
0001
0010
0000
0100
0000
,
1000
0000
1100
0000
0001
0000
0011
0000
1000
0100
0000
0010
0001
0000
0001
0010
,
1000
0100
1000
0100
1000
0000
0100
1000
0100
0010
0001
0010
1001
0000
0000
0000
,
0001
0010
0001
0010
0001
0000
0010
0001
0010
0100
1000
0100
2002
0000
3003
0000
,
1000
0100
1000
0000
0001
0010
0001
0000
0100
0010
0100
0000
0010
0100
0010
0000
,
1000
0000
0100
0000
0010
0000
0001
0000
1000
0001
0100
0010
2002
0000
3003
0000
,
0001
0010
0001
0000
1000
0100
1000
0000
0010
0100
0010
0000
0100
0010
0100
0000
,
0001
0000
0010
0000
0100
0000
1000
0000
0001
1000
0010
0100
2002
0000
3003
0000
,
1000
0100
1000
0100
1000
0100
0010
0001
0010
0001
0010
0001
0010
0001
0010
0100
,
1000
0100
1000
0100
1000
0100
0010
0001
0010
0001
0010
0001
0010
0001
0010
0100
,
1000
0100
0000
1000
0100
0000
1000
0100
0001
0010
0000
0001
0010
0000
0001
0010
,
1000
0000
0100
0000
0010
0000
0001
0000
0010
0000
0100
0000
0001
0010
1000
0100
,
0001
1000
0000
0001
1000
0000
0001
1000
0100
0010
0001
0100
0010
1000
0100
0010
,
0001
0000
1000
0000
0001
0000
1000
0000
0001
0100
0000
0010
1000
0000
0100
0001
,
1000
0100
0010
0001
1000
0001
0100
0010
1000
0001
0100
0010
1000
0001
0100
0010
,
1000
0000
0001
0000
1000
0000
0001
0000
1000
0010
0000
0100
0001
0000
0010
1000
,
0001
0010
0100
1000
0001
1000
0010
0100
0001
1000
0010
0100
0001
1000
0010
0100
,
0001
0000
1000
0000
0001
0000
1000
0000
0001
0010
0000
0100
1000
0000
0010
0001
,
1000
0010
0100
0001
1000
0001
0010
0100
1000
0001
0010
0100
1000
0001
0010
0100
,
1000
0000
0001
0000
1000
0000
0001
0000
1000
0100
0000
0010
0001
0000
0100
1000
,
0001
0100
0010
1000
0001
1000
0100
0010
1001
0000
0000
0000
1001
0000
0000
0000
,
1000
0000
0001
0000
1000
1000
0001
0000
,
0010
0000
0000
0000
0100
0000
0000
0000
0010
0100
0010
0100
0010
0000
0000
0000
,
0001
0000
1000
0000
0001
0001
1000
0000
,
0100
0000
0000
0000
0010
0000
0000
0000
0100
0010
0100
0010
0100
0000
0000
0000
,
1000
0001
0100
0010
1000
0001
0010
0100
,
1000
0000
0001
0000
0100
0000
0010
0000
1000
0100
0010
0001
1001
0000
0000
0000
,
0001
1000
0010
0100
0001
1000
0100
0010
,
0001
0000
1000
0000
0010
0000
0100
0000
0001
0010
0100
1000
1001
0000
0000
0000
,
1000
0100
0010
0001
0010
0100
1000
0000
0001
0010
0100
1000
0100
0010
0001
0000
,
1000
0000
0100
0000
0010
0000
0001
0000
1000
1000
1100
0000
1001
0000
0000
0000
,
0001
0010
0100
1000
0100
0010
0001
0000
1000
0100
0010
0001
0010
0100
1000
0000
,
0001
0000
0010
0000
0100
0000
1000
0000
0001
0001
0011
0000
1001
0000
0000
0000
,
0001
0010
0100
1000
0100
0010
0001
0000
1000
0100
0010
0001
0010
0100
1000
0000
,
0001
0010
0100
1000
0100
0010
0001
0000
1000
0100
0010
0001
0010
0100
1000
0000
,
0001
0010
0100
1000
0100
0010
0001
0000
1000
0100
0010
0001
0010
0100
1000
0000
,
0001
0010
0100
1000
0100
0010
0001
0000
1000
0100
0010
0001
0010
0100
1000
0000
,
1000
0100
1000
0000
0001
0010
0001
0000
0100
0010
0100
0000
0010
0100
0010
0000
,
1000
0000
0100
0000
0010
0000
0001
0000
1000
0001
0100
0010
2002
0000
3003
0000
,
0001
0010
0001
0000
1000
0100
1000
0000
0010
0100
0010
0000
0100
0010
0100
0000
,
0001
0000
0010
0000
0100
0000
1000
0000
0001
1000
0010
0100
2002
0000
3003
0000
,
1000
0100
1000
0100
1000
0100
0010
0001
0010
0001
0010
0001
0010
0001
0010
0100
,
1000
0100
1000
0100
1000
0100
0010
0001
0010
0001
0010
0001
0010
0001
0010
0100
,
1000
0100
0000
1000
0100
0000
1000
0100
0001
0010
0000
0001
0010
0000
0001
0010
,
1000
0000
0100
0000
0010
0000
0001
0000
0010
0000
0100
0000
0001
0010
1000
0100
,
0001
0010
0001
0000
1000
0100
1000
0000
0010
0100
0010
0000
0100
0010
0100
0000
,
0001
0000
0010
0000
0100
0000
1000
0000
0001
1000
0010
0100
2002
0000
3003
0000
,
1000
0100
1000
0000
0001
0010
0001
0000
0100
0010
0100
0000
0010
0100
0010
0000
,
1000
0000
0100
0000
0010
0000
0001
0000
1000
0001
0100
0010
2002
0000
3003
0000
,
0001
0010
0001
0010
0001
0010
0100
1000
0100
1000
0100
1000
0100
1000
0100
0010
,
0001
0010
0001
0010
0001
0010
0100
1000
0100
1000
0100
1000
0100
1000
0100
0010
,
0001
0010
0000
0001
0010
0000
0001
0010
1000
0100
0000
1000
0100
0000
1000
0100
,
0001
0000
0010
0000
0100
0000
1000
0000
0100
0000
0010
0000
1000
0100
0001
0010
,
1001
0000
1000
0001
0000
0001
1000
0100
,
0010
0001
1000
0100
0010
0001
1000
0001
,
0100
0010
0001
1000
0010
0100
1000
0001
,
2002
0000
0000
0000
,
3003
0000
0000
0000
;
