#TITLE:GO! (EK Mix);
#SUBTITLE:;
#ARTIST:DM Ashura;
#TITLETRANSLIT:;
#SUBTITLETRANSLIT:;
#ARTISTTRANSLIT:;
#GENRE:;
#CREDIT:;
#MUSIC:GO! (EK Mix).ogg;
#BANNER:GO! (EK Mix).png;
#BACKGROUND:GO! (EK Mix)-bg.png;
#CDTITLE:;
#SAMPLESTART:56.842;
#SAMPLELENGTH:15.000;
#SELECTABLE:YES;
#OFFSET:0.000;
#BPMS:0.000=152.000
,84.000=76.000
,94.000=152.000
,234.000=304.000
,264.000=152.000
,269.000=304.000
;
#STOPS:;
#BGCHANGES:0.000=GO! (EK Mix).mp4=1.000=0=0=1=StretchNormal====,
99999.000=-nosongbg-=1.000=0=0=0=StretchNoLoop====
;
#FGCHANGES:;

//--------------- dance-single - ----------------
#NOTES:
     dance-single:
     :
     Beginner:
     8:
     0.257019,0.410484,0.081779,0.099952,0,198,189,9,11,0,0,0.257019,0.410484,0.081779,0.099952,0,198,189,9,11,0,0:
0000
0000
0000
0000
,
0000
0000
0000
0000
,
0000
0000
0000
0000
,
0000
0000
0000
0000
,
0000
0000
0000
0000
,
1000
0000
0010
0000
,
1000
0100
0001
0010
,
0001
0000
0100
0000
,
0010
1000
0100
0001
,
1000
0000
0010
1000
,
0010
0100
0001
0010
,
1001
0000
0100
0000
,
0010
0000
1000
0000
,
0010
0000
0001
0000
,
1000
0000
0100
0000
,
1000
0000
0010
0000
,
1000
0000
0010
0000
,
0001
0000
1000
0000
,
0010
0000
0001
0000
,
1000
0000
0010
0001
,
1000
0001
1000
0010
,
1001
0010
0100
0010
,
0001
1000
0010
0100
,
1000
0001
0010
0000
,
1000
0000
0001
0000
,
0100
0000
1000
0000
,
0001
0000
0010
0000
,
0100
0000
0010
0000
,
1000
0000
0001
0000
,
0100
0000
0001
0000
,
0010
0000
0001
0000
,
0100
0000
0001
0000
,
0100
1000
0001
1000
,
0010
0100
0001
1000
,
0010
0100
0001
0010
,
0100
1000
0001
1000
,
0010
0100
0001
0010
,
0100
1000
0001
1000
,
0010
0100
0001
0010
,
0100
1000
0001
1000
,
0010
0100
0001
0010
,
0100
1000
0001
1000
,
0010
0100
0001
0010
,
0100
1000
0001
1000
,
0010
0100
0001
0010
,
0100
1000
0001
1000
,
0010
0100
0001
0010
,
0100
1000
0001
1000
,
0010
0100
0001
0010
,
0100
1000
0001
1000
,
0010
0100
0001
0010
,
0100
1000
0001
1000
,
0100
0001
1000
0010
,
0001
0000
2002
3003
1000
0000
0010
0000
,
0100
1000
0001
0010
,
1000
0100
0010
0100
,
0001
0100
0001
0010
,
0001
0010
0100
0001
,
1000
0100
2000
0000
,
3000
0000
0002
0000
,
0003
0000
0200
0000
,
0300
0000
0020
0000
,
0030
0000
0002
0000
,
0003
0000
2000
0000
,
3000
0000
0200
0000
,
0300
0000
0001
0000
,
1010
0101
1100
0011
,
0110
2002
0000
0000
,
0000
0000
0000
0000
,
0000
0000
3003
0000
;

//--------------- dance-single - ----------------
#NOTES:
     dance-single:
     :
     Easy:
     11:
     0.351779,0.568363,0.23625,0.036346,0,271,245,26,4,0,0,0.351779,0.568363,0.23625,0.036346,0,271,245,26,4,0,0:
0000
0000
0000
0000
,
0000
0000
0000
0000
,
0000
0000
0000
0000
,
0000
0000
0000
0000
,
0000
0000
0000
0000
,
1000
0100
0010
0001
,
1000
0100
0001
0010
,
0001
1000
0100
0001
,
0010
1000
0100
0001
,
1000
0001
0010
1100
,
1010
0110
0101
0011
,
1001
0010
0001
0100
,
0010
0100
1000
0001
,
0010
0001
0010
0001
,
1000
0100
1000
0100
,
1000
0001
0010
0100
,
1000
0100
0010
0001
,
0010
0100
1000
0100
,
0010
0001
0010
0100
,
1000
0100
0010
0011
,
1010
0101
1100
0110
,
1001
0100
0010
0001
0010
1000
0100
0010
,
0100
0001
0100
1000
0010
0001
1000
0100
,
1000
0010
0001
0100
0010
0000
0100
0000
,
1000
0010
0001
0010
,
0100
1000
0100
0010
,
0001
0010
0100
0001
,
0100
0001
0010
0100
,
1000
0100
0001
1000
,
0010
0100
0001
0010
,
0100
1000
0001
1000
,
0010
0100
0001
0010
,
0100
1000
0001
1000
,
0010
0100
0001
1000
,
0010
0100
0001
0010
,
0100
1000
0001
1000
,
0010
0100
0001
0010
,
0100
1000
0001
1000
,
0010
0100
0001
0010
,
0100
1000
0001
1000
,
0010
0100
0001
0010
,
0100
1000
0001
1000
,
0010
0100
0001
0010
,
0100
1000
0001
1000
,
0010
0100
0001
0010
,
0100
1000
0001
1000
,
0010
0100
0001
0010
,
0100
1000
0001
1000
,
0010
0100
0001
0010
,
0100
1000
0001
1000
,
0010
0100
0001
0010
,
0100
1000
0101
1100
,
0101
0011
1100
0110
,
0101
0000
2002
3003
1000
0000
0010
0000
,
0100
1000
0001
0010
,
1000
0100
0010
0100
,
0001
0100
0001
0010
,
0001
0010
0100
0001
,
1000
0100
1000
0000
,
0100
0000
0010
0000
,
0001
0000
0100
0000
,
1000
0000
0001
0000
,
0100
0000
0010
0000
,
1000
0000
0001
0000
,
0100
0000
1000
0000
,
0001
0000
0100
0000
,
1010
0101
1100
0011
,
0110
2002
0000
0000
,
0000
0000
0000
0000
,
0000
0000
3003
0000
;

//--------------- dance-single - ----------------
#NOTES:
     dance-single:
     :
     Medium:
     14:
     0.759374,1.041998,0.23625,0.036346,0.513389,585,559,26,4,0,0,0.759374,1.041998,0.23625,0.036346,0.513389,585,559,26,4,0,0:
0000
0000
0000
0000
,
0000
0000
0000
0000
,
0000
0000
0000
0000
,
0000
0000
0000
0000
,
0000
0000
0000
0000
,
1000
0100
0010
0001
0010
0001
1000
0100
,
1000
0001
0100
0010
0001
0100
0010
1000
,
0001
0000
0100
0000
1000
0000
0100
1000
0100
0000
0010
0000
0001
0000
0010
0001
,
0010
0100
1000
0001
0100
0010
0001
0100
,
1000
0001
0010
0000
0001
0000
0001
0000
0010
0000
0100
0000
1100
0000
0000
0000
,
1010
0110
0101
0011
,
1001
0100
0010
1000
0001
1000
0100
1000
,
0100
0010
0100
1000
0100
1000
0001
0010
,
0001
0100
0010
0100
0010
1000
0001
0100
,
1000
0001
0100
0010
1000
0001
0100
0010
,
1000
0100
0001
0100
0010
1000
0100
0001
,
1000
1000
0100
0100
0010
0010
0001
0001
,
0010
0010
0100
0100
1000
1000
0100
0100
,
0010
0010
0001
0001
0010
0010
0100
0100
,
1000
1000
0100
0100
0010
0010
0011
0000
,
1010
0101
1100
0110
,
1001
0000
1000
0100
0010
0000
0001
1000
0010
0100
1000
0001
0100
0010
1000
0001
,
0100
0010
1000
0001
0100
1000
0100
0001
0010
0001
0100
0010
1000
0001
0100
0010
,
1000
0100
1000
0010
0001
0010
0100
0001
0010
0000
0001
0000
0010
0000
0100
0000
,
1000
0100
0010
0100
0001
0010
0001
0100
,
0010
0100
1000
0100
1000
0010
0100
0010
,
0001
0010
0100
1000
0100
0010
0001
0010
,
0100
1000
0001
0100
0010
1000
0100
0010
,
0001
0000
0010
0000
0100
0000
1000
0000
0001
0100
0001
0000
1000
0100
1000
0000
,
0010
1000
0010
0000
0100
0001
0100
0000
0001
0010
0001
0000
0010
0100
0010
0000
,
0100
0010
0100
0000
1000
0001
1000
0000
0001
0100
0001
0000
1000
0100
1000
0000
,
0010
1000
0010
0000
0100
0001
0100
0000
0001
0010
0001
0000
0010
0100
0010
0000
,
0100
0010
0100
0000
1000
0001
1000
0000
0001
0100
0001
0000
1000
0100
1000
0000
,
0010
1000
0010
0000
0100
0001
0100
0000
0001
0100
0001
0000
1000
0100
1000
0000
,
0010
1000
0010
0000
0100
0001
0100
0000
0001
0010
0001
0000
0010
0100
0010
0000
,
0100
0010
0100
0000
1000
0001
1000
0000
0001
0100
0001
0000
1000
0100
1000
0000
,
0010
1000
0010
0000
0100
0001
0100
0000
0001
0010
0001
0000
0010
0100
0010
0000
,
0100
0010
0100
0000
1000
0001
1000
0000
0001
0100
0001
0000
1000
0100
1000
0000
,
0010
1000
0010
0000
0100
0001
0100
0000
0001
0010
0001
0000
0010
0100
0010
0000
,
0100
0010
0100
0000
1000
0001
1000
0000
0001
0100
0001
0000
1000
0100
1000
0000
,
0010
1000
0010
0000
0100
0001
0100
0000
0001
0010
0001
0000
0010
0100
0010
0000
,
0100
0010
0100
0000
1000
0001
1000
0000
0001
0100
0001
0000
1000
0100
1000
0000
,
0010
1000
0010
0000
0100
0001
0100
0000
0001
0010
0001
0000
0010
0100
0010
0000
,
0100
0010
0100
0000
1000
0001
1000
0000
0001
0100
0001
0000
1000
0100
1000
0000
,
0010
1000
0010
0000
0100
0001
0100
0000
0001
0010
0001
0000
0010
0100
0010
0000
,
0100
0010
0100
0000
1000
0001
1000
0000
0001
0100
0001
0000
1000
0100
1000
0000
,
0010
1000
0010
0000
0100
0001
0100
0000
0001
0010
0001
0000
0010
0100
0010
0000
,
0100
0010
0100
0000
1000
0001
1000
0000
0001
0100
0001
0000
1000
0100
1000
0000
,
0010
1000
0010
0000
0100
0001
0100
0000
0001
0010
0001
0000
0010
0100
0010
0000
,
0100
0010
0100
0000
1000
0001
1000
0000
0001
0100
0001
0000
1000
0100
1000
0000
,
0010
1000
0010
0000
0100
0001
0100
0000
0001
0010
0001
0000
0010
0100
0010
0000
,
0100
0010
0100
0000
1000
0001
1000
0000
0101
0000
0000
0000
1100
0000
0000
0000
,
0101
0011
1100
0110
,
0101
0000
2002
3003
1000
0100
0010
0001
,
1000
0001
1000
0100
0010
0001
0010
1000
,
0100
0001
0010
0001
0100
1000
0100
0010
,
0001
0010
0100
1000
0001
0100
0010
1000
,
0001
0100
0010
1000
0100
0010
0001
0010
,
0001
0010
0100
1000
1000
0000
0100
0000
,
1000
0100
0010
0100
,
0001
0010
0001
0010
,
0100
0010
1000
0100
,
1000
0010
0100
0010
,
0001
0010
0001
0100
,
0010
0100
1000
0100
,
0010
0001
0100
1000
,
1010
0101
1100
0011
,
0110
2002
0000
0000
,
0000
0000
0000
0000
,
0000
0000
3003
0000
;

//--------------- dance-single - ----------------
#NOTES:
     dance-single:
     :
     Hard:
     16:
     0.858028,1.073574,0.381634,0.036346,0.704206,661,619,42,4,0,0,0.858028,1.073574,0.381634,0.036346,0.704206,661,619,42,4,0,0:
0000
0000
0000
0000
,
0000
0000
0000
0000
,
0000
0000
0000
0000
,
0000
0000
0000
0000
,
0000
0000
0000
0000
,
1000
0100
0000
1000
0100
0000
0001
0010
0000
0001
0010
0000
0100
0010
0100
0010
,
0100
1000
0000
0100
1000
0000
0010
0001
0000
0010
0001
0010
0100
0010
0100
0010
,
1000
0000
0100
0000
1000
0000
0100
1000
0100
0000
0010
0000
0001
0000
0010
0001
,
0010
0100
1000
0001
0100
0010
0001
0100
,
1000
0001
0010
0000
0001
0000
0001
0000
0010
0000
0100
0000
1100
0000
0000
0000
,
1010
0110
0101
0011
,
1001
0100
0010
1000
0001
1000
0100
1000
,
0100
1000
0100
0000
0010
0001
0010
0000
0100
0010
0100
0000
0010
0100
0010
0000
,
0010
0001
0010
0000
0100
1000
0100
0000
0010
0100
0010
0000
0100
0010
0100
0000
,
0010
0001
0010
0000
0100
1000
0100
0000
0010
0100
0010
0000
0100
0010
0100
0000
,
0100
1000
0100
0000
0010
0001
0010
0000
0100
0010
0100
0000
0010
0100
0010
0000
,
1000
1000
1100
0100
0110
0010
0011
0001
,
0011
0010
0110
0100
1100
1000
1100
0100
,
0110
0010
0011
0001
0011
0010
0110
0100
,
1100
1000
1100
0100
0110
0010
0011
0000
,
1010
0101
1100
0110
,
1001
1000
0100
0000
0010
0001
0010
0000
0100
0001
1000
0010
0100
0001
0010
1000
,
0010
0000
0100
0001
0010
1000
0010
0100
0010
1000
0001
0000
0001
0010
0001
0100
,
0010
0000
1000
0000
0010
0000
0100
0000
0001
0000
1000
0001
0100
0010
0001
0100
0010
0000
0000
0000
0001
0000
0000
0000
0010
0000
0000
0000
0100
0000
0000
0000
,
1000
0100
0010
0100
0001
0010
0001
0100
,
0010
0100
1000
0100
1000
0010
0100
0010
,
0001
0010
0100
1000
0100
0010
0001
0010
,
0100
1000
0001
0100
0010
1000
0100
0010
,
0001
0000
0010
0000
0100
0000
1000
0000
0001
0100
0001
0000
1000
0000
0100
0010
,
0100
0000
1000
0000
0010
0100
0010
0000
0100
0010
0100
0000
0001
0010
0001
0000
,
1000
0000
0100
0010
0100
0000
0100
0000
1000
0100
1000
0000
0001
0010
0001
0000
,
1000
0010
1000
0000
0001
0000
0010
0100
0010
0000
0001
0000
0100
0010
0100
0000
,
0010
0100
0010
0000
1000
0100
1000
0000
0001
0000
0010
0100
0010
0000
0010
0000
,
0001
0010
0001
0000
1001
0000
0000
0000
1000
0010
1000
0000
0001
0000
0010
0100
,
0010
0000
0001
0000
0100
0010
0100
0000
0010
0100
0010
0000
1000
0100
1000
0000
,
0001
0000
0010
0100
0010
0000
0010
0000
0001
0010
0001
0000
1000
0100
1000
0100
,
0001
0100
0001
0000
1000
0000
0100
0010
0100
0000
1000
0000
0010
0100
0010
0000
,
0100
0010
0100
0000
0001
0010
0001
0000
1000
0000
0100
0010
0100
0000
0100
0000
,
1000
0100
1000
0000
0001
0010
0001
0010
1000
0010
1000
0000
0001
0000
0010
0100
,
0010
0000
0001
0000
0100
0010
0100
0000
0010
0100
0010
0000
1000
0100
1000
0000
,
0001
0000
0010
0100
0010
0000
0010
0000
0001
0010
0001
0000
1000
0100
1000
0100
,
0001
0100
0001
0000
1000
0000
0100
0010
0100
0000
1000
0000
0010
0100
0010
0000
,
0100
0010
0100
0000
0001
0010
0001
0000
1000
0000
0100
0010
0100
0000
0100
0000
,
1000
0100
1000
0000
0001
0010
0001
0010
1000
0010
1000
0000
0001
0000
0010
0100
,
0010
0000
0001
0000
0100
0010
0100
0000
0010
0100
0010
0000
1000
0100
1000
0000
,
0001
0000
0010
0100
0010
0000
0010
0000
0001
0010
0001
0000
1000
0100
1000
0100
,
0001
0100
0001
0000
1000
0000
0100
0010
0100
0000
1000
0000
0010
0100
0010
0000
,
0100
0010
0100
0000
0001
0010
0001
0000
1000
0000
0100
0010
0100
0000
0100
0000
,
1000
0100
1000
0000
0001
0010
0001
0010
1000
0010
1000
0000
0001
0000
0010
0100
,
0010
0000
0001
0000
0100
0010
0100
0000
0010
0100
0010
0000
1000
0100
1000
0000
,
0001
0000
0010
0100
0010
0000
0010
0000
0001
0010
0001
0000
1000
0100
1000
0100
,
0001
0100
0001
0000
1000
0000
0100
0010
0101
0000
0000
0000
1100
0000
0000
0000
,
0101
0011
1100
0110
,
0101
0000
0000
0000
2002
0000
3003
0000
1000
0100
0000
1000
0100
0000
1000
0100
,
0010
0100
0000
0010
0100
0000
0010
0100
0010
0001
0000
0010
0001
0000
0010
0001
,
0100
0010
0000
0100
0010
0000
0100
0010
1000
0100
0000
1000
0100
0000
1000
0100
,
0010
0100
0000
0010
0100
0000
0010
0100
0001
0010
0000
0001
0010
0000
0001
0010
,
1000
0100
0010
1001
0100
0010
1000
0001
,
0010
0000
0100
0010
0001
1000
0010
0100
1000
0000
0100
0000
1000
0000
0100
0000
,
1000
0100
1000
0100
0010
0001
0010
0001
,
0010
0001
0010
0001
0100
1000
0010
0001
,
0010
0100
1000
0100
0010
0001
1000
0100
,
0001
0010
0100
0010
0001
0100
0010
1000
,
0001
0100
0010
1000
0001
0100
0010
1000
,
0100
0001
0010
0100
0001
0010
0100
1000
,
0001
0100
1000
0001
1000
0001
1000
0001
,
1010
0101
1100
0011
,
0110
2002
0000
0000
,
0000
0000
0000
0000
,
0000
0000
3003
0000
;

//--------------- dance-single - ----------------
#NOTES:
     dance-single:
     :
     Challenge:
     18:
     0.99822,1.452482,0.381634,0.036346,1.09947,769,727,42,4,0,0,0.99822,1.452482,0.381634,0.036346,1.09947,769,727,42,4,0,0:
0000
0000
0000
0000
,
0000
0000
0000
0000
,
0000
0000
0000
0000
,
0000
0000
0000
0000
,
0000
0000
0000
0000
,
1000
0100
0000
1000
0100
0000
0001
0010
0000
0001
0010
0000
0100
0010
0100
0010
,
0100
0000
1000
0000
0000
0000
0100
0000
1000
0000
0000
0000
0010
0000
0001
0000
0000
0000
0010
0000
0001
0000
0010
0000
0100
0001
0010
1000
0100
0000
0010
0000
,
1000
0000
0100
0000
1000
0000
0100
1000
0100
0000
0010
0000
0001
0000
0010
0001
,
0010
0100
1000
0001
0100
0010
0001
0100
,
1000
0001
0010
0000
0001
0000
0001
0000
0010
0000
0100
0000
1100
0000
1000
0000
,
1010
0010
0110
0100
0101
0001
0011
0001
,
1001
0100
0010
1000
0001
1000
0100
1000
,
0100
1000
0100
0000
0010
0001
0010
0000
0100
0010
0100
0000
0010
0100
0010
0000
,
0010
0001
0010
0000
0100
1000
0100
0000
0010
0100
0010
0000
0100
0010
0100
0000
,
0010
0001
0010
0000
0100
1000
0100
0000
0010
0100
0010
0000
0100
0010
0100
0000
,
0100
1000
0100
0000
0010
0001
0010
0000
0100
0010
0100
0000
0010
0100
0010
0000
,
1000
0100
1000
0100
1100
0010
0100
0010
0110
0001
0010
0001
0011
0010
0001
0010
,
0011
0100
0010
0100
0110
1000
0100
1000
1100
0100
1000
0100
1100
0010
0100
0010
,
0110
0001
0010
0001
0011
0010
0001
0010
0011
0100
0010
0100
0110
1000
0100
1000
,
1100
0100
1000
0100
1100
0010
0100
0010
0110
0001
0010
0001
0011
0000
0000
0000
,
1010
1000
0101
0100
1100
1000
0110
0010
,
1001
1000
0100
0000
0010
0001
0010
0000
0100
0001
1000
0010
0100
0001
0010
1000
,
0010
0100
0010
0000
0100
0000
0001
0000
0010
0100
1000
0000
0010
0000
0100
0000
0010
0100
1000
0000
0001
0010
0001
0000
0001
0000
0010
0000
0001
0010
0100
0001
,
0010
0000
0000
0000
1000
0000
0100
0000
0010
0000
0000
0000
0100
0000
0000
0000
0001
0000
0000
0000
1000
0000
0001
0000
0100
0001
0010
1000
0001
0010
0100
0000
0010
0000
0000
0000
0000
0000
0000
0000
0001
0000
0000
0000
0000
0000
0000
0000
0010
0000
0000
0000
0000
0000
0000
0000
0100
0000
0000
0000
0000
0000
0000
0000
,
1000
0100
0010
0100
0001
0010
0001
0100
,
0010
0000
0100
0010
0001
0000
0100
0010
1000
0000
0010
0100
0010
0100
0010
0000
,
0001
0010
0100
1000
0100
0010
0001
0010
,
0100
0000
0010
0001
1000
0000
0100
0000
0001
0000
0010
0000
0100
0000
0000
0000
0010
0000
0001
0000
1000
0000
0010
0000
0100
0000
0000
0000
0010
0000
0000
0000
,
0001
0000
0010
0000
0100
0000
1000
0000
0001
0100
0001
0000
1000
0000
0100
0010
,
0100
0000
1000
0000
0010
0100
0010
0000
0100
0010
0100
0000
0001
0010
0001
0000
,
1000
0000
0000
0000
0100
0000
0010
0000
0100
0000
0010
0001
0100
0000
0010
0100
1000
0000
0100
0000
1000
0000
0000
0000
0001
0000
0010
0000
0001
0000
0000
0000
,
1000
0000
0010
0000
1000
0000
0000
0000
0001
0000
0000
0000
0010
0001
0100
0000
0010
0000
0000
0000
0001
0000
0000
0000
0100
0000
0010
0000
0100
0000
0000
1000
,
0010
0100
0010
0000
1000
0100
1000
0000
0001
0000
0010
0100
0010
0000
0010
0000
,
0001
0010
0001
0000
1001
0000
0000
0000
1000
0010
1000
0000
0001
0000
0010
0100
,
0010
0000
0001
0000
0100
0010
0100
0000
0010
0100
0010
0000
1000
0100
1000
0000
,
0001
0000
0010
0100
0010
0000
0010
0000
0001
0010
0001
0000
1000
0100
1000
0100
,
0001
0100
0001
0000
1000
0000
0100
0010
0100
0000
1000
0000
0010
0100
0010
0000
,
0100
0010
0100
0000
0001
0010
0001
0000
1000
0000
0100
0010
0100
0000
0100
0000
,
1000
0100
1000
0000
0001
0010
0001
0010
1000
0010
1000
0000
0001
0000
0010
0100
,
0010
0000
0001
0000
0100
0010
0100
0000
0010
0100
0010
0000
1000
0100
1000
0000
,
0001
0000
0010
0100
0010
0000
0010
0000
0001
0010
0001
0000
1000
0100
1000
0100
,
0001
0100
0001
0000
1000
0000
0100
0010
0100
0000
1000
0000
0010
0100
0010
0000
,
0100
0010
0100
0000
0001
0010
0001
0000
1000
0000
0100
0010
0100
0000
0100
0000
,
1000
0000
0100
0000
1000
0000
0010
0100
0001
0000
0010
0000
0001
0000
0010
0000
1000
0000
0010
0000
1000
0000
0000
0000
0001
0000
0000
0000
0010
0000
0100
0000
,
0010
0000
0001
0000
0100
0010
0100
0000
0010
0100
0010
0000
1000
0100
1000
0000
,
0001
0000
0000
0000
0010
0000
0100
0000
0010
0000
0000
0000
0010
0000
0000
0000
0001
0000
0010
0000
0001
0000
0000
0000
1000
0000
0100
0000
1000
0000
0100
0010
,
0001
0100
0001
0000
1000
0000
0100
0010
0100
0000
1000
0000
0010
0100
0010
0000
,
0100
0010
0100
0000
0001
0010
0001
0000
1000
0000
0100
0010
0100
0000
0100
0000
,
1000
0000
0100
0000
1000
0100
0010
0000
0001
0000
0010
0000
0001
0000
0010
0000
1000
0000
0010
0000
1000
0000
0000
0000
0001
0010
0000
0000
0010
0000
0100
0000
,
0010
0000
0001
0000
0100
0010
0100
0000
0010
0100
0010
0000
1000
0100
1000
0000
,
0001
0010
0100
0000
0010
0000
0100
0000
0010
0000
0000
0000
0010
0000
0000
0000
0001
0000
0010
0000
0001
0000
0000
0000
1000
0000
0100
0000
1000
0000
0100
0000
,
0001
0010
0100
0000
0001
0000
0000
0000
1000
0000
0000
0000
0100
0000
0010
0000
0101
0000
0000
0000
0001
0000
0000
0000
1100
0000
0000
0000
0100
0000
0000
0000
,
0101
0000
0001
0000
0011
0000
0100
0010
1100
0000
0010
0000
0110
0010
0001
0000
,
0101
0000
0000
0100
1000
0000
0100
0000
2002
0000
0000
0000
3003
0000
0000
0000
1000
0000
0100
0000
0000
0000
1000
0000
0100
0000
0000
0000
1000
0000
0100
0000
,
0010
0100
0000
0010
0100
0000
0010
0100
0010
0001
0000
0010
0001
0000
0010
0001
,
0100
0010
0000
0100
0010
0000
0100
0010
1000
0100
0000
1000
0100
0000
1000
0100
,
0010
0100
0000
0010
0100
0000
0010
0100
0001
0010
0000
0001
0010
0000
0001
0010
,
1000
0100
0010
1001
0100
0010
1000
0001
,
0010
0000
0000
0000
0100
1000
0010
0100
0001
0010
1000
0100
0010
0000
0100
0010
1000
0000
0000
0000
0100
0000
0000
0000
1000
0000
0000
0000
0100
0000
0000
0000
,
1000
0100
1000
0100
0010
0001
0010
0001
,
0010
0001
0010
0001
0100
1000
0010
0001
,
0010
0000
0100
0000
1000
0010
0100
0000
0010
0001
0010
0000
1000
0000
0100
0000
,
0001
0000
0010
0000
0100
0000
0010
1000
0001
0000
0100
0000
0010
0000
1000
0000
,
0001
0100
0010
1000
0001
0100
0010
1000
,
0100
0001
0010
0100
0001
0010
0100
1000
,
0001
0000
0100
0000
0010
0100
0010
0100
0010
0100
1000
0001
1000
0001
1000
0001
,
1010
0010
0101
0001
1100
0100
0011
0010
,
0110
0100
2002
0000
0000
0000
0000
0000
,
0000
0000
0000
0000
,
0000
0000
3003
0000
;
