#TITLE:EXE;
#SUBTITLE:;
#ARTIST:Mr.T;
#TITLETRANSLIT:;
#SUBTITLETRANSLIT:;
#ARTISTTRANSLIT:;
#GENRE:;
#CREDIT:;
#MUSIC:EXE.ogg;
#BANNER:EXE.png;
#BACKGROUND:EXE-bg.png;
#CDTITLE:/CDTitles/beatmania IIDX 10th style.png;
#SAMPLESTART:25.823;
#SAMPLELENGTH:15.000;
#SELECTABLE:YES;
#OFFSET:0.000;
#BPMS:0.000=158.000;
#STOPS:;
#BGCHANGES:0.000=EXE.avi=1.000=0=0=1=StretchNormal====,
99999.000=-nosongbg-=1.000=0=0=0=StretchNoLoop====
;
#FGCHANGES:;

//--------------- dance-single - ----------------
#NOTES:
     dance-single:
     :
     Beginner:
     4:
     0,0,0,0,0:
0000
0000
0000
0000
,
0000
0000
0000
0000
,
0000
0000
0000
0000
,
0000
0000
0000
0000
,
0000
0000
0000
0000
,
1000
0000
0000
0000
,
0010
0000
0000
0000
,
0100
0000
0000
0000
,
0001
0000
0000
0000
,
1000
0000
0000
0000
,
0010
0000
0000
0000
,
0100
0000
0000
0000
,
0001
0000
0000
0000
,
1000
0000
0000
0000
,
0010
0000
0000
0000
,
0100
0000
0000
0000
,
0001
0000
0000
0000
,
1000
0000
0100
0000
,
1000
0000
0000
0000
,
0001
0000
0010
0000
,
0001
0000
0000
0000
,
0100
0000
0010
0000
,
0100
0000
0000
0000
,
0010
0000
0100
0000
,
0010
0000
0000
0000
,
1000
0000
0100
0000
,
0010
0000
0000
0000
,
0001
0000
0010
0000
,
0100
0000
0000
0000
,
1000
0100
0010
0000
,
0001
0010
0100
0000
,
1000
0000
0010
0000
,
0100
0000
0001
0000
,
2000
0000
0000
0000
,
3020
0000
0230
0000
,
0302
0000
0000
0000
,
0023
0000
0230
0000
,
1300
0000
0100
0000
,
0010
0000
0001
0000
,
1000
0000
0010
0000
,
0100
0000
0001
0000
,
1000
0000
0010
0000
,
0100
0000
0001
0000
,
1000
0000
0010
0000
,
0100
0000
0001
0000
,
1000
0000
0100
0000
,
0010
0000
0001
0000
,
0100
0000
0010
0000
,
1000
0000
0001
0000
,
0000
0000
0001
0000
,
1000
0000
0010
0000
,
0100
0000
1000
0000
,
0001
0000
0100
0000
,
0010
0000
0001
0000
,
1000
0000
0100
0000
,
0010
0000
0001
0000
,
0100
0000
1001
0000
;

//--------------- dance-single - ----------------
#NOTES:
     dance-single:
     :
     Easy:
     6:
     0,0,0,0,0:
0000
0000
0000
0000
,
0000
0000
0000
0000
,
0000
0000
0000
0000
,
0000
0000
0000
0000
,
0000
0000
0000
0000
,
1000
0001
0010
1000
,
0100
1000
0001
0100
,
0010
1000
0001
0100
,
0010
1000
0001
0100
,
1000
0000
1000
0000
,
0010
0000
0100
0000
,
0001
0000
0001
0000
,
0100
0000
0010
0000
,
1000
0100
0010
0000
,
0001
0010
0100
0000
,
1000
0010
0100
0001
,
0010
1000
0001
0100
,
1000
0100
1000
0100
,
0001
0010
0001
0010
,
1000
0010
1000
0010
,
0001
0100
0001
0100
,
0010
0100
0010
0100
,
0100
0010
0100
0010
,
0100
0010
0100
0010
,
0010
0100
0010
0100
,
1000
0100
1000
0100
,
0001
0010
0001
0010
,
1000
0010
1000
0010
,
0001
0100
0001
0100
,
0010
0100
0010
0100
,
0100
0010
0100
0010
,
0100
0010
0100
0010
,
0010
0100
0010
0100
,
2000
0000
0000
0000
,
3020
0000
0230
0000
,
0302
0000
0000
0000
,
0023
0000
0230
0000
,
1300
0100
1000
0100
,
0001
0010
0001
0010
,
1000
0100
0010
0001
,
1000
0001
1001
0000
,
1000
0100
0010
0001
,
0100
0010
1000
0001
,
0100
0010
1000
0100
,
0001
0100
0010
1000
,
0100
0010
0001
1000
,
0100
0010
1000
0100
,
0001
0010
0100
1000
,
0100
0010
1000
0001
,
1001
1000
0100
0010
,
0001
1000
0001
0010
,
1000
0100
0010
1000
,
0001
0100
0010
1000
,
0001
1000
0100
0010
,
1000
0001
0100
0010
,
1000
0100
0001
0010
,
0100
1000
0001
1001
;

//--------------- dance-single - ----------------
#NOTES:
     dance-single:
     :
     Medium:
     9:
     0,0,0,0,0:
0000
0000
0000
0000
,
0000
0000
0000
0000
,
0000
0000
0000
0000
,
0000
0000
0000
0000
,
0000
0000
0000
0000
,
1000
0001
0010
1000
,
0100
0010
0001
1000
,
0010
0001
0010
0000
0100
1000
0100
0000
,
1000
0000
0100
0000
0010
0000
0001
0000
1000
0100
0000
0010
0001
0000
0100
0010
,
1000
0100
0010
0001
1000
0100
0010
0001
,
1000
0100
1000
0000
0001
0010
0001
0000
,
0001
0010
0100
1000
0001
0010
0100
1000
,
0001
0010
0001
0000
1000
0100
1000
0000
,
1000
0100
0010
0001
1000
0100
0010
0001
,
1000
0100
1000
0000
0001
0010
0001
0000
,
0001
0010
0100
1000
0001
0010
0100
1000
,
0001
0010
0001
0010
1000
0100
1000
0100
,
0001
0010
0100
0010
1000
0010
0100
0001
,
1000
0001
0100
0010
1000
0010
0100
0001
,
1000
0100
0010
0001
1000
0010
0100
1000
,
0100
0010
1000
0100
0001
0010
1000
0010
,
0100
1000
0100
0001
0100
0010
1000
0010
,
0100
0001
1000
0100
0010
0100
1000
0001
,
0100
0001
1000
0010
0100
0001
1000
0010
,
0100
0001
1000
0010
0001
0010
1000
0100
,
1000
0100
0010
0100
0001
0100
0010
1000
,
0001
1000
0010
0100
0001
0100
0010
1000
,
0001
0010
0100
1000
0001
0100
0010
0001
,
0010
0100
0001
0010
1000
0100
0001
0100
,
0010
0001
0010
1000
0010
0100
0001
0100
,
0010
1000
0001
0010
0100
0010
0001
1000
,
0010
1000
0001
0100
0010
1000
0001
0100
,
0010
1000
0001
0100
1000
0100
0001
0010
,
0002
0000
0000
2003
,
3200
0000
0000
0320
0000
0000
0032
0000
,
0023
0000
0000
0230
0000
0000
2300
0000
,
3200
0000
0000
0320
0000
0000
0032
0000
,
0103
1000
0100
0000
0010
0001
0010
0000
,
1000
0001
0100
0010
,
1000
0100
1000
0000
0001
0010
0001
0000
,
1100
1010
0101
0011
,
1000
0100
0010
1000
0001
0100
0010
1000
,
0001
0010
0100
1000
0001
0100
0010
0000
,
0001
0010
0100
0001
1000
0010
0100
0001
,
1000
0100
0010
0001
1000
0010
0100
0000
,
1000
0100
0010
1000
0001
0100
0010
1000
,
0001
0010
0100
1000
0001
0100
0010
0000
,
0001
0010
0100
0001
1000
0010
0100
0001
,
1000
0100
0010
0001
1000
0010
0100
0001
,
0010
0000
0100
0010
1000
0001
0100
0010
,
1000
0010
0100
0001
1000
0010
0100
1000
,
0100
0010
1000
0001
0100
0010
0001
0100
,
0010
1000
0100
0010
1000
0001
0010
0100
,
0001
1000
0100
1000
0100
0010
0001
0100
,
0010
0001
0100
0010
1000
0010
0100
0001
,
1000
0010
0100
0001
1000
0010
0100
0010
,
1000
0010
0100
1001
0100
0010
1001
0000
;

//--------------- dance-single - ----------------
#NOTES:
     dance-single:
     :
     Hard:
     13:
     0,0,0,0,0:
0000
0000
0000
0000
,
0000
0000
0000
0000
,
0000
0000
0000
0000
,
0000
0000
0000
0000
,
0000
0000
0000
0000
,
1000
0001
0100
1000
,
0001
0010
1000
0100
,
0010
0001
0010
0100
1000
0100
0010
0001
,
0010
0100
0010
0000
1000
0100
1000
0000
0001
0010
0100
1000
0100
0010
0001
1000
,
0001
0000
0000
0001
0100
0000
0000
0100
0010
0000
0000
0010
1000
0000
0000
1000
,
0001
0000
0100
0000
0010
0000
1000
0000
0100
0000
0010
1000
0001
1000
0100
0001
,
1000
0000
0000
1000
0010
0000
0000
0010
0100
0000
0000
0100
0001
0000
0000
0001
,
1000
0000
0010
0000
0100
0000
0001
0000
0010
0000
0100
0001
1000
0001
0010
1000
,
0001
0000
0000
0001
0010
0000
0000
0010
0100
0000
0000
0100
1000
0000
0000
1000
,
0001
0000
0010
0000
0100
0000
1000
0000
0010
0000
0100
1000
0001
1000
0010
0001
,
1000
0000
0000
1000
0100
0000
0000
0100
0010
0000
0000
0010
0001
0000
0000
0001
,
1000
0000
0100
0000
0010
0000
0001
0000
0100
1000
0010
0001
1000
0001
0100
1000
,
0010
0001
0010
0000
0100
0000
1000
0000
0100
0000
0001
0000
0010
0000
0100
0000
,
1000
0000
0100
0000
0010
0000
0001
0010
0100
0000
1000
0000
0100
0000
1000
0000
,
0100
1000
0100
0000
0010
0000
0001
0000
0010
0000
1000
0000
0100
0000
0010
0000
,
0001
0000
0010
0000
0100
0000
1000
0100
0010
0000
0001
0000
0010
0000
0001
0000
,
0010
0001
0010
0000
0100
0000
1000
0000
0100
0000
0001
0000
0010
0000
0100
0000
,
1000
0000
0100
0000
0010
0000
0001
0010
0100
0000
1000
0000
0100
0000
1000
0000
,
0100
1000
0100
0000
0010
0000
0001
0000
0010
0000
1000
0000
0100
0000
0010
0000
,
0001
0000
0010
0000
0100
0000
1000
0000
0100
0010
0001
0000
0010
0000
1000
0000
,
0100
1000
0100
0000
0010
0000
0001
0000
0010
0000
1000
0000
0100
0000
0010
0000
,
0001
0000
0010
0000
0100
0000
1000
0100
0010
0000
0001
0000
0010
0000
0001
0000
,
0010
0001
0010
0000
0100
0000
1000
0000
0100
0000
0001
0000
0010
0000
0100
0000
,
1000
0000
0100
0000
0010
0000
0001
0010
0100
0000
1000
0000
0100
0000
1000
0000
,
0100
1000
0100
0000
0010
0000
0001
0000
0010
0000
1000
0000
0100
0000
0010
0000
,
0001
0000
0010
0000
0100
0000
1000
0100
0010
0000
0001
0000
0010
0000
0001
0000
,
0010
0001
0010
0000
0100
0000
1000
0000
0100
0000
0001
0000
0010
0000
0100
0000
,
1000
0100
0010
0000
0010
0000
0001
0100
0010
0100
1000
0000
0100
0000
0010
0000
,
0002
0000
0000
2003
,
3200
0000
0000
0320
0000
0000
0032
0000
,
0023
0000
0000
0230
0000
0000
2300
0000
,
3200
0000
0000
0320
0000
0000
0032
0000
,
0103
1000
0100
1000
0010
0001
0010
0001
,
1000
1000
0001
0001
0100
0100
0010
0010
,
1000
0100
1000
0000
0001
0010
0001
0000
0100
0010
0100
0000
0010
0100
0010
0000
,
1000
0100
0010
0001
0010
1000
0100
0010
0001
0100
0010
1000
0001
0010
0100
0010
,
1000
0000
0000
1000
0100
0000
0000
0100
0010
0000
0000
0010
0001
0000
0000
0001
,
0010
0001
0010
0100
1000
0100
0010
0100
,
0001
0000
0000
0001
0010
0000
0000
0010
0100
0000
0000
0100
1000
0000
0000
1000
,
0100
1000
0100
0010
0001
0010
0100
0010
,
1000
0000
0000
1000
0100
0000
0000
0100
0010
0000
0000
0010
0001
0000
0000
0001
,
0010
0001
0010
0100
1000
0100
0010
0100
,
0001
0010
0001
0000
1000
0100
1000
0000
1000
0100
0010
0001
0010
0100
0001
1000
,
0100
0000
1000
0000
0010
0000
0001
0000
0100
1000
0001
0100
0010
1000
0001
0100
,
0001
1000
0000
0000
0001
0000
0100
0000
0010
0000
1000
0000
0001
0000
0100
0000
,
1000
0010
0001
1000
0100
0010
1000
0001
,
0100
1000
0010
0001
0010
0100
0001
1000
,
0010
0100
0010
1000
0010
0100
0001
1000
,
0100
1000
0100
0000
1000
0000
0100
0000
0001
0010
0001
0000
0010
0000
0001
0000
,
1000
0100
0010
0001
0100
0010
1000
0001
,
0100
1000
0100
0000
1000
0000
0100
0000
0001
0010
0001
0000
0010
0000
0001
0000
,
1000
0100
0010
0001
0100
0010
1001
0000
;
