#TITLE:勇気100%;
#SUBTITLE:;
#ARTIST:NYC;
#TITLETRANSLIT:Courage 100%;
#SUBTITLETRANSLIT:;
#ARTISTTRANSLIT:;
#GENRE:;
#CREDIT:;
#MUSIC:Courage 100%.ogg;
#BANNER:Courage 100%.png;
#BACKGROUND:Courage 100%-bg.png;
#CDTITLE:;
#SAMPLESTART:48.664;
#SAMPLELENGTH:12.000;
#SELECTABLE:YES;
#OFFSET:0.007;
#BPMS:0.000=143.000
,84.000=71.500
,96.000=143.000
;
#STOPS:;
#BGCHANGES:0.000=Courage 100%.avi=1.000=0=0=0=StretchNoLoop====,
99999.000=-nosongbg-=1.000=0=0=0=StretchNoLoop====
;
#FGCHANGES:;

//--------------- dance-single - ----------------
#NOTES:
     dance-single:
     :
     Beginner:
     4:
     0.165213,0.272384,0.097389,0.109562,0,95,87,8,9,0,0,0.165213,0.272384,0.097389,0.109562,0,95,87,8,9,0,0:
0000
0000
0000
0000
,
2000
0000
3002
0000
,
2003
0000
3020
0000
,
0032
0000
0000
0000
,
2003
0000
0000
0000
,
3001
0000
0100
0000
,
0000
0100
0000
0000
,
0010
0000
0000
0010
,
0000
0000
0000
0000
,
0100
0000
1000
0000
,
0000
0001
0000
0000
,
0100
0000
0000
0100
,
0000
0000
0000
0000
,
0001
0000
0000
0000
,
0000
0010
0000
0000
,
0010
0000
0000
0000
,
0000
0100
0000
0000
,
0001
0000
1000
0000
,
0000
1000
0000
0100
,
0000
1000
0000
1000
,
0000
1000
0000
0000
,
2000
0000
0000
3000
0000
0000
0000
0000
0002
0000
0000
0003
0000
0000
0000
0000
,
0200
0000
0000
0300
0000
0000
0000
0000
0001
0000
0000
0000
0100
0000
0000
0000
,
0010
0100
1000
0010
,
0010
0100
0010
0100
,
1000
0001
1000
0001
,
0100
1000
0100
1000
,
0000
0001
0000
0001
,
0010
1000
0100
1000
,
0000
0100
0000
0001
,
0010
1000
0000
0001
,
0100
0010
0000
0100
,
1000
0001
0100
0000
,
1000
0001
1001
0110
,
1000
0000
0010
0000
,
0001
0000
0100
0000
,
0100
0000
0100
0000
,
0001
0000
0100
0000
,
0100
0000
0000
0000
,
0010
0000
0000
0000
,
0101
0000
1010
0000
,
0101
0000
1100
0000
,
0100
0000
0000
0000
,
0010
0000
0000
0000
,
1001
0000
0000
1001
;

//--------------- dance-single - ----------------
#NOTES:
     dance-single:
     :
     Easy:
     5:
     0.250428,0.408576,0.194778,0.206951,0,144,128,16,17,0,0,0.250428,0.408576,0.194778,0.206951,0,144,128,16,17,0,0:
0000
0000
0000
0000
,
2000
0000
3002
0000
,
2003
0000
3020
0000
,
0032
0000
0000
0000
,
2003
0000
0000
0000
,
3001
1000
0100
0000
,
0000
0100
0001
0000
,
0010
0001
1000
0010
,
0000
0000
0000
0000
,
0100
0010
1000
0000
,
0000
0001
0000
0001
,
0100
0010
1000
0100
,
0000
0000
0000
0000
,
0001
0100
0010
0000
,
0000
0010
0000
0000
,
0010
1000
0100
0001
,
0000
0100
1000
0000
,
0001
0100
1000
0100
,
0000
1000
0000
0100
,
1000
0010
0000
1000
,
0100
1000
0100
0100
,
2000
0000
0000
3000
0000
0000
0000
0000
0002
0000
0000
0003
0000
0000
0000
0000
,
0200
0000
0000
0300
0000
0000
0000
0000
0001
0000
0000
0000
0100
0000
0000
0000
,
0010
0100
1000
0010
,
0010
0100
0010
0100
,
1010
0101
2000
3002
,
0103
1000
0100
1000
,
0000
0002
0003
0001
,
0010
1000
0100
1000
,
0000
0200
0300
0001
,
0010
1000
0000
0001
,
0100
0010
0000
0100
,
1000
0001
0100
0000
,
1010
0000
0101
0000
2002
3003
0220
0330
,
1000
0100
0010
0100
,
0001
0010
0100
0010
,
0100
0010
0100
0010
,
0001
0010
0100
0010
,
0100
0010
0000
1000
,
0010
0100
0000
0010
,
0101
1000
1010
0100
,
0101
1001
1100
1001
,
0100
0010
0000
0100
,
1010
0001
0010
1001
,
1001
0000
0000
1001
;

//--------------- dance-single - ----------------
#NOTES:
     dance-single:
     :
     Medium:
     7:
     0.431293,0.789914,0.255646,0.206951,0.073042,248,227,21,17,0,0,0.431293,0.789914,0.255646,0.206951,0.073042,248,227,21,17,0,0:
0000
0000
0000
0000
,
2000
0000
3002
0000
,
2003
0000
0000
3020
0000
0000
0000
0000
,
0032
0000
0000
0000
,
2003
0000
0000
0000
,
3001
0000
1000
0000
0100
0000
0000
0001
,
0000
1000
0100
0000
0001
1000
0000
0000
,
0010
0000
0001
0000
1000
0100
0010
0001
,
0000
0000
0000
0000
,
0100
0000
0010
0000
1000
0001
0000
0000
,
0000
0010
0001
0000
0000
0100
0001
0000
,
0100
0000
0010
0000
1000
0001
0100
0010
,
0000
0100
0000
0101
0000
1010
0000
0101
,
0001
0000
0100
0000
0010
1000
0000
0100
,
0000
0001
0010
0000
0000
0001
0000
0100
,
0010
0000
1000
0000
0100
0010
0001
0000
,
0000
0010
0100
0000
1000
0100
0000
0000
,
0001
0000
0001
0000
1000
0010
0100
0010
,
0000
0001
1000
0010
0000
0001
0100
0010
,
1000
0000
0010
0100
0000
0001
1000
0010
,
0100
0001
1000
0001
1000
0100
1000
0100
,
2000
0000
0000
3000
0000
0000
0000
0000
0002
0000
0000
0003
0000
0000
0000
0000
,
0200
0000
0000
0300
0000
0000
0000
0000
0001
0010
0100
1000
0100
0100
0001
0010
,
0010
0001
0010
0001
0010
0100
1000
0100
1000
0100
0010
0100
0010
0100
0010
0001
,
0010
0001
0010
0001
0100
1000
0100
1000
,
1010
0101
2000
3002
,
0103
0000
1000
0000
0100
0000
1000
0100
,
0000
0010
0002
0000
0003
0000
0001
0100
,
0010
0000
1000
0000
0100
0000
1000
0010
,
0000
0010
0200
0000
0300
0000
0001
0100
,
0010
0000
1000
0100
0000
1000
0001
0000
,
0100
0000
0010
0100
0000
0001
0100
0010
,
1000
0000
0001
0000
0100
0010
0000
1000
,
1010
0000
0101
0000
2002
3003
0220
0330
,
1000
0100
1000
0100
0010
0100
0010
0100
,
0001
0010
0001
0010
0100
0010
0100
0010
,
0100
0010
0100
0010
0100
0010
0100
0010
,
0001
0010
0001
0010
0100
0010
0100
0010
,
0100
0010
0100
0001
0000
0100
1000
0000
,
0010
0000
0100
0101
0000
0001
0010
0100
,
0101
0000
1000
0100
1010
0000
0100
0001
,
0101
1001
1100
1001
,
0100
0000
0010
0100
0000
0001
0100
0000
,
1010
0000
0001
0100
0010
0100
1001
0000
,
1001
0000
0000
0110
0000
0000
1001
0000
;

//--------------- dance-single - ----------------
#NOTES:
     dance-single:
     :
     Hard:
     13:
     0.540855,1.007822,0.255646,0.206951,0.383468,311,290,21,17,0,0,0.540855,1.007822,0.255646,0.206951,0.383468,311,290,21,17,0,0:
0000
0000
0000
0000
,
2000
0000
3002
0000
,
2003
0000
0000
3020
0000
0000
0000
0000
,
0032
0000
0000
0000
,
2003
0000
0000
0000
,
3001
0000
1000
0000
0100
0010
0000
0001
,
0000
1000
0100
0000
0001
1000
0000
0100
,
0010
0000
0001
0000
1000
0100
0010
0001
,
0000
0001
0001
0000
1000
1000
0000
0000
,
0100
0000
0010
0000
1000
0001
0000
0100
,
0000
0010
0001
1000
0000
0100
0001
0000
,
0100
0000
0010
0000
1000
0001
0100
0010
,
0000
0100
0001
0101
0000
1010
0000
0101
,
0001
0000
0100
0000
0010
1000
0000
0100
,
0000
0001
0010
0000
0100
0001
0000
0100
,
0010
0000
1000
0000
0100
0010
0001
0100
,
0000
0010
0100
0000
1000
0100
0000
0001
,
0001
0000
0001
0000
1000
0010
0100
0010
,
0000
0001
1000
0010
0000
0001
0100
0010
,
1000
0000
0010
0100
0000
0001
1000
0010
,
0100
0000
0001
0000
1000
0000
0001
0000
1000
0001
0100
0010
1000
0001
0100
0010
,
2000
0000
0000
3100
0000
0000
0000
0000
0002
0000
0000
0013
0000
0000
0000
0000
,
0200
0000
0000
0000
0000
0000
0310
0000
0000
0000
0000
0000
0000
0000
0000
0000
0001
0000
0010
0000
0100
0000
1000
0000
0100
0010
0100
0010
0001
1000
0010
0100
,
0010
0001
0010
0001
0010
0100
1000
0100
1000
0100
0010
0100
0010
0100
0010
0001
,
0010
0001
0010
0100
0010
0100
0010
0100
1000
0100
1000
0100
1000
0100
1000
0100
,
1010
0101
2000
3002
,
0103
0000
1000
0000
0100
0000
1000
0100
,
0000
0010
0002
0000
0003
0000
0001
0100
,
0010
0000
1000
0000
0100
0000
1000
0010
,
0000
0010
0200
0000
0300
0000
0001
0100
,
0010
0000
1000
0100
0000
1000
0001
0000
,
0100
0000
0010
0100
0000
0001
0100
0010
,
1000
0000
0001
0000
0100
0010
0000
1000
,
1010
0000
0101
0000
2002
3003
0220
0330
,
1000
0100
1000
0100
1000
0100
1000
0100
0010
0100
0010
0100
0010
0100
0010
0100
,
0001
0010
0001
0010
0001
0010
0001
0010
0100
0010
0100
0010
0100
0010
0100
0010
,
0100
1000
0100
1000
0100
1000
0100
1000
0100
0010
0100
0010
0100
0010
0100
0010
,
0001
0010
0001
0010
0001
0010
0001
0010
0100
0010
0100
0010
0100
0010
0100
0010
,
0100
0100
0010
0001
0000
0100
1000
0000
,
0010
0000
0100
0101
0000
0001
0010
0100
,
0101
0000
1000
0100
1010
0000
0100
0001
,
0101
1001
1100
1001
,
0100
0000
0010
0100
0000
0001
0100
0000
,
1010
0000
0001
0100
0010
0100
1001
0000
,
1001
0000
0000
0110
0000
0000
1001
0000
;

//--------------- dance-single - ----------------
#NOTES:
     dance-single:
     :
     Challenge:
     17:
     0,0,0,0,0:
0000
0000
0000
0000
,
2000
0000
3200
0000
,
0320
0000
0000
0032
0000
0023
0230
0000
,
2300
0000
0000
0000
,
3002
0000
0000
0000
,
1003
0100
1000
0100
1000
0000
0100
0000
0010
0000
0001
0000
0010
0000
0001
0000
,
0010
0100
0010
0100
0010
0000
0001
0000
0010
0000
0100
0000
1000
0000
0100
0000
,
0010
0001
0010
0001
0010
0000
0100
0000
1000
0000
0100
0000
0010
0000
0001
0000
,
0100
0010
0100
0010
0100
0000
1000
0100
0010
0001
0100
0010
1000
0100
0010
0001
,
0100
1000
0000
0100
1000
0000
0100
1000
0100
0010
0000
0100
0010
0000
0100
0010
,
0001
0010
0000
0001
0010
0000
0001
0010
0100
0010
0000
0100
0010
0000
0100
0010
,
1000
0100
0010
0001
0100
0010
1000
0100
0001
0100
0010
0100
1000
0100
0001
0100
,
0010
0000
0001
0000
0100
0000
0010
0000
1000
0000
0100
0000
0010
0000
0001
0000
0001
1000
0001
1000
0001
1000
0001
1000
0001
1000
0001
1000
0001
1000
0001
1000
,
0001
0100
0010
0000
0100
0001
0100
0001
0000
0000
1000
0000
0100
0000
1000
0001
,
1000
0000
0010
0000
0001
1000
0100
0001
0100
1000
0010
0100
0010
1000
0100
0010
,
2000
0000
3200
0000
0301
0010
0100
1000
,
0100
0010
0001
0100
0001
0100
0010
1000
,
1010
0101
1010
0101
,
1000
0100
0010
0001
0100
0001
0100
0010
,
1001
0000
1001
1001
0000
0110
0101
0000
,
0001
0000
0000
0000
1000
0000
0000
0000
0100
0000
0000
0000
0001
0000
0000
0000
0010
0100
0001
1000
0100
0010
0001
0100
0010
1000
0100
0001
0100
0010
1000
0100
,
0001
0000
0001
0001
0000
0001
0001
0000
0100
0000
0100
0100
0000
0100
0100
0000
,
1000
0000
1000
1000
0000
1000
1000
0000
0100
0000
0100
0100
0000
0100
0100
0000
,
0010
0001
0100
0010
0100
0010
0100
0001
1000
0100
1000
0001
0100
0001
0100
0010
,
1000
0010
1000
0010
1000
0010
1000
0010
0100
0001
0100
0001
0100
0001
0100
0001
,
0010
1000
0010
1000
0010
1000
0010
1000
0001
0100
0001
0100
0001
0100
0001
0000
1001
0000
0000
0000
0000
0000
0000
0000
1010
0000
0000
0000
0000
0000
0000
0000
,
0100
0010
1000
0001
0100
0010
1000
0001
0100
0000
0010
0000
0001
0000
1000
0000
1001
0000
0000
0000
0110
0000
0000
0000
0100
0000
0000
0000
0010
0000
0000
0000
,
1000
0001
0100
0010
0100
0000
0010
1000
0010
0000
0001
0100
0010
0001
0010
0001
,
0010
0100
0001
1000
0010
0100
0001
1000
0010
0000
0100
0000
1000
0000
0001
0000
1001
0000
0000
0000
0110
0000
0000
0000
0010
0000
0000
0000
0100
0000
0000
0000
,
0001
1000
0010
0100
0010
0000
0100
0001
0100
0000
1000
0010
0100
1000
0100
1000
,
2000
3000
0200
0300
0020
0030
0002
0003
0020
0030
0200
0300
2000
3000
0200
0300
0020
0030
0002
0003
0020
0030
0200
0300
2000
3000
0200
0300
0020
0030
0002
0003
,
1000
0001
0100
0010
1000
0001
0100
0010
1000
0001
0100
0010
1001
0000
0000
0000
0000
0000
0000
0000
0000
0000
0000
0000
0100
0000
0010
0000
0000
0000
0000
0000
,
1000
0001
0100
0010
1000
0001
0100
0010
,
0001
0000
0000
0000
1000
0000
0000
0000
0100
0000
0000
0000
0001
0000
0000
0000
0010
0100
0001
1000
0100
0010
0001
0100
0010
1000
0100
0001
0100
0010
1000
0100
,
0001
0010
0001
0010
0001
0100
0010
0100
0010
0100
0010
0100
1000
0100
1000
0100
,
1000
0010
0100
0010
0100
0010
0010
0100
0010
0100
0010
1000
0100
1000
0100
1000
,
0100
0010
0100
0010
0100
0010
0001
0010
0001
0010
0001
0010
0100
1000
0100
0010
,
0001
0100
0010
1000
0001
0100
0010
1000
0100
0001
0100
0010
1000
0100
0001
0100
,
0010
1000
0100
0001
0100
0010
1000
0100
0001
0100
0010
1000
0100
0001
0010
0100
,
1000
0100
0010
0001
0000
1000
0010
1000
0100
0001
0010
1000
0100
0010
0001
0100
,
2100
0100
0000
0100
0100
0000
0100
0100
3012
0010
0000
0010
0010
0000
0010
0010
,
1003
0100
1000
0100
1000
0000
0000
0000
0001
0010
0001
0010
0001
0000
0000
0000
0100
0000
0010
0000
0001
0000
0100
0000
1000
0000
0100
0000
0010
0000
0001
0000
,
1000
0100
0010
0001
1000
0100
0010
0001
1000
0100
0010
0001
1000
0100
0010
1000
,
0001
0100
0010
1000
0101
0010
1000
0001
0100
0010
1000
0001
0100
0010
0001
1000
,
1010
1010
0101
0101
1001
0110
2002
0000
,
0000
0000
0000
3003
;
