#TITLE:CIGARETTE;
#SUBTITLE:;
#ARTIST:plazma;
#TITLETRANSLIT:;
#SUBTITLETRANSLIT:;
#ARTISTTRANSLIT:;
#GENRE:;
#CREDIT:HFWXWXL Chart;
#MUSIC:CIGARETTE.ogg;
#BANNER:CIGARETTE.png;
#BACKGROUND:CIGARETTE-bg.png;
#CDTITLE:;
#SAMPLESTART:30.676;
#SAMPLELENGTH:15.000;
#SELECTABLE:YES;
#OFFSET:0.000;
#BPMS:0.000=133.000;
#STOPS:;
#BGCHANGES:;
#FGCHANGES:;

//--------------- dance-single - HFWXWXL Chart ----------------
#NOTES:
     dance-single:
     HFWXWXL Chart:
     Beginner:
     4:
     0,0,0,0,0:
0000
0000
0000
0000
,
0000
0000
0000
0000
,
0000
0000
0000
0000
,
0000
0000
0000
0000
,
0000
0000
0000
0000
,
0010
0000
0001
0000
,
0100
0000
1000
0000
,
0010
0000
0001
0000
,
1000
0000
0000
0000
,
1000
0000
0001
0000
,
0100
0000
0010
0000
,
1000
0000
0001
0000
,
0100
0000
0010
0000
,
1000
0000
0001
0000
,
0010
0000
0100
0000
,
1000
0000
0001
0000
,
2000
0000
0000
0000
0002
3003
0000
0000
,
1000
0000
0001
0000
,
0100
0000
0001
0000
,
0100
0000
1000
0000
,
0010
0000
0001
0000
,
0100
0000
0001
0000
,
0010
0000
0100
0000
,
1000
0000
0010
0000
,
0010
0000
0000
0000
,
2000
0000
0000
3000
,
0002
0000
0000
0003
,
0200
0000
0000
0300
,
0020
0000
0000
0030
,
1000
0000
0100
0000
,
0001
0000
1000
0000
,
0100
0000
0010
0000
,
0100
0000
0010
0000
,
0001
1000
0100
0001
,
0010
1000
0100
0010
,
2000
0000
0000
3000
,
0002
0000
0000
0003
,
0020
0000
0000
0030
,
0200
0000
0000
0300
,
2000
0000
0000
3000
,
0002
0000
0000
0003
,
1000
0000
0000
2000
,
0000
0000
3000
0000
,
0010
0000
0000
0002
,
0000
0000
0003
0000
,
1000
0000
0000
0001
,
0000
0000
0000
0000
,
1000
0000
0000
0010
,
0000
0000
0000
0000
,
0010
0000
0000
1000
,
0000
0000
0000
0000
,
0100
0000
0000
0000
;

//--------------- dance-single - HFWXWXL Chart ----------------
#NOTES:
     dance-single:
     HFWXWXL Chart:
     Easy:
     5:
     0,0,0,0,0:
0000
0000
0000
0000
,
0000
0000
0000
0000
,
0000
0000
0000
0000
,
0000
0000
0000
0000
,
0000
0000
0000
0000
,
0010
0100
0001
0010
,
0100
0010
1000
0100
,
1000
0010
0001
0100
,
1001
0000
0000
0001
,
1000
0100
0001
0010
,
0100
0010
0100
0010
,
1000
0010
0001
0100
,
0010
1000
0100
0001
,
1000
0010
0001
0100
,
0010
0100
0010
0100
,
1000
0100
0001
0010
,
2000
0000
0000
0000
0002
3003
0000
0000
,
1000
0010
0001
0000
,
0100
0010
0001
0010
,
0100
0010
1000
0100
,
0010
0100
0001
0010
,
0100
1010
0001
0100
,
0010
0001
0010
0100
,
1000
0100
0010
0001
,
0010
0000
0000
0000
,
2000
0100
0000
3100
,
0002
0010
0000
0013
,
0200
0010
0000
0310
,
0020
0100
0000
0130
,
1000
0010
0100
0010
,
0001
0010
1000
0010
,
0100
0010
0100
0010
,
0100
0010
0100
0001
,
0010
1100
0100
0011
,
0010
1100
0100
0010
,
2100
0000
0000
3000
,
0012
0000
0000
0003
,
1020
0000
0000
0030
,
0201
0000
0000
0300
,
2001
0000
0000
3000
,
1002
0000
0000
0003
,
1000
0000
0000
2000
,
0000
0000
3000
0000
,
0010
0000
0000
0002
,
0000
0000
0003
0000
,
1000
0000
0000
0001
,
0000
0000
0000
0001
,
1000
0000
0000
0010
,
0000
0000
0000
0001
,
0010
0000
0000
1000
,
0000
0000
0000
1000
,
0100
0000
0000
0010
;

//--------------- dance-single - HFWXWXL Chart ----------------
#NOTES:
     dance-single:
     HFWXWXL Chart:
     Medium:
     7:
     0,0,0,0,0:
0000
0000
0000
0000
,
0000
0000
0000
0000
,
0000
0000
0000
0000
,
0000
0000
0000
0000
,
0000
0000
0000
0000
,
0010
1000
0010
0000
0001
1000
0001
0000
,
0100
0001
0100
0000
1000
0001
1000
0000
,
1000
0100
0010
0000
0001
0010
0100
0010
,
1001
0000
0000
0000
0000
1000
0001
0001
,
1000
1000
0100
0000
0001
0001
0010
0000
,
0100
0100
0010
0000
0010
0010
0100
0000
,
1000
1000
0010
0000
0001
0001
0100
0000
,
0010
0010
1000
0000
0100
0100
0001
0000
,
1000
0100
0010
0000
0001
0010
0100
0000
,
0010
0100
0100
0000
0100
0010
0010
0000
,
1000
1000
0100
0000
0001
0001
0010
0000
,
2000
0000
0000
0002
0000
3003
1001
0000
,
1000
0000
0010
1000
0001
0100
0000
0001
,
0100
0000
0010
0100
0001
0000
0010
0001
,
0100
0000
0010
0100
1000
0000
1000
0100
,
0010
0000
0010
0100
0001
0000
0010
0001
,
1010
1010
0101
0110
,
0110
0011
0011
0110
,
1100
1100
0110
0011
,
0011
0010
0000
0010
0000
0100
0000
0100
,
2000
0100
0000
0100
0000
0100
0000
3100
,
0002
0010
0000
0010
0000
0010
0000
0013
,
0200
0010
0000
0010
0000
0010
0000
0310
,
0020
0100
0000
0100
0000
0100
0000
0130
,
1000
1000
0010
0001
0100
1000
0100
0010
,
0001
0001
0010
0100
1000
0100
0010
0001
,
0010
0001
0010
0100
0010
0100
0010
0100
,
0010
0100
0010
0100
0010
0100
0001
0010
,
0001
0011
0000
0110
0000
1010
0000
1100
,
0000
0101
0000
1010
0000
0110
0000
0011
,
0000
2100
0000
0000
0000
0100
0000
3000
,
0000
0012
0000
0000
0000
0010
0000
0003
,
0000
1020
0000
0000
0000
1000
0000
0030
,
0000
0201
0000
0000
0000
0001
0000
0300
,
0000
2001
0000
0000
0000
0001
0000
3000
,
0000
1002
0000
0000
0000
1000
0000
0003
,
1000
0000
0000
0001
0000
0000
2000
0000
,
0000
0000
3000
0001
,
0010
0000
0000
0100
0000
0000
0002
0000
,
0000
0000
0003
0100
,
1000
0000
0000
1000
0000
0000
0001
0000
,
0000
0000
0000
0001
,
1000
0000
0000
0100
0000
0000
0010
0000
,
0000
0000
0000
0001
,
0010
0000
0000
0100
0000
0000
1000
0000
,
0000
0000
0000
1000
,
0100
0000
0000
0001
0000
0000
0010
0000
,
0000
0000
0000
0000
0000
1001
0000
0000
;

//--------------- dance-single - HFWXWXL Chart ----------------
#NOTES:
     dance-single:
     HFWXWXL Chart:
     Hard:
     11:
     0,0,0,0,0:
0000
0000
0000
0000
,
0000
0000
0000
0000
,
0000
0000
0000
0000
,
0000
0000
0000
0000
,
0000
0000
0000
0000
,
0010
1000
0010
1000
0010
0000
0000
0000
0001
1000
0001
1000
0001
0000
0000
0000
,
0100
0001
0100
0001
0100
0000
0000
0000
1000
0001
1000
0001
1000
0000
0000
0000
,
1000
0100
1010
0000
0001
0010
0101
1010
,
1001
0000
0000
0000
0000
0000
0000
0000
0000
0000
1000
0001
0000
1000
0001
0000
,
1000
0000
0000
1000
0100
0000
0000
0000
0001
0000
0000
0001
0010
0000
0000
0000
,
0100
0000
0000
0100
0010
0000
0000
0000
0010
0000
0000
0010
0100
0000
0000
0000
,
1000
0000
0000
1000
0010
0000
0000
0000
0001
0000
0000
0001
0100
0000
0000
0000
,
0010
0000
0000
0010
1000
0000
0000
0000
0100
0000
0000
0100
0001
0000
0000
0000
,
1000
0000
0000
1000
0010
0000
0000
0000
0001
0000
0000
0001
0100
0000
0000
0000
,
0010
0000
0000
0010
0100
0000
0000
0000
0100
0000
0000
0100
0010
0000
0000
0000
,
1000
0000
0000
1000
0100
0000
0000
0000
0001
0000
0000
0001
0010
0000
0000
0000
,
2000
0000
0000
0002
0000
3003
1001
0000
,
1000
0010
0000
1000
0010
0000
1000
0010
0001
0000
0100
0001
0000
0100
0001
0000
,
0100
0010
0000
0100
0010
0000
0100
0010
0001
0010
0000
0001
0010
0000
0001
0010
,
0100
0010
0000
0100
0010
0000
0100
0010
0100
1000
0000
0100
1000
0000
0100
1000
,
0100
0010
0000
0100
0010
0000
0100
0010
0001
0010
0000
0001
0010
0000
0001
0010
,
1010
0010
1010
0100
0101
0100
0110
0010
,
0110
0010
0011
0001
0011
0010
0110
0100
,
1100
1000
1100
0100
0110
0010
0011
0001
,
0011
0010
0000
1010
0000
0101
0010
0100
,
2010
0100
0000
0100
0000
0100
0000
3100
,
0002
0010
0000
0010
0000
0010
0000
0013
,
0200
0010
0000
0010
0000
0010
0000
0310
,
0020
0100
0000
0100
0000
0100
0000
0130
,
1000
0000
1000
0100
0010
0000
0001
0010
0100
0000
1000
0000
0100
0000
0010
0000
,
0001
0010
0001
0000
0010
0000
0100
0000
1000
0100
1000
0000
0010
0100
0010
0000
,
0001
0010
0001
0000
0010
0100
0010
0000
0100
1000
0100
0000
0010
0001
0010
0000
,
0010
0100
0010
0000
1000
0100
1000
0000
0100
0010
0100
0010
0001
0000
0010
0000
,
0001
0011
0000
0110
0000
1010
0000
1100
,
0000
0101
0000
1010
0000
0110
0000
0011
,
0000
2100
0000
0100
0000
0100
0000
3100
,
0000
0012
0000
0010
0000
0010
0000
0013
,
0000
1020
0000
1000
0000
1000
0000
1030
,
0000
0201
0000
0001
0000
0001
0000
0301
,
0000
2001
0000
0001
0000
0001
0000
3001
,
0000
1002
0000
1000
0000
1000
0000
1003
,
1000
0000
0000
0001
0000
0000
2000
0000
,
0000
0000
3000
0001
,
0010
0000
0000
0100
0000
0000
0002
0000
,
0000
0000
0003
0100
,
1000
0000
0000
1100
0000
0000
0011
0000
,
0000
0000
0000
0001
,
1010
0000
0000
0101
0000
0000
1010
0000
,
0000
0000
0000
1001
,
1010
0000
0000
0101
0000
0000
1010
0000
,
0000
0000
0000
1001
,
0101
0000
0000
1001
0000
0000
1010
0000
,
0000
0000
0000
0000
0000
1001
0000
0000
;

//--------------- dance-double - HFWXWXL Chart ----------------
#NOTES:
     dance-double:
     HFWXWXL Chart:
     Easy:
     5:
     0,0,0,0,0:
00000000
00000000
00000000
00000000
,
00000000
00000000
00000000
00000000
,
00000000
00000000
00000000
00000000
,
00000000
00000000
00000000
00000000
,
00000000
00000000
00000000
00000000
,
00100000
00100000
00010000
00010000
,
00000100
00000100
00001000
00001000
,
10000000
00110000
00010000
00010100
,
00011000
00000000
00000000
00000100
,
00000001
00000010
00001000
00010000
,
00100000
01000000
10000000
00100000
,
10000000
00100000
00010000
00001000
,
00000100
00000001
00000010
00000100
,
00001000
00010000
00010000
01000000
,
00100000
01000000
01000000
00100000
,
00010000
00001000
00001000
00000100
,
00000002
00000000
00000000
00000000
00000000
00000003
00001100
00000000
,
00000001
00000100
00001000
00000000
,
00001000
00010000
00010000
00100000
,
01000000
00100000
01000000
10000000
,
01000000
00100000
00010000
00100000
,
00010000
00110000
00011000
00000100
,
00000010
00000001
00000010
00000100
,
00001000
00010000
00100000
00010000
,
00100000
00000000
00000000
00100000
,
20100000
00000000
00000000
00000000
00000000
00000000
00000000
30000000
,
00020000
00000000
00000000
00000000
00000000
00000000
00000000
00030000
,
00000200
00000000
00000000
00000000
00000000
00000000
00000000
00000300
,
00000002
00000000
00000000
00000000
00000000
00000000
00000000
00000003
,
00000001
00000100
00000010
00000100
,
00001000
00100000
10000000
00100000
,
00010000
00000100
00000001
00000010
,
00000100
00010000
01000000
00010000
,
00100000
00011000
00001010
00000011
,
00001010
00001100
00011000
00100000
,
21000000
00000000
00000000
30000000
,
00021000
00000000
00000000
00030000
,
00000201
00000000
00000000
00000300
,
00012000
00000000
00000000
00003000
,
00000210
00000000
00000000
00000300
,
00010200
00000000
00000000
00000300
,
00010000
00000000
00000000
00200000
,
00000000
00000000
00300000
00010000
,
00001000
00000000
00000000
00000002
,
00000000
00000000
00000003
00000010
,
00000100
00000000
00000000
00010000
,
00000000
00000000
00000000
00010000
,
00100000
00000000
00000000
10000000
,
00000000
00000000
00000000
00010000
,
00001000
00000000
00000000
00000010
,
00000000
00000000
00000000
00000001
,
00001000
00000000
00000000
00000100
;

//--------------- dance-double - HFWXWXL Chart ----------------
#NOTES:
     dance-double:
     HFWXWXL Chart:
     Medium:
     7:
     0,0,0,0,0:
00000000
00000000
00000000
00000000
,
00000000
00000000
00000000
00000000
,
00000000
00000000
00000000
00000000
,
00000000
00000000
00000000
00000000
,
00000000
00000000
00000000
00000000
,
00100000
10000000
00100000
00000000
00010000
00001000
00010000
00000000
,
00000100
00000001
00000100
00000000
00001000
00010000
00001000
00000000
,
10000000
01000000
00110000
00000000
00010000
00001000
00010100
00001000
,
00011000
00000000
00000000
00000000
00000000
00001000
00000100
00000100
,
00000001
00000001
00000010
00000000
00001000
00001000
00010000
00000000
,
00100000
00100000
01000000
00000000
01000000
01000000
00100000
00000000
,
10000000
10000000
00100000
00000000
00010000
00010000
00001000
00000000
,
00000100
00000100
00000001
00000000
00000010
00000010
00000100
00000000
,
00001000
00001000
00010000
00000000
00010000
00010000
01000000
00000000
,
00100000
00100000
01000000
00000000
01000000
01000000
00100000
00000000
,
00010000
00010000
00001000
00000000
00001000
00001000
00000100
00000000
,
00000002
00000000
00000000
00002000
00000000
00003003
00001100
00000000
,
00000001
00000000
00000100
00000001
00001000
00000010
00000000
00001000
,
00001000
00000000
00010000
00001000
00010000
00000000
00100000
00010000
,
01000000
00000000
00100000
01000000
01000000
00000000
10000000
01000000
,
01000000
00000000
00100000
01000000
00010000
00000000
00100000
00010000
,
00110000
00110000
00011000
00001100
,
00000110
00000011
00000011
00000110
,
00001100
00011000
00110000
00110000
,
00110000
00100000
00000000
10100000
00000000
01010000
00100000
01000000
,
20100000
01000000
00000000
01000000
00000000
01000000
00000000
31000000
,
00020000
00001000
00000000
00001000
00000000
00001000
00000000
00031000
,
00000200
00001000
00000000
00001000
00000000
00001000
00000000
00001300
,
00000002
00000010
00000000
00000010
00000000
00000010
00000000
00000013
,
00000001
00000001
00000100
00001000
00000010
00000001
00000010
00000100
,
00001000
00001000
00100000
01000000
10000000
10000000
00100000
00100000
,
00010000
00010000
00000100
00000100
00000001
00000001
00000010
00000010
,
00000100
00000100
00010000
00010000
01000000
01000000
00010000
00100000
,
00010000
00110000
00000000
00011000
00000000
00001010
00000000
00000011
,
00000000
00001010
00000000
00001100
00000000
00010100
00000000
00101000
,
00000000
21000000
00000000
01000000
00000000
01000000
00000000
31000000
,
00000000
00021000
00000000
00001000
00000000
00001000
00000000
00031000
,
00000000
00000201
00000000
00000001
00000000
00000001
00000000
00000301
,
00000000
00012000
00000000
00010000
00000000
00010000
00000000
00013000
,
00000000
00000210
00000000
00000010
00000000
00000010
00000000
00000310
,
00000000
00010200
00000000
00010000
00000000
00010000
00000000
00010300
,
10000000
00000000
00000000
00010000
00000000
00000000
20000000
00000000
,
00000000
00000000
30000000
00010000
,
00001000
00000000
00000000
00000100
00000000
00000000
00000002
00000000
,
00000000
00000000
00000003
00000010
,
00000100
00000000
00000000
00001000
00000000
00000000
00010000
00000000
,
00000000
00000000
00000000
00010000
,
00100000
00000000
00000000
01000000
00000000
00000000
10000000
00000000
,
00000000
00000000
00000000
00010000
,
00001000
00000000
00000000
00010000
00000000
00000000
00000010
00000000
,
00000000
00000000
00000000
00000001
,
00001000
00000000
00000000
00000010
00000000
00000000
00000100
00000000
,
00000000
00000000
00000000
00000000
00000000
00011000
00000000
00000000
;

//--------------- dance-double - HFWXWXL Chart ----------------
#NOTES:
     dance-double:
     HFWXWXL Chart:
     Hard:
     11:
     0,0,0,0,0:
00000000
00000000
00000000
00000000
,
00000000
00000000
00000000
00000000
,
00000000
00000000
00000000
00000000
,
00000000
00000000
00000000
00000000
,
00000000
00000000
00000000
00000000
,
00100000
10000000
00100000
10000000
00100000
00000000
00000000
00000000
00010000
00001000
00010000
00001000
00010000
00000000
00000000
00000000
,
00000100
00000001
00000100
00000001
00000100
00000000
00000000
00000000
00001000
00010000
00001000
00010000
00001000
00000000
00000000
00000000
,
10000000
01000000
00110000
00000000
00010000
00001000
00010100
00001000
,
00011000
00000000
00000000
00000000
00000000
00000000
00000000
00000000
00000000
00000000
00001000
00000100
00000010
00001000
00000100
00000000
,
00000001
00000000
00000000
00000001
00000010
00000000
00000000
00000000
00001000
00000000
00000000
00001000
00010000
00000000
00000000
00000000
,
00100000
00000000
00000000
00100000
01000000
00000000
00000000
00000000
01000000
00000000
00000000
01000000
00100000
00000000
00000000
00000000
,
10000000
00000000
00000000
10000000
00100000
00000000
00000000
00000000
00010000
00000000
00000000
00010000
00001000
00000000
00000000
00000000
,
00000100
00000000
00000000
00000100
00000001
00000000
00000000
00000000
00000010
00000000
00000000
00000010
00000100
00000000
00000000
00000000
,
00001000
00000000
00000000
00001000
00010000
00000000
00000000
00000000
00010000
00000000
00000000
00010000
01000000
00000000
00000000
00000000
,
00100000
00000000
00000000
00100000
01000000
00000000
00000000
00000000
01000000
00000000
00000000
01000000
00100000
00000000
00000000
00000000
,
00010000
00000000
00000000
00010000
00001000
00000000
00000000
00000000
00001000
00000000
00000000
00001000
00000100
00000000
00000000
00000000
,
00000002
00000000
00000000
00002000
00000000
00003003
00001100
00000000
,
00000001
00000100
00000000
00000001
00000100
00000000
00000001
00000100
00001000
00000000
00000010
00001000
00000000
00000010
00001000
00000000
,
00001000
00010000
00000000
00001000
00010000
00000000
00001000
00100000
00010000
00100000
00000000
00010000
00100000
00000000
00010000
00100000
,
01000000
00100000
00000000
01000000
00100000
00000000
01000000
00100000
01000000
10000000
00000000
01000000
10000000
00000000
01000000
10000000
,
01000000
00100000
00000000
01000000
00100000
00000000
01000000
00100000
00010000
00100000
00000000
00010000
00100000
00000000
00010000
00100000
,
00110000
00100000
00110000
00001000
00011000
00001000
00001100
00000100
,
00000110
00000010
00000011
00000001
00000011
00000010
00000110
00000100
,
00001100
00001000
00011000
00010000
00110000
00100000
00110000
00010000
,
00110000
00100000
00000000
10100000
00000000
01010000
00100000
01000000
,
20100000
01000000
00000000
01000000
00000000
01000000
00000000
31000000
,
00020000
00001000
00000000
00001000
00000000
00001000
00000000
00031000
,
00000200
00001000
00000000
00001000
00000000
00001000
00000000
00001300
,
00000002
00000010
00000000
00000010
00000000
00000010
00000000
00000013
,
00000001
00000000
00000001
00000010
00000100
00000000
00001000
00000100
00000010
00000000
00000001
00000000
00000010
00000000
00000100
00000000
,
00001000
00010000
00001000
00000000
00100000
00000000
01000000
00000000
10000000
01000000
10000000
00000000
00100000
01000000
00100000
00000000
,
00010000
00001000
00010000
00000000
00000100
00000010
00000100
00000000
00000001
00000010
00000001
00000000
00000010
00000100
00000010
00000000
,
00000100
00001000
00000100
00000000
00010000
00100000
00010000
00000000
01000000
00100000
01000000
00100000
00010000
00000000
00100000
00000000
,
00010000
00110000
00000000
00011000
00000000
00001010
00000000
00000011
,
00000000
00001010
00000000
00001100
00000000
00010100
00000000
00101000
,
00000000
21000000
00000000
01000000
00000000
01000000
00000000
31000000
,
00000000
00021000
00000000
00001000
00000000
00001000
00000000
00031000
,
00000000
00000201
00000000
00000001
00000000
00000001
00000000
00000301
,
00000000
00012000
00000000
00010000
00000000
00010000
00000000
00013000
,
00000000
00000210
00000000
00000010
00000000
00000010
00000000
00000310
,
00000000
00010200
00000000
00010000
00000000
00010000
00000000
00010300
,
10000000
00000000
00000000
00010000
00000000
00000000
20000000
00000000
,
00000000
00000000
30000000
00010000
,
00001000
00000000
00000000
00000100
00000000
00000000
00000002
00000000
,
00000000
00000000
00000003
00000010
,
00000100
00000000
00000000
00001100
00000000
00000000
00011000
00000000
,
00000000
00000000
00000000
00010000
,
00101000
00000000
00000000
01010000
00000000
00000000
10100000
00000000
,
00000000
00000000
00000000
00011000
,
00101000
00000000
00000000
00011000
00000000
00000000
00001010
00000000
,
00000000
00000000
00000000
00001001
,
00001010
00000000
00000000
00001010
00000000
00000000
00010100
00000000
,
00000000
00000000
00000000
00000000
00000000
00011000
00000000
00000000
;
