#TITLE:AUTOMAGIC;
#SUBTITLE:;
#ARTIST:plazma;
#TITLETRANSLIT:;
#SUBTITLETRANSLIT:;
#ARTISTTRANSLIT:;
#GENRE:;
#CREDIT:HFWXWXL Chart;
#MUSIC:AUTOMAGIC.ogg;
#BANNER:AUTOMAGIC.png;
#BACKGROUND:AUTOMAGIC-bg.png;
#CDTITLE:;
#SAMPLESTART:26.248;
#SAMPLELENGTH:15.000;
#SELECTABLE:YES;
#OFFSET:0.002;
#BPMS:0.000=128.000;
#STOPS:166.500=0.474;
#BGCHANGES:;
#FGCHANGES:;

//--------------- dance-single - HFWXWXL Chart ----------------
#NOTES:
     dance-single:
     HFWXWXL Chart:
     Beginner:
     4:
     0,0,0,0,0:
0000
0000
0000
0000
,
0000
0000
0000
0000
,
0000
0000
0000
0000
,
0000
0000
0000
0000
,
0000
0000
0000
0000
,
0000
0000
0000
0000
,
1000
0000
1000
0000
,
0001
0000
0001
0000
,
1000
0000
1000
0000
,
0001
0000
0001
0000
,
1000
0000
0001
0000
,
1000
0000
0010
0000
,
0001
0000
0010
0000
,
1000
0000
0010
0000
,
1000
0000
0100
0000
,
0010
0000
0100
0000
,
0010
0000
0100
0000
,
0010
0000
0001
0000
,
1000
0000
0000
0001
,
0100
0000
0000
0010
,
0001
0000
0000
1000
,
0100
0000
0000
0100
,
2000
0000
0000
0100
,
0000
0000
0000
0000
0000
0000
0100
3000
,
0002
0000
0000
0010
,
0000
0000
0000
0000
0000
0000
0010
0003
,
0200
0000
0000
0001
,
0000
0000
0000
0301
,
0020
0000
0000
1000
,
0000
0000
0000
1030
,
1000
0000
0100
0000
,
0010
0000
0100
0000
,
0010
0000
0100
0000
,
0010
0000
0001
0000
,
1000
0000
0000
0001
,
0100
0000
0000
0010
,
0001
0000
0000
1000
,
0100
0000
0000
0100
,
2000
0000
0000
0100
,
0000
0000
0000
0000
0000
0000
0100
3000
,
0002
0000
0000
0010
,
0000
0000
0000
0000
0000
0003
1000
0000
,
0000
1000
0000
0100
,
0000
0100
0000
0010
,
0000
0010
0000
0100
,
0000
0100
0000
0001
,
0000
0001
0000
0010
,
0000
0010
1000
0000
,
1000
0000
0010
0000
,
0010
0000
2002
3003
;

//--------------- dance-single - HFWXWXL Chart ----------------
#NOTES:
     dance-single:
     HFWXWXL Chart:
     Easy:
     6:
     0,0,0,0,0:
0000
0000
0000
0000
,
0000
0000
0000
0000
,
0000
0000
0000
0000
,
0000
0000
0000
0000
,
0000
0000
0000
0000
,
0000
0000
0000
0000
,
1000
1000
1000
0010
,
0001
0001
0001
0100
,
1000
1000
1000
0010
,
0001
0001
0001
0100
,
1000
0100
0001
0010
,
1000
0100
0010
0100
,
0001
0010
0010
0100
,
1000
0010
0010
0010
,
1000
0001
0100
0001
,
0010
0001
0010
0001
,
0010
0001
0010
1000
,
0010
1000
0001
0010
,
1000
0001
0000
0001
,
0100
0010
0100
0010
,
0001
1000
0000
1000
,
0100
0100
0000
0100
,
2000
0100
0000
0100
,
0000
0000
0100
0000
0000
0000
0100
3000
,
0002
0010
0000
0010
,
0000
0000
0010
0000
0000
0000
0010
0003
,
0200
0001
0000
0001
,
0000
0001
0000
0301
,
0020
1000
0000
1000
,
0000
1000
0000
1030
,
1000
0001
0100
0001
,
0010
0001
0010
0001
,
0010
0001
0010
1000
,
0010
1000
0001
0010
,
1000
0001
0000
0001
,
0100
0010
0100
0010
,
0001
1000
0000
1000
,
0100
1000
0000
0100
,
2000
0100
0000
0100
,
0000
0000
0100
0000
0000
0000
0100
3000
,
0002
0010
0000
0010
,
0000
0000
0000
0000
0000
0003
1000
0000
,
0100
1000
0010
0100
,
0010
0100
0001
0010
,
0001
0010
0100
0010
,
0100
0010
0100
0001
,
0010
0001
0100
0010
,
0100
0010
1000
0100
,
1000
0100
0010
0100
,
0010
0100
2002
3003
;

//--------------- dance-single - HFWXWXL Chart ----------------
#NOTES:
     dance-single:
     HFWXWXL Chart:
     Medium:
     9:
     0,0,0,0,0:
0000
0000
0000
0000
,
0000
0000
0000
0000
,
0000
0000
0000
0000
,
0000
0000
0000
0000
,
0000
0000
0000
0000
,
0000
0000
0000
0000
,
1000
0100
1000
0100
1000
0100
0010
0000
,
0001
0010
0001
0010
0001
0010
0100
0000
,
1000
0100
1000
0100
1000
0100
0010
0000
,
0001
0010
0001
0010
0001
0010
0100
0000
,
1000
0100
0001
0010
,
1000
0100
0010
0100
,
0001
0010
0010
0100
,
1000
0100
0010
0001
0010
1000
2002
3003
,
1000
1000
0001
0010
0100
1000
0001
0100
,
0010
1000
0001
0100
0010
1000
0001
0100
,
0010
1000
0001
0100
0010
0001
1000
0100
,
0010
0001
1000
0100
0001
0100
0010
0100
,
1000
0100
0001
1000
0000
1000
0001
0000
,
0010
0100
0010
0000
0010
0100
0010
0000
,
0001
0010
1000
0001
0000
0001
1000
0000
,
0100
0001
0100
0001
0000
0001
0100
0000
,
2000
0100
0100
0000
0000
0100
0100
0000
,
0000
0100
0100
0000
0000
0100
0100
3000
,
0002
0010
0010
0000
0000
0010
0010
0000
,
0000
0010
0010
0000
0000
0010
0010
0003
,
0200
0001
0001
0000
0000
0001
0001
0000
,
0000
0001
0001
0000
0000
0001
0301
0000
,
0020
1000
1000
0000
0000
1000
1000
0000
,
0000
1000
1000
0000
0000
1000
1030
0000
,
1000
1000
0001
0010
0100
1000
0001
0100
,
0010
1000
0001
0100
0010
1000
0001
0100
,
0010
1000
0001
0100
0010
0001
1000
0100
,
0010
0001
1000
0100
0001
0100
0010
0100
,
1000
0100
0001
1000
0000
1000
0001
0000
,
0010
0100
0010
0000
0010
0100
0010
0000
,
0001
0010
1000
0001
0000
0001
1000
0000
,
0100
0001
0100
0001
0000
0001
0100
0000
,
2000
0100
0100
0000
0000
0100
0100
0000
,
0000
0100
0100
0000
0000
0100
0100
3000
,
0002
0010
0010
0000
0000
0010
0010
0000
,
0010
0010
0000
0010
0000
0013
1000
0100
,
1000
0100
1000
0100
0010
0000
0100
0010
,
0100
0010
0100
0010
0001
0000
0001
0010
,
0001
0010
0001
0010
0100
0000
0010
0100
,
0010
1000
0100
1000
0100
0000
0001
0010
,
0001
0010
0001
0010
0100
0000
0010
0100
,
0010
0100
0010
0100
1000
0000
1000
0100
,
1000
0100
1000
0100
0010
0000
0100
0100
,
0100
0000
0010
0001
2002
0000
3003
0000
;

//--------------- dance-single - HFWXWXL Chart ----------------
#NOTES:
     dance-single:
     HFWXWXL Chart:
     Hard:
     12:
     0,0,0,0,0:
0000
0000
0000
0000
,
0000
0000
0000
0000
,
0000
0000
0000
0000
,
0000
0000
0000
0000
,
0000
0000
0000
0000
,
0000
0000
0000
0000
,
1000
0000
0100
0000
1000
0100
1000
0100
1000
0000
0100
0000
0010
0000
0000
0000
,
0001
0000
0010
0000
0001
0010
0001
0010
0001
0000
0010
0000
0100
0000
0000
0000
,
1000
0000
0100
0000
1000
0100
0010
0100
1000
0000
0100
0000
0010
0000
0000
0000
,
0001
0000
0010
0000
0001
0010
0100
0010
0001
0000
0010
0000
0100
0000
0000
0000
,
1000
1000
0100
0000
0001
0001
0010
0000
,
1000
1000
0100
0000
0010
0010
0100
0000
,
0001
0001
0010
0000
0010
0010
0100
0000
,
1000
0000
0100
0000
0010
0000
0001
0000
0001
1000
0001
1000
2002
0000
3003
0000
,
1000
0000
1000
0001
0000
1000
0001
0000
0001
0010
0100
1000
0100
0010
0001
0000
,
0010
0000
0010
0100
0000
0010
0100
0000
1000
0001
0100
0010
0001
0100
0010
1000
,
1000
0000
1000
0001
0000
1000
0001
0000
0010
0100
0001
0010
1000
0100
0010
0001
,
0001
0000
0001
1000
0000
0001
1000
0000
0100
0010
1000
0001
0100
0010
1000
0001
,
1000
0000
0100
0000
0001
1000
0000
0001
0000
0000
1000
0000
0001
0000
0000
0000
,
0010
0000
0100
0000
0010
0100
0000
0010
0000
0000
0100
0000
0010
0000
0000
0000
,
0001
0000
0010
0000
1000
0001
0000
1000
0000
0000
0001
0000
1000
0000
0000
0000
,
0100
0000
0001
0000
0100
0001
0000
0100
0000
0000
0001
0000
0100
0000
0000
0000
,
2000
0000
0100
0100
0000
0100
0000
0100
0000
0000
0100
0000
0100
0000
0000
0000
,
0100
0000
0100
0100
0000
0100
0000
0100
0000
0000
0100
0000
0100
0000
3000
0000
,
0002
0000
0010
0010
0000
0010
0000
0010
0000
0000
0010
0000
0010
0000
0000
0000
,
0010
0000
0010
0010
0000
0010
0000
0010
0000
0000
0010
0000
0010
0000
0003
0000
,
0200
0000
0001
0001
0000
0001
0000
0001
0000
0000
0001
0000
0001
0000
0000
0000
,
0001
0000
0001
0001
0000
0001
0000
0001
0000
0000
0001
0000
0301
0000
0000
0000
,
0020
0000
1000
1000
0000
1000
0000
1000
0000
0000
1000
0000
1000
0000
0000
0000
,
1000
0000
1000
1000
0000
1000
0000
1000
0000
0000
1000
0000
1030
0000
0000
0000
,
1000
0000
1000
0001
0000
1000
0001
0000
0001
0010
0100
1000
0100
0010
0001
0000
,
0010
0000
0010
0100
0000
0010
0100
0000
1000
0001
0100
0010
0001
0100
0010
1000
,
1000
0000
1000
0001
0000
1000
0001
0000
0010
0100
0001
0010
1000
0100
0010
0001
,
0001
0000
0001
1000
0000
0001
1000
0000
0100
0010
1000
0001
0100
0010
1000
0001
,
1000
0000
0100
0000
0001
1000
0000
0001
0000
0000
1000
0000
0001
0000
0000
0000
,
0010
0000
0100
0000
0010
0100
0000
0010
0000
0000
0100
0000
0010
0000
0000
0000
,
0001
0000
0010
0000
1000
0001
0000
1000
0000
0000
0001
0000
1000
0000
0000
0000
,
0100
0000
0001
0000
0100
0001
0000
0100
0000
0000
0001
0000
0100
0000
0000
0000
,
2000
0000
0100
0100
0000
0100
0000
0100
0000
0000
0100
0000
0100
0000
0000
0000
,
0100
0000
0100
0100
0000
0100
0000
0100
0000
0000
0100
0000
0100
0000
3000
0000
,
0002
0000
0010
0010
0000
0010
0000
0010
0000
0000
0010
0000
0010
0000
0000
0000
,
0010
0010
0010
0010
0010
0013
1000
0100
,
1000
0100
0000
1000
0000
0000
0100
0000
0010
0000
0000
0000
0100
0000
0010
0000
,
0100
0010
0000
0100
0000
0000
0010
0000
0001
0000
0000
0000
0001
0000
0010
0000
,
0001
0010
0000
0001
0000
0000
0010
0000
0100
0000
0000
0000
0010
0000
0010
0000
,
0010
0100
0000
0010
0100
0000
1000
0000
0100
0000
0000
0000
0001
0000
0010
0000
,
0001
0010
0000
0001
0000
0000
0010
0000
0100
0000
0000
0000
0010
0000
0100
0000
,
0010
0100
0000
0010
0000
0000
0100
0000
1000
0000
0000
0000
1000
0000
0100
0000
,
1000
0100
0000
1000
0000
0000
0100
0000
0010
0000
0000
0000
0100
0000
0100
0000
,
0100
0010
0000
0100
0010
0000
0001
0000
2002
0000
0000
0000
3003
0000
0000
0000
;

//--------------- dance-double - HFWXWXL Chart ----------------
#NOTES:
     dance-double:
     HFWXWXL Chart:
     Easy:
     6:
     0,0,0,0,0:
00000000
00000000
00000000
00000000
,
00000000
00000000
00000000
00000000
,
00000000
00000000
00000000
00000000
,
00000000
00000000
00000000
00000000
,
00000000
00000000
00000000
00000000
,
00000000
00000000
00000000
00000000
,
10000000
10000000
10000000
00100000
,
00010000
00000100
00000100
00000010
,
00000100
00010000
10000000
00100000
,
00010000
00010000
00000010
00010000
,
10000000
00100000
00010000
00000100
,
00000010
00000001
00000100
00010000
,
00100000
01000000
00100000
01000000
,
10000000
00100000
00010000
00001000
,
00000001
00000000
00001000
00000100
,
00100000
00000000
10000000
00010000
,
00001000
00000000
00100000
00000100
,
00000100
00000000
00001000
00000010
,
00001000
00010000
00000000
00010000
,
00100000
00001000
00000000
00000010
,
00000100
00100000
00000000
00100000
,
00010000
00010000
00000000
00010000
,
20000000
01000000
00000000
01000000
,
00000000
00000000
01000000
00000000
00000000
00000000
01000000
30000000
,
00020000
00100000
00000000
00100000
,
00000000
00000000
00100000
00000000
00000000
00000000
00100000
00030000
,
00000020
00001000
00000000
00001000
,
00000000
00001000
00000000
00001030
,
00000200
00000001
00000000
00000001
,
00000000
00000001
00000000
00000301
,
00000001
00000000
00001000
00000010
,
00010000
00000000
01000000
00010000
,
00001000
00000000
00000010
00010000
,
00001000
00000000
00001000
00010000
,
00001000
00000001
00000000
00001000
,
00100000
00010000
00000000
00100000
,
00010000
00000100
00000000
00000100
,
00001000
00001000
00000000
00100000
,
20000000
01000000
00000000
01000000
,
00000000
00000000
01000000
00000000
00000000
00000000
01000000
30000000
,
00020000
00100000
00000000
00100000
,
00100000
00000000
00000000
00000000
00000000
00030000
10000000
00000000
,
10000000
00000000
00100000
01000000
,
01000000
00000000
00010000
00010000
,
00010000
00000000
01000000
00010000
,
00010000
00001000
00001000
00000010
,
00000010
00000000
00001000
00010000
,
00010000
00000000
10000000
10000000
,
10000000
00000000
00100000
00010000
,
00010000
00001000
00022000
00033000
;

//--------------- dance-double - HFWXWXL Chart ----------------
#NOTES:
     dance-double:
     HFWXWXL Chart:
     Medium:
     9:
     0,0,0,0,0:
00000000
00000000
00000000
00000000
,
00000000
00000000
00000000
00000000
,
00000000
00000000
00000000
00000000
,
00000000
00000000
00000000
00000000
,
00000000
00000000
00000000
00000000
,
00000000
00000000
00000000
00000000
,
10000000
01000000
10000000
01000000
10000000
01000000
00100000
00000000
,
00010000
00001000
00000100
00000010
00000100
00000001
00000010
00000000
,
00000100
00001000
00010000
00100000
10000000
01000000
00100000
00000000
,
00010000
00100000
00010000
00000100
00000010
00001000
00010000
00100000
,
10000000
01000000
00100000
00000000
00010000
00001000
00000100
00000000
,
00000010
00000001
00000010
00000000
00000100
00001000
00010000
00000000
,
00100000
00010000
00100000
00000000
01000000
00100000
01000000
00000000
,
10000000
01000000
00100000
00010000
00010000
00010000
00022000
00033000
,
00000001
00000001
00000000
00001000
00001000
00001000
00000100
00010000
,
00100000
00100000
00000000
01000000
10000000
01000000
00010000
00000100
,
00000001
00000010
00000000
00010000
00100000
00010000
00000100
00000001
,
00000100
00010000
00000000
00001000
00001000
00000010
00000010
00001000
,
00001000
00001000
00010000
00000000
00000000
01000000
00010000
00000000
,
00100000
00010000
00001000
00000000
00000000
00000001
00000010
00000000
,
00000100
00001000
00100000
00000000
00000000
00010000
00100000
00000000
,
00001000
00010000
00001000
00000000
00000000
00010000
00001000
00000000
,
20000000
01000000
01000000
00000000
00000000
01000000
01000000
00000000
,
00000000
01000000
01000000
00000000
00000000
01000000
01000000
30000000
,
00020000
00100000
00100000
00000000
00000000
00100000
00100000
00000000
,
00000000
00100000
00100000
00000000
00000000
00100000
00100000
00030000
,
00000020
00001000
00001000
00000000
00000000
00001000
00001000
00000000
,
00000000
00001000
00001000
00000000
00000000
00001000
00001030
00000000
,
00000200
00000001
00000001
00000000
00000000
00000001
00000001
00000000
,
00000000
00000001
00000001
00000000
00000000
00000001
00000301
00000000
,
00000001
00000001
00000000
00001000
00001000
00000010
00000010
00001000
,
00010000
00010000
00000000
01000000
10000000
01000000
00010000
00100000
,
00001000
00001000
00000000
00000001
00000010
00001000
00010000
00100000
,
00001000
00000100
00000000
00000100
00001000
00100000
00010000
00001000
,
00001000
00000100
00000001
00000000
00000000
00000010
00001000
00000000
,
00100000
01000000
00100000
00000000
00000000
01000000
00100000
00000000
,
00010000
00001000
00000100
00000000
00000000
00010000
00000100
00000000
,
00001000
00010000
00001000
00000000
00000000
00010000
00100000
00000000
,
20000000
01000000
01000000
00000000
00000000
01000000
01000000
00000000
,
00000000
01000000
01000000
00000000
00000000
01000000
01000000
30000000
,
00020000
00100000
00100000
00000000
00000000
00100000
00100000
00000000
,
00100000
00100000
00000000
00100000
00000000
00130000
10000000
01000000
,
10000000
00000000
00000000
01000000
00100000
00000000
01000000
00100000
,
01000000
00000000
00000000
00100000
00010000
00000000
00010000
00100000
,
00010000
00000000
00000000
00100000
01000000
00000000
00010000
00001000
,
00010000
00000000
00001000
00000100
00001000
00000000
00000010
00000001
,
00000010
00000000
00000000
00000100
00001000
00000000
00010000
00100000
,
00010000
00000000
00000000
01000000
10000000
00000000
10000000
01000000
,
10000000
00000000
00000000
01000000
00100000
00000000
00010000
00010000
,
00010000
00000000
00001000
00010000
00022000
00000000
00033000
00000000
;

//--------------- dance-double - HFWXWXL Chart ----------------
#NOTES:
     dance-double:
     HFWXWXL Chart:
     Hard:
     13:
     0,0,0,0,0:
00000000
00000000
00000000
00000000
,
00000000
00000000
00000000
00000000
,
00000000
00000000
00000000
00000000
,
00000000
00000000
00000000
00000000
,
00000000
00000000
00000000
00000000
,
00000000
00000000
00000000
00000000
,
10000000
00000000
01000000
00000000
10000000
01000000
10000000
01000000
10000000
00000000
01000000
00000000
00100000
00000000
00000000
00000000
,
00010000
00000000
00001000
00000000
00000100
00000010
00000100
00000010
00000100
00000000
00000001
00000000
00000010
00000000
00000000
00000000
,
00000100
00000000
00001000
00000000
00001000
00010000
00100000
01000000
10000000
00000000
01000000
00000000
00100000
00000000
00000000
00000000
,
00010000
00000000
00100000
00000000
00010000
00001000
00000100
00000010
00000100
00000000
00001000
00000000
00010000
00000000
00100000
00000000
,
10000000
10000000
01000000
00000000
00010000
00010000
00001000
00000000
,
00000010
00000010
00000001
00000000
00000100
00000100
00001000
00000000
,
00010000
00010000
00100000
00000000
00100000
00100000
01000000
00000000
,
10000000
00000000
01000000
00000000
00100000
00000000
00010000
00000000
00010000
00001000
00010000
00001000
00022000
00000000
00033000
00000000
,
00000001
00000000
00000001
00001000
00000000
00000001
00001000
00000000
00001000
00000100
00001000
00000010
00000100
00001000
00010000
00000000
,
00100000
00000000
00100000
01000000
00000000
00100000
01000000
00000000
10000000
00010000
01000000
00100000
00010000
00001000
00000100
00000001
,
00000001
00000000
00000010
00001000
00000000
00100000
00010000
00000000
00100000
00001000
00010000
00001000
00000100
00000010
00000001
00000010
,
00000100
00001000
00010000
00001000
00000000
00010000
00001000
00000000
00001000
00000100
00000010
00000001
00000010
00000100
01000000
00010000
,
01000000
00000000
01000000
00000000
00010000
01000000
00000000
00010000
00000000
00000000
01000000
00000000
00010000
00000000
00000000
00000000
,
00100000
00000000
00010000
00000000
00001000
00010000
00000000
00001000
00000000
00000000
00000001
00000000
00000010
00000000
00000000
00000000
,
00000100
00000000
00001000
00000000
00100000
00010000
00000000
00100000
00000000
00000000
00010000
00000000
00100000
00000000
00000000
00000000
,
00001000
00000000
00010000
00000000
00001000
00010000
00000000
00001000
00000000
00000000
00010000
00000000
00001000
00000000
00000000
00000000
,
20000000
00000000
01000000
01000000
00000000
01000000
00000000
01000000
00000000
00000000
01000000
00000000
01000000
00000000
00000000
00000000
,
01000000
00000000
01000000
01000000
00000000
01000000
00000000
01000000
00000000
00000000
01000000
00000000
01000000
00000000
30000000
00000000
,
00020000
00000000
00100000
00100000
00000000
00100000
00000000
00100000
00000000
00000000
00100000
00000000
00100000
00000000
00000000
00000000
,
00100000
00000000
00100000
00100000
00000000
00100000
00000000
00100000
00000000
00000000
00100000
00000000
00100000
00000000
00030000
00000000
,
00000020
00000000
00001000
00001000
00000000
00001000
00000000
00001000
00000000
00000000
00001000
00000000
00001000
00000000
00000000
00000000
,
00001000
00000000
00001000
00001000
00000000
00001000
00000000
00001000
00000000
00000000
00001000
00000000
00001030
00000000
00000000
00000000
,
00000200
00000000
00000001
00000001
00000000
00000001
00000000
00000001
00000000
00000000
00000001
00000000
00000001
00000000
00000000
00000000
,
00000001
00000000
00000001
00000001
00000000
00000001
00000000
00000001
00000000
00000000
00000001
00000000
00000301
00000000
00000000
00000000
,
00000001
00000000
00000001
00001000
00000000
00000001
00001000
00000000
00001000
00000100
00000010
00000001
00000010
00000100
00001000
00000000
,
00010000
00000000
00010000
01000000
00000000
00100000
01000000
00000000
10000000
00010000
01000000
00100000
00010000
01000000
00100000
10000000
,
10000000
00000000
10000000
00010000
00000000
00001000
00000001
00000000
00000010
00000100
00001000
00010000
10000000
01000000
00100000
00010000
,
00001000
00000000
00000100
00000001
00000000
00000010
00000100
00000000
00001000
00010000
00100000
10000000
01000000
00100000
00001000
00010000
,
00001000
00000000
00000100
00000000
00000001
00001000
00000000
00000001
00000000
00000000
00000010
00000000
00001000
00000000
00000000
00000000
,
00100000
00000000
01000000
00000000
00100000
01000000
00000000
00100000
00000000
00000000
01000000
00000000
00100000
00000000
00000000
00000000
,
00010000
00000000
00001000
00000000
00000100
00010000
00000000
00000100
00000000
00000000
00010000
00000000
00000100
00000000
00000000
00000000
,
00000001
00000000
00000100
00000000
00000001
00000100
00000000
00000001
00000000
00000000
00000100
00000000
00000001
00000000
00000000
00000000
,
20000000
00000000
01000000
01000000
00000000
01000000
00000000
01000000
00000000
00000000
01000000
00000000
01000000
00000000
00000000
00000000
,
01000000
00000000
01000000
01000000
00000000
01000000
00000000
01000000
00000000
00000000
01000000
00000000
01000000
00000000
30000000
00000000
,
00020000
00000000
00100000
00100000
00000000
00100000
00000000
00100000
00000000
00000000
00100000
00000000
00100000
00000000
00000000
00000000
,
00100000
00100000
00100000
00100000
00100000
00130000
10000000
01000000
,
10000000
01000000
00000000
10000000
00000000
00000000
01000000
00000000
00100000
00000000
00000000
00000000
01000000
00000000
00100000
00000000
,
01000000
00100000
00000000
01000000
00000000
00000000
00100000
00000000
00010000
00000000
00000000
00000000
00010000
00000000
00100000
00000000
,
00010000
00100000
00000000
00010000
00000000
00000000
00100000
00000000
01000000
00000000
00000000
00000000
00010000
00000000
00001000
00000000
,
00010000
00001000
00000000
00010000
00001000
00000000
00000100
00000000
00001000
00000000
00000000
00000000
00000010
00000000
00000001
00000000
,
00000010
00000001
00000000
00000010
00000000
00000000
00000100
00000000
00001000
00000000
00000000
00000000
00010000
00000000
00100000
00000000
,
00010000
00100000
00000000
00010000
00000000
00000000
01000000
00000000
10000000
00000000
00000000
00000000
10000000
00000000
01000000
00000000
,
10000000
01000000
00000000
10000000
00000000
00000000
01000000
00000000
00100000
00000000
00000000
00000000
00010000
00000000
00010000
00000000
,
00010000
00001000
00000000
00010000
00001000
00000000
00010000
00000000
00022000
00000000
00000000
00000000
00033000
00000000
00000000
00000000
;
