#TITLE:la divina tragedia ~魔曲~;
#SUBTITLE:;
#ARTIST:Hommarju feat. YOZU + R.Cena + Cobalt;
#TITLETRANSLIT:la divina tragedia ~makyoku~;
#SUBTITLETRANSLIT:;
#ARTISTTRANSLIT:;
#GENRE:;
#CREDIT:AznPunk07/Frozen_Heat/GuardianFrozen;
#MENUCOLOR:#ffcc00;
#BANNER:la divina tragedia-bn.png;
#BACKGROUND:la divina tragedia-bg.png;
#LYRICSPATH:;
#CDTITLE:!cdtitle.png;
#MUSIC:la divina tragedia.mp3;
#OFFSET:-0.068;
#SAMPLESTART:29.960;
#SAMPLELENGTH:20.000;
#SELECTABLE:YES;
#LISTSORT:;
#BPMS:0.000=90.000,16.000=180.000,36.000=90.000,38.000=180.000;
#STOPS:;
#TICKCOUNT:0.000=2;
#BGCHANGES:;
#KEYSOUNDS:;
#ATTACKS:;

//---------------dance-single - ----------------
#NOTES:
     dance-single:
     :
     Hard:
     8:
     0.648,0.810,0.620,0.443,0.425:
0002
0000
1000
0000
0000
1000
0103
0000
,
2000
0000
0001
0000
0000
0001
3100
0000
,
0002
0000
0010
0000
0000
1000
0103
0000
,
2000
0000
0010
0000
0000
0001
3100
0000
,
0010
0001
0100
1000
,
0010
1000
0100
0001
,
0010
0001
0100
1000
,
0010
1000
0100
0001
,
0110
1000
1001
0010
,
0220
0000
0000
0330
0000
0000
0000
0000
0000
0000
0000
0000
0000
0000
0000
0000
0000
0000
0000
0000
0000
0000
0000
0000
0002
0000
0000
0003
0000
0000
0000
0000
0000
0000
0000
0000
0000
0000
0000
0000
0000
0000
0000
0000
0000
0000
0000
0000
2002
0000
0000
3003
0000
0000
0000
0000
0000
0000
0000
0000
0000
0000
0000
0000
0000
0000
0000
0000
0000
0000
0000
0000
0020
0000
0000
0030
0000
0000
0000
0000
0000
0000
0000
0000
0000
0000
0000
0000
0000
0000
0000
0000
0000
0000
0000
0000
0100
0000
0000
0000
0000
0000
0000
0000
0000
0000
0000
0000
0000
0000
0000
0000
0000
0000
0000
0000
0000
0000
0000
0000
0000
0000
0000
0000
0000
0000
0000
0000
1000
0000
0000
0000
0000
0000
0000
0000
0000
0000
0000
0000
0000
0000
0000
0000
0100
0000
0000
0000
0000
0000
0000
0000
0000
0000
0000
0000
0000
0000
0000
0000
0000
0000
0000
0000
0000
0000
0000
0000
0000
0000
0000
0000
0000
0000
0000
0000
1000
0000
0000
0000
0000
0000
0000
0000
0000
0000
0000
0000
0000
0000
0000
0000
,
0100
0000
0000
0010
0000
0000
0001
0000
0001
0100
0000
0001
,
0100
0000
0000
0010
0000
0000
1000
0000
0001
0010
0000
0001
,
0100
0000
0000
0010
0000
0000
1000
0000
1000
0010
0000
1000
,
0100
0000
0100
1000
0000
0000
0100
0000
0000
0010
0000
0010
,
0001
0000
0001
1000
0000
0000
1000
0000
1000
0001
0000
0001
,
0100
0000
0001
0000
0000
1000
0000
0000
1000
0100
0000
0001
,
0100
0000
0000
0010
0000
0000
0001
0000
0001
0100
0000
1000
,
0100
0000
0010
0000
0100
0000
0110
0000
0000
0001
0000
0000
,
2000
3100
0002
0103
,
0020
0130
1002
0103
,
2001
3100
1002
0103
,
0010
0000
1001
0010
,
0210
1300
0120
0031
,
0210
1300
0002
0010
,
2003
0010
0002
0000
,
3003
0000
0110
0001
,
1000
0000
0000
0100
0000
1000
0100
0000
0000
0010
0000
0001
,
0100
0010
1010
0101
,
0010
0000
0000
0001
0000
0010
0100
0000
0000
1000
0000
0000
,
0001
0000
0100
0001
0000
0000
0011
0000
0000
1100
0000
0000
,
1000
0000
0000
0001
0000
0010
1000
0000
0000
0010
0000
0000
,
0001
0000
1000
0100
0000
0000
1001
0000
0000
0110
0000
0000
,
0001
0000
0000
1000
0000
0100
0010
0000
0000
0001
0000
0000
,
0220
0000
0000
0330
0000
0000
1100
0000
0000
1000
0000
0100
,
1000
0000
0000
0010
0000
0100
0001
0000
0001
0010
0000
0000
,
0001
0000
0001
0100
0000
0010
1000
0000
0000
0101
0000
0010
,
0001
0000
0100
0001
0000
0001
0010
0000
0010
0100
0000
0100
,
1000
0001
1000
0001
0000
0000
1001
0000
0000
0001
0000
0100
,
0001
0000
0100
0001
0000
0000
1001
0000
0000
1000
0000
0100
,
1000
0000
0100
1000
0000
0010
0100
0000
0010
0100
0000
0100
,
0010
0000
0100
0010
0000
1000
0001
0000
1000
0000
0001
0000
,
0020
0000
0000
0000
0030
0000
0100
0000
0000
1100
0000
0000
,
0001
0011
2000
3020
,
0032
0000
0000
0023
0000
0000
1030
0000
0100
1000
0000
0010
,
0100
0000
0000
0001
0000
0000
0010
0000
0010
0001
0000
0100
,
0001
1010
0101
0010
,
1100
0010
0201
2300
,
3020
0000
0000
0032
0000
0000
1003
0000
0000
0100
0000
0100
,
0001
0000
0000
0001
0000
0001
0010
0000
0000
0010
0000
0010
,
1000
0010
0001
2001
,
3100
1002
0013
0110
,
1001
0110
1020
0130
,
0201
0310
2100
3001
,
0012
0000
0000
1003
0000
0000
0110
0000
0000
0010
0000
1000
,
0100
0000
0000
0010
0000
0000
0001
1000
0001
1000
0000
1000
,
0001
0000
0001
1000
0000
0000
1100
0000
0000
0100
0000
0000
,
0011
0010
1001
0000
,
0010
0100
0010
0100
0000
0000
0001
0100
0001
0100
0000
0010
,
1000
0000
0010
1000
0000
0000
1000
0100
1000
0100
0000
0010
,
0001
0000
0010
0001
0000
0000
1002
0000
0000
0103
0000
0000
,
2001
3100
1002
0013
,
2001
0000
0000
3010
0000
0000
0110
0000
0000
1000
0000
0001
,
0010
0000
0000
0001
0000
1000
0010
0000
0100
0010
0000
0001
,
0010
0000
0100
0010
0000
0000
1100
0000
0000
0000
0000
0000
,
0101
0000
1001
0010
,
0001
1000
0001
1000
0000
0000
0100
0000
0000
0110
0000
0000
,
0001
1001
1010
0101
,
1100
0011
1020
0130
,
0102
1003
2100
3010
,
0021
0000
0000
0130
0000
0001
1000
0000
0000
0000
0000
0000
,
0001
1000
0001
1000
0000
0000
0100
0000
0100
0000
0100
0000
,
0020
0000
0000
0000
0030
0000
0001
0000
0100
0001
0000
0000
,
0001
0000
0010
0001
0000
0001
0100
0000
0001
1000
0000
0000
,
0101
0000
0000
1010
0000
0000
1000
0000
0010
1000
0000
0000
,
1000
0000
0100
1000
0000
1000
0010
0000
1000
0001
0000
0000
,
1010
0000
0000
0101
0000
0010
0100
0000
0000
0000
0000
0000
,
1001
0000
0110
0000
,
1001
0000
0220
0000
,
0330
0000
0000
0000
0000
0000
1000
0000
0001
0000
1000
0000
,
0001
0000
0110
0000
;

//---------------dance-single - ----------------
#NOTES:
     dance-single:
     :
     Challenge:
     10:
     0.797,0.740,0.594,0.106,1.000:
0020
0000
0001
0000
0000
0130
1000
0000
,
0002
0000
0100
0000
0000
1003
0010
0000
,
2000
0000
0010
0000
0000
3001
0100
0000
,
0200
0000
1000
0000
0000
0310
0001
0000
,
1100
2010
3001
0100
,
0011
0102
1003
0010
,
0210
0001
1300
0001
,
0120
0000
0000
1000
0000
0000
0031
0000
0000
0100
0000
0100
,
0001
0000
0000
1001
0000
0001
1000
0000
0001
0010
0000
0010
,
0100
1000
0100
1000
0000
1000
0001
0000
0000
1001
0000
0000
0010
0000
0000
0000
1000
0000
0100
0000
0000
0000
1000
0000
,
0010
0000
0000
0100
0000
0000
0000
0000
0000
0000
0001
0000
0010
0000
0000
0000
0001
0000
0100
0000
0000
0000
0001
0000
,
0010
0000
0000
1100
0000
0000
0001
0000
0100
0010
0000
0010
,
1000
0000
0000
0001
0000
0000
0000
0000
0000
0000
0001
0000
0010
0000
0000
0000
0010
0000
0100
0000
0000
0000
0100
0000
,
1000
0000
0000
0001
0000
0000
1000
0000
0000
0010
0000
0000
0000
0000
0000
0000
0010
0000
0100
0000
0000
0000
0010
0000
,
1000
0000
0001
0100
0000
0000
0001
0000
1000
0100
0000
0100
,
0010
0000
0011
0000
0000
1100
0000
0000
1000
0001
0000
0010
,
1000
0000
0100
0000
0000
0010
0001
0000
1000
0100
0000
0001
,
0100
0000
1010
0000
0101
0000
1001
0000
1000
0100
0000
0000
,
0010
0000
0000
1001
0000
0001
0100
0000
0000
0010
0000
0000
,
1000
0000
0000
0001
0000
0000
0110
0000
0010
0001
0000
0000
,
0001
0000
0000
0110
0000
0100
1000
0000
0000
1000
0000
0000
,
0010
0000
0100
0010
0000
0000
0101
0000
0010
1000
0000
0000
,
0001
0000
0000
1100
0000
0010
0001
0000
0000
1000
0000
0000
,
0001
0000
0000
0010
0000
0000
1100
0000
1000
0010
0000
0000
,
0100
0000
0000
0011
0000
0001
0100
0000
0000
0010
0000
0000
,
1001
0000
0010
0100
0000
0000
1010
0000
0100
0001
0000
0000
,
0010
0000
0000
0011
0000
0100
1000
0000
0000
0110
0000
1000
,
0100
0000
0010
0001
0000
0001
0100
0000
0010
0100
0000
0000
,
1001
0000
0000
1100
0000
0010
0100
0000
0000
1010
0000
0000
,
0101
0000
1000
0100
0000
0010
0001
0000
0001
0100
0000
0000
,
0011
0000
0000
1100
0000
0100
1000
0000
0000
0110
0000
0001
,
0100
0000
0001
0010
0000
1000
0010
0000
0100
0001
0000
0000
,
1010
0000
0001
0010
0000
0100
1000
0000
0000
1001
0000
0000
,
0110
0000
0010
1001
0000
0100
1001
0000
0010
1000
0000
1000
,
0100
0000
0100
0010
0000
0010
0001
0000
0001
0100
0000
0001
,
0010
0000
0001
1000
0000
1000
0001
0000
0001
0010
0000
0010
,
0100
0000
0100
1000
0000
1000
0010
0000
1000
0100
0000
1000
,
0001
1000
0100
1000
0000
0010
0001
0000
0010
1000
0000
0100
,
1000
0000
0100
0001
0000
0010
0001
0000
0100
1000
0000
0001
,
0100
0000
0010
1000
0000
0100
1010
0000
0100
0011
0000
0100
,
1001
0000
0100
1010
0000
0100
0011
0000
1001
0000
1010
0000
,
0220
0000
0000
0000
0330
0000
0001
0000
0001
0010
0000
0010
,
0100
0000
0100
1000
0000
0000
1000
0010
1000
0010
0000
0010
,
0100
0000
0100
0001
0000
0100
0001
0000
0000
0001
0010
0001
,
0010
0000
0000
0100
1000
0001
0100
0000
0000
0010
0000
1000
,
0001
0000
0000
0000
0000
0000
1000
0000
0000
0000
0000
0000
0001
0000
0000
1000
0000
0000
0001
0000
0000
0000
0000
0000
0100
0000
0000
0000
0000
0000
0000
0000
0100
0000
0000
0000
0001
0000
0000
0000
0000
0000
0000
0000
0001
0000
0000
0000
,
0010
0000
0010
0001
0000
1000
0001
0100
0001
1000
0000
1000
,
0100
0000
0000
0001
0100
0001
0010
0000
0000
0001
0010
0100
,
1000
0000
0010
0001
0000
0010
1000
0000
0100
0010
0001
1000
,
0010
0100
0001
1000
0000
1000
0001
0000
0001
0100
0001
0100
,
0010
0000
0010
1000
0000
1000
0100
0010
0100
1000
0000
0001
,
0010
0000
0001
0100
0010
1000
0100
0000
1000
0010
1000
0010
,
0100
0000
0100
0001
0000
0001
0010
0000
0010
0100
0000
0100
,
1000
0001
0000
1001
0000
0010
0100
0000
0000
0101
0000
0000
,
1100
0000
0000
0010
0000
1000
0100
0001
1000
0010
0000
0001
,
0100
0000
0001
0010
0000
0100
1000
0000
0000
0010
0000
0000
,
0001
0000
0000
0010
0000
0000
1000
0000
0000
0001
1000
0001
,
0010
0100
1000
0010
0000
0010
0001
1000
0100
0001
0000
0001
,
0010
0000
0100
1000
0000
0000
0010
0001
0010
0100
0000
1000
,
0100
0000
0010
0001
1000
0001
0100
0000
0000
0001
0010
0001
,
0010
0000
0000
1000
0010
1000
0010
0000
1000
0001
0000
0001
,
0010
0000
0000
0000
0000
0000
0100
0000
0000
0000
0000
0000
1000
0000
0000
0001
0000
0000
1000
0000
0000
0000
0000
0000
0010
0000
0000
0000
0000
0000
0000
0000
0010
0000
0000
0000
0100
0000
0000
0000
0000
0000
0000
0000
0100
0000
0000
0000
,
0001
0010
0100
1000
0000
0100
1000
0001
1000
0010
0000
0010
,
0100
0000
0100
0001
0000
0001
0010
0000
0000
0001
0100
1000
,
0001
0000
0010
1000
0100
0001
0100
0000
0010
0001
1000
0001
,
1000
0001
0100
1000
0000
1000
0100
0000
0100
0001
0000
0001
,
1000
0010
1000
0100
0000
0100
0010
0001
0010
0001
0000
0001
,
0100
0010
0100
0001
0000
0001
1000
0000
1000
0100
1000
0100
,
0010
0000
0001
0100
0001
0100
0010
0000
1000
0001
0000
0010
,
0100
0000
0010
0000
0001
0100
0010
0000
1001
0000
0000
0000
0000
0000
0000
0000
,
0000
0000
0000
0000
0000
0000
0101
0000
1010
0000
1100
0000
,
0011
0000
0000
0000
0000
0000
1000
0000
1000
0100
0000
1000
,
0010
0000
0010
0100
0000
0001
0010
0000
0010
0001
0000
0010
,
1010
0000
0000
0101
0000
0000
0010
0000
0001
0100
0000
0100
,
0010
0000
1000
0010
0000
1000
0100
0000
0100
0001
0000
0010
,
0011
0000
0000
1100
0000
0010
0110
0000
0010
0001
0000
0010
,
1010
0000
0100
1000
0000
0100
0101
0000
0010
0001
0000
0100
,
1100
0000
0100
0010
0000
0010
2002
0000
0000
0000
0000
0000
,
0000
0000
0000
3003
0000
0000
1010
0000
0101
0000
0011
0000
,
1100
0000
1001
0000
;

//---------------dance-single - LIFTS----------------
#NOTES:
     dance-single:
     LIFTS:
     Edit:
     5:
     0.353,0.528,0.346,0.080,0.013:
0000
0000
0000
0000
,
0000
0000
0000
0000
,
0000
0000
0000
0000
,
0000
0000
0000
0000
,
0001
0100
0L01
0000
,
1000
0010
10L0
0000
,
0001
0010
000L
0000
,
1000
0100
L000
0000
,
0002
0000
2000
3003
,
L00L
0000
0010
1000
,
0100
0100
0010
0001
,
1000
L00L
0000
0001
,
0100
0010
1000
1000
,
0001
L00L
0000
0010
,
0010
01L0
0010
0010
,
01L0
0000
0000
0L10
0000
0000
1000
0000
,
0100
0000
0001
0100
,
1000
0010
0001
0000
,
1000
0010
1000
0000
,
L000
0000
0001
0010
,
0100
0000
000L
0000
,
0L00
0000
0010
0000
,
1000
0001
0100
0000
,
00L0
0000
0001
0000
,
1000
0000
L00L
0000
,
0110
0000
0020
0000
,
0030
0001
0100
0000
,
0010
1000
0001
0000
,
0000
1000
0200
0000
,
0300
0000
0002
0000
,
0003
0100
0010
0000
,
1000
0001
1000
0000
,
L000
0000
000L
0000
,
0110
0000
1000
0010
,
0100
0001
1000
0100
,
0010
0001
0100
0L00
,
0100
0L00
0001
0010
,
0100
1000
0010
00L0
,
0010
00L0
1000
0001
,
0010
0100
2000
3100
,
0002
0103
0020
0000
,
0L30
0000
0001
0010
,
0100
0010
0001
0100
,
1000
0100
0001
0000
,
0010
0000
0100
0000
,
1000
0000
0001
000L
,
00L0
0L00
00L0
000L
,
0L00
L000
0L01
0000
,
0010
0000
0100
0000
,
1000
0000
0010
1000
,
0001
0010
0100
1010
,
0100
0011
1000
0000
,
0001
0000
0100
0000
,
0010
0000
1000
L001
,
100L
0000
0001
100L
,
L001
100L
L100
0L10
,
00L1
010L
0L10
10L0
,
L002
0000
0003
0010
,
00L0
0000
0100
1000
,
0100
0010
0001
000L
,
0100
0L00
0010
00L0
,
1000
L000
0001
1000
,
0001
0010
0100
0010
,
0001
1000
1010
0001
,
0011
1000
1100
0001
,
0101
1001
L00L
0010
,
0010
0000
0100
0010
,
0110
0000
0L00
0000
,
00L0
0000
000L
0000
,
L000
0000
1001
0000
,
0000
0000
0000
0000
0000
0000
1001
0000
0010
0000
0010
0000
,
0010
0000
1000
L000
,
0L00
L000
0L00
L000
,
1L00
0000
0001
000L
,
0L00
000L
0L00
000L
,
0L01
0000
0010
L000
,
0010
0L00
0010
000L
,
0010
0L00
0010
0000
,
0000
0000
0000
0000
0000
0000
1001
0000
0000
0000
0010
0000
,
0100
0000
0LL0
0000
;

//---------------dance-single - ----------------
#NOTES:
     dance-single:
     :
     Medium:
     6:
     0.476,0.458,0.248,0.204,0.053:
0000
0020
0030
1000
,
0001
0200
0300
0001
,
0010
0002
0003
0100
,
0010
2000
3000
0100
,
0020
0001
0100
0030
,
0002
0100
1000
0003
,
2000
0001
0010
3000
,
0200
0010
1000
0300
,
1000
0010
0001
0010
,
2000
3000
0002
0003
1000
0000
0100
0000
,
0011
0000
1000
0010
,
0101
0011
0000
0001
,
1010
0000
0001
0100
,
1010
1100
0010
0001
,
0101
1010
1000
0001
,
1000
0000
0000
0100
0000
0000
0010
0000
,
0011
1000
0001
0110
,
1000
0000
0001
1000
0001
0000
0000
0000
,
0100
0001
0100
0000
,
0010
1000
0010
0000
0100
0000
0000
0000
,
0001
0010
0100
0000
,
0010
0001
0010
0000
0100
0000
0000
0000
,
0010
0001
1000
0000
,
0001
0100
0001
0000
1000
0000
0000
0000
,
0001
0010
0001
0000
,
1000
0010
1000
0000
0001
0000
0011
0000
,
0101
0000
0001
1000
0001
0000
0100
0000
,
0010
0000
1000
1100
,
0011
0000
1000
0010
0001
0000
0010
0000
,
1000
0000
0000
0000
0001
1000
0001
0000
,
0010
0101
1010
0001
,
0010
0000
0100
0000
1000
0001
1000
0000
,
0110
0000
0001
1000
0001
0000
0110
0000
,
1000
0001
1000
0000
0010
0000
0010
0000
,
2000
0100
0001
0100
,
0010
3010
0020
0001
,
0100
0001
0100
1000
,
0100
0100
0230
0001
,
1000
0001
1000
0010
,
1000
0010
0302
0010
,
0100
1000
2000
3003
,
1001
0000
0000
0000
0000
0000
1000
0000
1000
0100
0000
0000
,
1000
0000
0000
0100
0000
0000
0010
0000
0010
0001
0000
0000
,
0010
0001
2000
0010
,
3002
0010
2003
0001
,
3010
0000
0000
0100
0000
0000
0001
0000
0000
0000
0000
0000
0010
0000
0000
0000
0010
0000
0001
0000
0000
0000
0000
0000
,
0100
0000
0000
0001
0000
0000
1000
0000
0100
1000
0000
0000
,
0010
1000
0200
0301
,
0002
0013
0020
1030
,
2000
0000
0000
3100
0000
0000
1000
0000
1000
0001
0000
0000
,
0100
0000
0000
0100
0000
0000
0001
0000
0001
1000
0000
0000
,
0010
0010
0101
0010
,
1100
0010
1001
0100
,
0010
0000
0001
0010
,
0100
0000
1000
0010
,
0100
0000
0001
0010
,
0100
1000
0010
0100
,
0001
1000
0001
1000
0001
0000
0010
0000
,
0100
1000
0100
0000
0010
0001
0010
0000
,
0001
1000
0001
0000
0100
0000
0010
1000
,
0010
0000
0100
0001
0100
0000
0010
1000
,
0010
1000
0100
0000
0010
0000
0001
1000
,
0001
0000
0100
0000
0010
0000
1000
0010
,
1000
0000
0001
0000
0010
0000
0001
0010
,
0001
0000
1000
0100
1000
0000
0001
0010
,
0001
0010
0100
1000
0010
0000
0100
0000
,
0001
0010
1000
0000
0010
0000
0001
0000
,
1000
0100
0001
0000
1000
0000
0010
0001
,
0010
0000
1000
0100
1000
0000
0010
0001
,
0010
0000
1001
0000
,
0010
0000
0000
0100
0000
0000
0010
0000
0000
0100
0000
0000
0010
0000
0000
0000
0010
0000
0000
0000
0010
0000
0000
0000
,
0100
0000
0000
0000
0000
0000
0001
0000
0001
0100
0000
0000
,
0001
0100
0001
0100
,
0010
0000
0000
0010
0000
0000
1000
0000
1000
0100
0000
0000
,
1000
0100
1000
0100
,
0010
0010
1001
0000
,
0110
0000
1001
0000
,
0110
0000
1001
0000
,
0000
0000
0000
0000
0000
0000
0010
0000
0010
0000
0010
0000
,
0020
0030
0010
0000
;

//---------------dance-single - ----------------
#NOTES:
     dance-single:
     :
     Easy:
     5:
     0.306,0.423,0.142,0.230,0.027:
0000
0000
0000
0000
,
0000
0000
0000
0000
,
0020
0000
0000
0030
,
0200
0000
0000
0300
,
0001
0000
0000
0000
,
1000
0000
0000
0000
,
0100
0000
0000
0000
,
0010
0000
0000
0000
,
0001
0000
1000
0000
,
2002
3003
0010
0010
,
0010
0000
0100
0100
,
0100
0100
0000
0001
,
0001
0000
1000
1000
,
1000
1000
0000
0100
,
0100
0100
0010
0010
,
0010
0000
0000
0010
0000
0000
1001
0000
0000
0000
0000
0000
0010
0000
0000
0000
,
0010
0000
0100
0100
,
1000
0001
0110
0000
,
0000
0001
0100
0000
,
0000
0000
1001
0000
,
0000
1000
0010
0000
,
0000
0000
0101
0000
,
0000
1000
0100
0000
,
0000
0000
1010
0000
,
0000
0001
0010
0000
,
0000
0000
0200
0000
,
0000
0010
0310
0000
,
0000
0000
0002
0000
,
0000
1000
1003
0000
,
0000
0000
0020
0000
,
0000
0100
0130
0000
,
0000
0000
2000
0000
,
0000
0001
3001
0000
,
0000
0000
1001
0000
,
0001
0010
0001
0000
,
1000
0100
1000
0000
,
0010
1000
0010
0000
,
0100
0001
0100
0000
,
0001
0010
1000
0010
,
0001
0000
0000
1000
0000
1000
0001
0000
1000
0001
0000
1000
,
0001
0000
1000
0001
0000
0000
0110
0000
0000
1001
0000
0000
,
0110
0000
1000
1000
,
0100
0100
1000
0100
,
1000
0000
0001
0001
,
0100
0000
0010
0010
,
1000
0010
0000
0100
,
0001
0000
0010
0001
,
0010
0100
1000
0000
,
0010
1000
0010
0100
,
0001
0000
0010
0001
,
0010
0000
0100
1000
,
0001
0100
0001
0000
,
1000
0000
0010
0000
,
0100
0010
0100
0000
,
0001
0000
0010
1000
,
0010
0100
1000
0000
,
0010
0100
0001
0010
,
0001
0000
1000
0010
,
0001
1000
0100
0001
,
1000
0010
0002
0000
,
0023
0000
2030
0000
,
3200
0000
0301
0100
,
1000
0010
0001
0010
,
1000
0001
0020
0000
,
0032
0000
0203
0000
,
2300
0000
3100
0010
,
0100
0000
0001
0010
,
0100
1000
0020
0000
,
0230
0000
0302
0000
,
2003
0000
3100
0000
,
0000
0000
0000
0000
0000
0000
0010
0000
0000
0000
0010
0000
,
0100
0000
0001
0001
,
0010
0010
0001
0100
,
0101
1010
1000
1000
,
0010
0010
1000
0100
,
1100
0011
2002
0000
,
3003
0000
0020
0000
,
0030
0000
0200
0000
,
0000
0000
0310
0000
,
2002
0000
3003
0000
;

//---------------dance-single - ----------------
#NOTES:
     dance-single:
     :
     Beginner:
     3:
     0.211,0.317,0.097,0.018,0.000:
0000
0000
0000
0000
,
0000
0000
0000
0000
,
0000
0000
0000
0000
,
0000
0000
0000
0000
,
0010
0000
0000
0000
,
1000
0000
0000
0000
,
0001
0000
0000
0000
,
0010
0000
0000
0000
,
0100
0000
0100
0000
,
0100
0000
1000
1000
,
1000
0000
0001
0001
,
0001
0000
0000
0100
,
0100
0000
0010
0010
,
0010
0010
0000
1000
,
1000
0000
0001
0001
,
0001
0000
0010
0000
,
0100
0000
0010
0010
,
0010
0010
0010
0000
,
0000
0000
0001
0000
,
0000
0000
1000
0000
,
0000
0000
0010
0000
,
0000
0000
0100
0000
,
0000
0000
0001
0000
,
0000
0000
1000
0000
,
0000
0000
0100
0000
,
0000
0000
0010
0000
,
0001
0000
0100
0000
,
0000
0000
0010
0000
,
1000
0000
0100
0000
,
0000
0000
0010
0000
,
0000
0000
0100
0000
,
0000
0000
1000
0000
,
0001
0000
1000
0000
,
0000
0000
0001
0000
,
0100
0100
0100
0100
,
0100
0100
0100
0000
,
0010
0010
0010
0010
,
0010
0010
0010
0000
,
1000
1000
1000
0000
,
0001
0001
0001
0000
,
1000
0000
1001
0000
,
1001
0000
0000
0010
,
0010
0000
0100
0100
,
0100
0000
0001
0000
,
1000
0000
0001
0000
,
1000
0000
0000
0100
,
0100
0000
0010
0010
,
0010
0000
0001
0000
,
1000
0000
0001
0000
,
1000
0000
0000
0010
,
0010
0000
0100
0100
,
0100
0000
0001
0000
,
0010
0000
0100
0000
,
1000
0000
0010
0000
,
0110
0000
0100
0000
,
0110
0000
1001
0000
,
0110
0000
1001
0000
,
0000
0000
0000
0001
,
0001
0000
1000
1000
,
1000
0000
0100
0000
,
0100
0000
0100
0000
,
0100
0000
0000
0010
,
0010
0000
0001
0001
,
0001
0000
1000
0000
,
1000
0000
1000
0000
,
1000
0000
0000
0010
,
0010
0000
0100
0100
,
0100
0000
0001
0000
,
1000
0000
1001
0000
,
0110
0000
1000
0000
,
0000
0000
0001
0000
,
0000
0000
0010
0010
,
0010
0010
0010
0010
,
0010
0000
0100
0100
,
0100
0100
0100
0100
,
0100
0000
1000
0000
,
0000
0000
0001
0000
,
0000
0000
0110
0000
,
0000
0000
2002
0000
,
0000
0000
3003
0000
;

//---------------dance-double - ----------------
#NOTES:
     dance-double:
     :
     Challenge:
     8:
     0.578,0.599,0.328,0.124,0.421: // measure 1
00000000
00000000
00000000
00000000
,  // measure 2
00000000
00000000
00000000
00000000
,  // measure 3
00002000
00000000
00000000
00000000
,  // measure 4
00023000
00000000
00000000
00000000
,  // measure 5
00031000
01000000
10000000
01000000
,  // measure 6
00010000
00000100
00000001
00000100
,  // measure 7
00001000
00100000
10000000
00100000
,  // measure 8
00010000
00000010
00000001
00000010
,  // measure 9
00002000
00103000
00020000
00030100
,  // measure 10
00022000
00000000
00033000
00000000
00000100
00001000
00010000
00001000
,  // measure 11
00000100
00000000
00000010
00000001
00000010
00000100
00001000
00010000
,  // measure 12
01000000
00000000
10010000
00000000
00001000
00000000
00100000
00010000
,  // measure 13
00001000
00010000
00100000
00000000
01000000
10000000
01000000
00100000
,  // measure 14
00010000
00000000
00000000
00001000
00000000
00000000
00000010
00000000
00000000
00000000
00000000
00000000
00000101
00000000
00000000
00000000
00000000
00000000
00000010
00000000
00000000
00000000
00001000
00000000
,  // measure 15
00000010
00000000
00000100
00000001
00000000
00000000
00000010
00000000
00000010
00000100
00000000
00000100
,  // measure 16
00010000
00000000
00101000
00000000
00000000
00110000
00000000
00000000
00000000
10000000
00000000
10000000
,  // measure 17
00100000
00000000
00100000
10000000
00000000
00000000
01000000
00000000
10000000
01000000
00000000
00100000
,  // measure 18
00010000
00000000
00000000
00000000
01000000
00000000
00000000
00000000
00001000
00000000
00000000
00000000
00010000
00000000
00000000
00000000
00000000
00000000
00000010
00000000
00000000
00000001
00000000
00000000
,  // measure 19
00000010
00000000
00001000
00000010
00001000
00000000
00000100
00000000
,  // measure 20
00010000
00000000
00000000
00000000
00001000
00000000
01000000
00010000
,  // measure 21
01000000
00000000
00100000
10000000
00100000
00000000
10000000
00000000
,  // measure 22
01000000
00000000
00000000
00000000
00001000
00000000
00010000
01000000
,  // measure 23
00010000
00000000
00001000
00000010
00001000
00000000
00000010
00000000
,  // measure 24
00000001
00000000
00000000
00000000
00000010
00000000
00001000
00000100
,  // measure 25
00001000
00000000
00000100
00010000
00000100
00000000
01000000
00000000
,  // measure 26
00100000
00000000
00000000
00000000
00010000
00100000
10000000
00000000
,  // measure 27
10000000
00000000
01000000
00100000
00010000
00000000
00001000
00000000
,  // measure 28
00100000
00000000
00000000
00000000
00010000
00001000
00000100
00000000
,  // measure 29
00000010
00000000
00001000
00000001
00000010
00000000
00000100
00000000
,  // measure 30
00010000
00000000
00000000
00000000
00001000
00000100
00000001
00000000
,  // measure 31
00000001
00000000
00000010
00000100
00001000
00000000
00010000
00000000
,  // measure 32
00000100
00000000
00000000
00000000
00001000
00010000
00100000
00000000
,  // measure 33
01000000
00000000
00010000
10000000
01000000
00000000
00100000
00000000
,  // measure 34
00001000
00000000
02000000
23000000
,  // measure 35
32000000
03020000
00031000
00000100
,  // measure 36
00000001
00000100
00020000
02030000
,  // measure 37
23000000
32000000
03010000
00000010
,  // measure 38
00000001
00000010
00001000
00010000
,  // measure 39
00100000
00010000
00001000
00000010
,  // measure 40
00001000
00000000
00000000
00000001
00000000
00000000
00000010
00000000
00000100
00000010
00000000
00000100
,  // measure 41
00001000
00000000
00010000
00001000
00000000
00010000
00100000
00000000
00010000
00000000
01000000
00000000
,  // measure 42
00100000
00000000
00000000
00000000
00000000
00000000
10010000
00000000
00000000
10000000
00000000
10000000
,  // measure 43
01000000
00000000
01000000
00100000
00000000
00100000
00010000
00000000
00010000
01000000
00000000
01000000
,  // measure 44
00001000
00000000
00001000
00010000
00000000
00000000
00011000
00000000
00000000
00000010
00000100
00000010
,  // measure 45
00000100
00000000
00000000
01000000
00100000
01000000
00100000
00000000
00000000
00000010
00000100
00000010
,  // measure 46
00000100
00000000
00000000
00011000
00000000
00000000
00001001
00000000
00000000
00000001
00000000
00000001
,  // measure 47
00000010
00000000
00000010
00000100
00000000
00000100
00001000
00000000
00001000
00000010
00000000
00000010
,  // measure 48
00010000
00000000
00010000
00001000
00000000
00000000
00011000
00000000
00000000
01000000
00100000
01000000
,  // measure 49
00100000
00000000
00000000
00000010
00000100
00000010
00000100
00000000
00000000
01000000
00100000
01000000
,  // measure 50
00100000
00000000
00000000
00011000
00000000
00000000
10100000
00000000
00000000
10000000
00000000
10000000
,  // measure 51
01000000
00000000
01000000
00001000
00000000
00001000
00010000
00000000
00010000
00000010
00000000
00000010
,  // measure 52
00001000
00000000
00001000
00000100
00000000
00000000
00011000
00000000
00000000
00000010
00001000
00000010
,  // measure 53
00001000
00000000
00000000
01000000
00010000
01000000
00010000
00000000
00000000
00000010
00001000
00000010
,  // measure 54
00001000
00011000
00100000
01000000
,  // measure 55
10010000
00000000
00000100
00000010
,  // measure 56
00001001
00000000
00000001
00000101
,  // measure 57
00001000
00001100
00010000
01010000
,  // measure 58
10000000
00000000
00000000
11000000
00000000
00000000
00010000
00001000
00010000
00001000
00000000
01000000
,  // measure 59
00001000
00000000
00001000
00010000
00000000
00000000
00001000
00010000
00001000
00010000
00000000
00010000
,  // measure 60
00000010
00000000
00000010
00001000
00000000
00000000
00000001
00000000
00000000
00000001
00000010
00000100
,  // measure 61
00001000
00000000
00000000
00010000
00000010
00000100
00000001
00000000
00000000
00000100
00001000
00010000
,  // measure 62
00100000
00000000
00100000
01000000
00000000
00000000
01100000
00000000
00000000
10000000
00000000
00000000
,  // measure 63
00010000
10000000
00010000
10000000
00000000
00000000
00100000
00001000
00100000
00001000
00000000
00100000
,  // measure 64
10000000
00000000
00100000
01000000
00000000
01000000
00001000
00000000
00000000
00001000
00000000
00000000
,  // measure 65
00010000
00010000
00000100
00000100
,  // measure 66
00000010
00000001
00000010
00000100
00000000
00000000
00001000
00000000
00000000
00010000
00001000
00010000
,  // measure 67
00001000
00000000
00000000
01000000
00001000
01000000
00001000
00000000
00001000
00100000
00000000
00100000
,  // measure 68
01000000
00000000
01000000
10000000
00000000
10000000
00100000
00000000
00000000
00110000
00000000
00000000
,  // measure 69
00001000
00011000
00000100
00000110
,  // measure 70
00000001
00000011
00001001
00000000
,  // measure 71
00000000
00000000
00000000
00000000
00000000
00000000
10010000
00000000
00001000
00000000
00010000
00000000
,  // measure 72
00001001
00000000
00000000
00000000
00000010
00000100
00001000
00000000
,  // measure 73
00000100
00000001
00000010
00000000
00000001
00001000
00000100
00000000
,  // measure 74
00001100
00000000
00011000
00000000
00010000
01000000
00100000
00000000
,  // measure 75
10000000
00100000
00010000
00000000
01000000
00010000
00100000
00000000
,  // measure 76
00110000
00000000
00000000
00011000
00000000
00010000
00001000
00000000
00000000
00000010
00000000
00001000
,  // measure 77
00010000
00000000
00000000
01000000
00000000
00010000
00001000
00000000
00000000
00000001
00000000
00001000
,  // measure 78
00010000
00000000
00000000
10000000
00000000
00010000
00001000
00000000
00000000
00000000
00000000
00000000
,  // measure 79
00000000
00000000
00000000
00000000
00000000
00000000
00000101
00000000
00001100
00000000
01010000
00000000
,  // measure 80
11000000
00000000
00011000
00000000
;
