#TITLE:elektroniks;
#SUBTITLE:;
#ARTIST:temporu feat. 腹話;
#TITLETRANSLIT:;
#SUBTITLETRANSLIT:;
#ARTISTTRANSLIT:temporu feat. Fukuwa;
#GENRE:elektronika;
#CREDIT:;
#MENUCOLOR:#b5b5ff;
#METERTYPE:DDR;
#BANNER:elektroniks-bn.png;
#BACKGROUND:elektroniks-bg.png;
#LYRICSPATH:elektroniks.lrc;
#CDTITLE:!cdtitle.PNG;
#MUSIC:elektroniks.mp3;
#OFFSET:-0.773;
#SAMPLESTART:45.600;
#SAMPLELENGTH:15.000;
#SELECTABLE:YES;
#LISTSORT:;
#DISPLAYBPM:128.000;
#BPMS:0.000=256.000,4.000=128.000;
#STOPS:164.500=0.469
,165.500=0.469
,166.500=0.469
,167.500=0.469
,168.500=0.469
,169.500=0.469
,170.500=0.469
,171.500=0.469
;
#BGCHANGES:;
#ATTACKS:;

//---------------dance-single - ----------------
#NOTES:
     dance-single:
     :
     Hard:
     6:
     0.391,0.382,0.219,0.049,0.000:
0000
0000
0000
0000
,
0001
0000
0010
0000
0100
0000
1000
0001
,
0100
0000
0001
0000
0010
0100
0010
0000
,
0100
1000
0010
1000
,
0001
0000
0010
0000
0001
0100
0001
0010
,
0100
1000
0001
0100
,
0010
0000
1000
0000
0100
0010
0001
0010
,
0100
0000
1000
0000
0001
1000
0001
0100
,
0010
0000
0100
0000
0001
1000
0100
0000
,
0010
1100
0000
0001
,
0101
0000
0010
0000
0000
0100
0010
0000
,
1001
0000
0000
0000
0000
0010
1010
0000
,
0001
1000
0100
0000
1000
0001
0100
0010
,
0100
0101
0000
0110
,
1000
0000
0001
0000
0000
0100
0110
0000
,
0001
0010
0100
0000
1000
0001
1000
0100
,
0000
0100
0000
0010
0000
0001
1000
0100
,
0010
0001
0000
0100
0000
0010
0000
1000
,
0000
1000
0000
0000
0000
0000
0010
0100
,
0000
0000
0001
0010
0100
0000
1000
0010
,
0000
0100
0000
0001
0000
1000
0001
1000
,
0100
0000
0010
0000
0000
0000
0100
0010
,
0000
0011
0000
1000
0000
0001
1000
0001
,
0100
0100
0000
0010
0000
1000
0000
0001
,
0000
0010
0001
0000
0100
0010
0000
0000
,
1100
0001
1100
0010
,
1100
0000
0001
1000
0001
0100
1000
0000
,
0100
0010
0100
0000
0010
1000
0010
0000
,
0100
0001
0100
0000
0011
0000
0101
0000
,
1000
0000
0001
0010
0000
0010
0001
0000
,
0100
0010
0100
0001
0000
0000
1000
0000
,
0100
0001
0000
0100
0000
1000
0100
1000
,
0000
0010
0001
0000
0010
0000
0100
0000
,
0101
0010
0101
1000
,
0101
0000
0010
0100
2000
0000
3200
0000
,
0302
0000
0103
1000
0100
0000
1000
0010
,
0000
0001
0000
0010
0100
0010
0000
1010
,
0000
0101
0000
0000
0000
1000
0100
0010
,
0000
0001
1000
0000
0000
0001
0010
0100
,
0000
1000
0001
0000
0000
0100
0010
0100
,
0000
0100
0000
0010
2000
0002
0000
3003
,
1000
0100
0010
0001
0100
0010
1000
0100
,
0001
0010
0001
1000
0010
0100
0001
0010
,
0100
1000
0010
0100
,
0001
1000
1100
0101
,
0001
0010
0000
1000
0000
0010
0100
0000
,
1000
0001
1000
0010
0100
0000
0001
0000
,
0010
0100
0000
1000
0000
0100
0010
0001
,
0000
0001
0100
0000
1010
0000
1100
0000
,
0011
0000
0001
1000
0001
0000
0001
0100
,
0000
0010
0000
1000
0010
1000
0000
0011
,
0000
1010
0000
0000
0000
1000
0000
1000
,
0000
1000
0001
0000
0000
0010
0100
0010
,
0000
0010
0100
0000
0000
0001
0100
0001
,
0000
1010
0000
0101
0000
0000
1000
0100
,
0010
0100
1000
0001
,
0100
0000
0010
0000
1000
0100
0010
0001
,
1000
0000
0001
0000
0100
0001
0100
0010
,
0000
0100
0000
0001
0000
1000
0100
1000
,
0010
0100
0001
1000
,
0100
0000
0010
0000
0100
1000
0100
0010
,
0000
0001
0000
1000
0000
0001
0010
0100
,
1000
0100
0020
0000
0000
0030
0000
0000
;

//---------------dance-single - ----------------
#NOTES:
     dance-single:
     :
     Challenge:
     9:
     0.773,0.814,0.276,1.000,0.106:
0000
0000
0000
0000
,
0100
0010
1000
0000
0100
0010
0001
0010
,
0100
1000
0001
0000
0100
0001
1000
0100
,
1000
0010
0001
0000
0010
0100
0010
0100
,
0001
0010
0100
1000
0100
0010
0100
1000
,
0001
0000
0100
0000
0010
1000
0000
0001
,
0000
0010
0000
0001
0010
0100
1000
0001
,
1000
0010
0000
0100
0010
1000
0000
0110
,
0000
0001
0010
0001
1000
0100
0000
0001
,
0100
0000
0000
0000
0000
0000
0000
0000
0020
0030
0000
0000
0000
0000
0000
0000
0002
0003
0000
0000
0000
0000
0000
0000
0010
0000
0000
0000
0000
0000
0000
0000
2000
3000
0000
0000
0000
0000
0000
0000
0000
0000
0000
0000
0000
0000
0000
0000
2020
3030
0000
0000
0000
0000
0000
0000
0002
0003
0000
0000
0000
0000
0000
0000
,
0000
0000
0000
0000
0000
0000
0000
0000
0022
0033
0000
0000
0000
0000
0000
0000
0000
0000
0000
0000
0000
0000
0000
0000
0000
0000
0000
0000
0000
0000
0000
0000
0100
0000
0000
0000
0000
0000
0000
0000
1000
0000
0000
0000
0000
0000
0000
0000
0200
0300
0000
0000
0000
0000
0000
0000
0010
0000
0000
0000
0000
0000
0000
0000
,
0000
0000
0000
0000
0000
0000
0000
0000
0020
0030
0000
0000
0000
0000
0000
0000
2200
3300
0000
0000
0000
0000
0000
0000
0000
0000
0000
0000
0000
0000
0000
0000
0000
0000
0000
0000
0000
0000
0000
0000
0000
0000
0000
0000
0000
0000
0000
0000
0202
0300
0000
0000
0000
0000
0000
0000
2000
3000
0000
0000
0000
0000
0000
0000
,
0003
0000
0000
0000
0000
0000
0000
0000
0220
0330
0000
0000
0000
0000
0000
0000
0000
0000
0000
0000
0000
0000
0000
0000
0000
0000
0000
0000
0000
0000
0000
0000
1000
0000
0000
0000
0000
0000
0000
0000
0010
0000
0000
0000
0000
0000
0000
0000
0001
0000
0000
0000
0000
0000
0000
0000
1000
0000
0000
0000
0000
0000
0000
0000
,
0200
0300
0000
0000
0000
0000
0000
0000
0000
0000
0000
0000
0000
0000
0000
0000
0002
0003
0000
0000
0000
0000
0000
0000
0020
0030
0000
0000
0000
0000
0000
0000
0000
0000
0000
0000
0000
0000
0000
0000
2000
3000
0000
0000
0000
0000
0000
0000
0000
0000
0000
0000
0000
0000
0000
0000
0022
0033
0000
0000
0000
0000
0000
0000
,
0000
0000
0000
0000
0000
0000
0000
0000
2200
3300
0000
0000
0000
0000
0000
0000
0000
0000
0000
0000
0000
0000
0000
0000
2002
3003
0000
0000
0000
0000
0000
0000
0000
0000
0000
0000
0000
0000
0000
0000
0020
0030
0000
0000
0000
0000
0000
0000
0000
0000
0000
0000
0000
0000
0000
0000
0000
0000
0000
0000
0000
0000
0000
0000
,
0200
0300
0000
0000
0000
0000
0000
0000
0200
0300
0000
0000
0000
0000
0000
0000
0000
0000
0000
0000
0000
0000
0000
0000
2002
3003
0000
0000
0000
0000
0000
0000
0000
0000
0000
0000
0000
0000
0000
0000
0220
0330
0000
0000
0000
0000
0000
0000
0000
0000
0000
0000
0000
0000
0000
0000
2002
3003
0000
0000
0000
0000
0000
0000
,
0010
0000
1010
0000
0011
0100
0010
0100
,
2000
3000
0000
0000
0000
0000
0000
0000
0200
0000
0000
0000
0000
0000
0000
0000
0000
0000
0000
0000
0000
0000
0000
0000
0002
0003
0000
0000
0000
0000
0000
0000
0000
0000
0000
0000
0000
0000
0000
0000
2300
3000
0000
0000
0000
0000
0000
0000
0000
0000
0000
0000
0000
0000
0000
0000
0022
0033
0000
0000
0000
0000
0000
0000
,
0000
0000
0000
0000
0000
0000
0000
0000
2200
3300
0000
0000
0000
0000
0000
0000
0000
0000
0000
0000
0000
0000
0000
0000
0000
0000
0000
0000
0000
0000
0000
0000
1000
0000
0000
0000
0000
0000
0000
0000
0010
0000
0000
0000
0000
0000
0000
0000
2000
0000
0000
0000
0000
0000
0000
0000
0002
0003
0000
0000
0000
0000
0000
0000
,
0000
0000
0000
0000
0000
0000
0000
0000
3001
0000
0000
0000
0000
0000
0000
0000
0020
0030
0000
0000
0000
0000
0000
0000
0200
0300
0000
0000
0000
0000
0000
0000
0020
0000
0000
0000
0000
0000
0000
0000
0000
0000
0000
0000
0000
0000
0000
0000
0032
0000
0000
0000
0000
0000
0000
0000
0200
0300
0000
0000
0000
0000
0000
0000
,
0000
0000
0000
0000
0000
0000
0000
0000
2000
3000
0000
0000
0000
0000
0000
0000
0000
0000
0000
0000
0000
0000
0000
0000
0103
0000
0000
0000
0000
0000
0000
0000
0010
0000
0000
0000
0000
0000
0000
0000
1000
0000
0000
0000
0000
0000
0000
0000
0100
0000
0000
0000
0000
0000
0000
0000
0001
0000
0000
0000
0000
0000
0000
0000
,
0200
0000
0000
0000
0000
0000
0000
0000
0020
0030
0000
0000
0000
0000
0000
0000
0300
0000
0000
0000
0000
0000
0000
0000
2200
3300
0000
0000
0000
0000
0000
0000
0000
0000
0000
0000
0000
0000
0000
0000
1000
0000
0000
0000
0000
0000
0000
0000
0200
0000
0000
0000
0000
0000
0000
0000
2000
3000
0000
0000
0000
0000
0000
0000
,
0300
0000
0000
0000
0000
0000
0000
0000
0010
0000
0000
0000
0000
0000
0000
0000
0001
0000
0000
0000
0000
0000
0000
0000
0000
0000
0000
0000
0000
0000
0000
0000
0010
0000
0000
0000
0000
0000
0000
0000
0000
0000
0000
0000
0000
0000
0000
0000
0002
0003
0000
0000
0000
0000
0000
0000
0200
0300
0000
0000
0000
0000
0000
0000
,
0002
0000
0000
0000
0000
0000
0000
0000
0020
0030
0000
0000
0000
0000
0000
0000
0000
0000
0000
0000
0000
0000
0000
0000
2003
3000
0000
0000
0000
0000
0000
0000
0000
0000
0000
0000
0000
0000
0000
0000
2002
3003
0000
0000
0000
0000
0000
0000
0000
0000
0000
0000
0000
0000
0000
0000
0202
0303
0000
0000
0000
0000
0000
0000
,
0000
0000
0000
0000
0000
0000
0000
0000
0010
0000
0000
0000
0000
0000
0000
0000
0100
0000
0000
0000
0000
0000
0000
0000
0000
0000
0000
0000
0000
0000
0000
0000
2000
3000
0000
0000
0000
0000
0000
0000
0200
0300
0000
0000
0000
0000
0000
0000
0000
0000
0000
0000
0000
0000
0000
0000
0000
0000
0000
0000
0000
0000
0000
0000
,
2000
3000
0000
0000
0000
0000
0000
0000
0002
0003
0000
0000
1000
0000
0000
0000
0100
0000
0000
0000
0000
0000
0000
0000
1000
0000
0000
0000
0000
0000
0000
0000
0002
0003
0000
0000
0000
0000
0000
0000
0010
0000
0000
0000
0000
0000
0000
0000
0100
0000
0000
0000
0000
0000
0000
0000
2000
3000
0000
0000
0000
0000
0000
0000
,
0100
0000
0000
0000
0000
0000
0000
0000
0020
0030
0000
0000
0000
0000
0000
0000
0001
0000
0000
0000
0000
0000
0000
0000
2000
3000
0000
0000
0000
0000
0000
0000
0001
0000
0000
0000
0000
0000
0000
0000
0100
0000
0000
0000
0000
0000
0000
0000
1000
0000
0000
0000
0000
0000
0000
0000
0100
0000
0000
0000
0000
0000
0000
0000
,
0020
0030
0000
0000
0000
0000
0000
0000
1000
0000
0000
0000
0000
0000
0000
0000
0010
0000
0000
0000
0000
0000
0000
0000
1000
0000
0000
0000
0000
0000
0000
0000
0002
0003
0000
0000
0000
0000
0000
0000
0100
0000
0000
0000
0000
0000
0000
0000
0001
0000
0000
0000
0000
0000
0000
0000
0100
0000
0000
0000
0000
0000
0000
0000
,
0010
0000
0000
0000
0000
0000
0000
0000
0100
0000
0000
0000
0000
0000
0000
0000
0010
0000
0000
0000
0000
0000
0000
0000
0100
0000
0000
0000
0000
0000
0000
0000
0002
0003
0000
0000
0000
0000
0000
0000
0010
0000
0000
0000
0000
0000
0000
0000
2200
3000
0000
0000
0000
0000
0000
0000
0000
0000
0000
0000
0000
0000
0000
0000
,
0302
0003
0000
0000
0000
0000
0000
0000
0100
0000
0000
0000
1000
0000
0000
0000
0002
0003
0000
0000
0000
0000
0000
0000
0020
0030
0000
0000
0000
0000
0000
0000
0001
0000
0000
0000
0000
0000
0000
0000
0100
0000
0000
0000
0000
0000
0000
0000
0002
0003
0000
0000
0000
0000
0000
0000
1000
0000
0000
0000
0000
0000
0000
0000
,
0100
0000
0000
0000
0000
0000
0000
0000
1000
0000
0000
0000
0000
0000
0000
0000
0220
0030
0000
0000
0000
0000
0000
0000
0002
0003
0000
0000
0000
0000
0000
0000
0310
0000
0000
0000
0000
0000
0000
0000
0100
0000
0000
0000
0000
0000
0000
0000
0022
0030
0000
0000
0000
0000
0000
0000
1000
0000
0000
0000
0000
0000
0000
0000
,
0203
0300
0000
0000
0000
0000
0000
0000
0020
0030
0000
0000
0000
0000
0000
0000
0001
0000
0000
0000
0000
0000
0000
0000
2000
3000
0000
0000
0000
0000
0000
0000
0100
0000
0000
0000
0000
0000
0000
0000
0001
0000
0000
0000
0000
0000
0000
0000
0100
0000
0000
0000
0000
0000
0000
0000
0010
0000
0000
0000
1000
0000
0000
0000
,
0100
1000
0010
0100
0002
0010
0010
0010
,
0023
0030
0000
0000
0000
0000
0000
0000
0200
0300
0000
0000
0000
0000
0000
0000
1000
0000
0000
0000
0000
0000
0000
0000
0001
0000
0000
0000
1000
0000
0000
0000
0002
0003
0000
0000
0000
0000
0000
0000
0020
0030
0000
0000
0000
0000
0000
0000
0100
0000
0000
0000
0000
0000
0000
0000
2000
3000
0000
0000
0000
0000
0000
0000
,
0001
0000
0000
0000
0000
0000
0000
0000
2000
3000
0000
0000
0100
0000
0000
0000
0010
0000
0000
0000
0000
0000
0000
0000
0022
0033
0000
0000
0000
0000
0000
0000
0002
0003
0000
0000
0000
0000
0000
0000
0100
0000
0000
0000
0000
0000
0000
0000
0020
0030
0000
0000
0000
0000
0000
0000
1010
0000
0000
0000
0000
0000
0000
0000
,
0200
0300
0000
0000
0000
0000
0000
0000
0010
0000
0000
0000
0000
0000
0000
0000
0200
0300
0000
0000
0000
0000
0000
0000
2000
3000
0000
0000
0000
0000
0000
0000
0010
0000
0000
0000
0000
0000
0000
0000
0001
0000
0000
0000
0000
0000
0000
0000
0020
0000
0000
0000
0000
0000
0000
0000
2000
3000
0000
0000
0000
0000
0000
0000
,
0130
0000
0000
0000
0000
0000
0000
0000
2000
3000
0000
0000
0000
0000
0000
0000
0000
0000
0000
0000
0000
0000
0000
0000
1000
0000
0000
0000
0000
0000
0000
0000
0002
0003
0000
0000
0000
0000
0000
0000
0200
0300
0000
0000
0000
0000
0000
0000
0010
0000
0000
0000
0000
0000
0000
0000
0200
0300
0000
0000
0000
0000
0000
0000
,
1000
0000
0000
0000
0000
0000
0000
0000
0200
0300
0000
0000
0000
0000
0000
0000
0001
0000
0000
0000
0000
0000
0000
0000
0010
0000
0000
0000
0000
0000
0000
0000
0100
0000
0000
0000
0000
0000
0000
0000
2000
0000
0000
0000
0000
0000
0000
0000
0010
0000
0000
0000
0000
0000
0000
0000
0200
0300
0000
0000
0000
0000
0000
0000
,
0000
0000
0000
0000
0000
0000
0000
0000
3200
0300
0000
0000
0000
0000
0000
0000
0002
0003
0000
0000
0000
0000
0000
0000
0100
0000
0000
0000
0000
0000
0000
0000
1000
0000
0000
0000
0000
0000
0000
0000
0020
0030
0000
0000
1000
0000
0000
0000
0002
0003
0000
0000
0000
0000
0000
0000
0200
0300
0000
0000
0000
0000
0000
0000
,
0010
0000
0000
0000
0000
0000
0000
0000
0002
0003
0000
0000
0000
0000
0000
0000
2000
3000
0000
0000
0000
0000
0000
0000
0100
0000
0000
0000
0000
0000
0000
0000
0001
0000
0000
0000
0000
0000
0000
0000
0020
0030
0000
0000
0000
0000
0000
0000
0200
0300
0000
0000
0000
0000
0000
0000
2000
0000
0000
0000
0000
0000
0000
0000
,
0001
0000
0000
0000
0000
0000
0000
0000
0000
0000
0000
0000
0000
0000
0000
0000
3001
0000
0000
0000
0000
0000
0000
0000
0000
0000
0000
0000
0000
0000
0000
0000
0002
0003
0000
0000
0000
0000
0000
0000
2000
3000
0000
0000
0000
0000
0000
0000
0000
0000
0000
0000
0000
0000
0000
0000
0000
0000
0000
0000
0000
0000
0000
0000
,
0001
0000
0000
0000
0000
0000
0000
0000
0010
0001
0000
0000
0000
0000
0000
0000
1000
0000
0000
0000
0000
0000
0000
0000
0010
0010
0000
0000
0000
0000
0000
0000
0100
0000
0000
0000
0000
0000
0000
0000
0001
0010
0000
0000
0000
0000
0000
0000
0100
0000
0000
0000
0000
0000
0000
0000
1000
0001
0000
0000
0000
0000
0000
0000
,
0010
0000
0000
0000
0000
0000
0000
0000
0100
1000
0000
0000
0000
0000
0000
0000
0001
0000
0000
0000
0000
0000
0000
0000
0010
0010
0000
0000
0000
0000
0000
0000
1000
0000
0000
0000
0000
0000
0000
0000
0010
0001
0000
0000
0000
0000
0000
0000
0100
0000
0000
0000
0000
0000
0000
0000
0001
0100
0000
0000
0000
0000
0000
0000
,
0020
0030
0000
0000
0000
0000
0000
0000
2000
3000
0000
0000
0000
0000
0000
0000
0100
0000
0000
0000
0000
0000
0000
0000
0002
0003
0000
0000
0000
0000
0000
0000
0100
0000
0000
0000
0000
0000
0000
0000
1000
0000
0000
0000
0000
0000
0000
0000
0010
0000
0000
0000
0000
0000
0000
0000
0100
0000
0000
0000
0000
0000
0000
0000
,
0001
0000
0000
0000
0000
0000
0000
0000
1000
0000
0000
0000
0000
0000
0000
0000
0020
0030
0000
0000
1000
0000
0000
0000
0010
0000
0000
0000
0000
0000
0000
0000
0200
0300
0000
0000
0001
0000
0000
0000
0100
0000
0000
0000
0000
0000
0000
0000
0002
0003
0000
0000
0010
0000
0000
0000
0001
0000
0000
0000
0000
0000
0000
0000
,
2200
3300
0000
0000
0000
0000
0000
0000
0002
0003
0000
0000
0000
0000
0000
0000
0010
0000
0000
0000
0000
0000
0000
0000
0202
0303
0000
0000
0000
0000
0000
0000
0010
0000
0000
0000
0000
0000
0000
0000
0100
0000
0000
0000
0000
0000
0000
0000
1000
0000
0000
0000
0000
0000
0000
0000
0010
0000
0000
0000
0000
0000
0000
0000
,
0100
0000
0000
0000
0000
0000
0000
0000
0001
0000
0000
0000
0000
0000
0000
0000
0010
0000
0000
0000
0000
0000
0000
0000
0100
0000
0000
0000
0010
0000
0000
0000
2002
0003
0000
0000
0000
0000
0000
0000
0100
0000
0000
0000
0000
0000
0000
0000
3100
0000
0000
0000
0000
0000
0000
0000
2200
3300
0000
0000
0000
0000
0000
0000
,
0010
0000
0000
0000
0000
0000
0000
0000
0202
0303
0000
0000
0000
0000
0000
0000
0010
0000
0000
0000
0000
0000
0000
0000
2000
3000
0000
0000
0000
0000
0000
0000
0001
0000
0000
0000
0000
0000
0000
0000
0200
0300
0000
0000
0000
0000
0000
0000
0002
0003
0000
0000
0000
0000
0000
0000
0020
0030
0000
0000
0000
0000
0000
0000
,
0010
0000
0000
0000
0000
0000
0000
0000
0200
0300
0000
0000
0000
0000
0000
0000
0010
0000
0000
0000
0000
0000
0000
0000
0200
0300
0000
0000
0010
0000
0000
0000
0002
0003
0000
0000
0000
0000
0000
0000
0010
0000
0000
0000
0200
0300
0000
0000
1000
0000
0000
0000
0000
0000
0000
0000
2000
3000
0000
0000
0000
0000
0000
0000
,
0020
0030
0000
0000
0000
0000
0000
0000
0100
0000
0000
0000
0000
0000
0000
0000
0002
0003
0000
0000
0000
0000
0000
0000
2000
3000
0000
0000
0010
0000
0000
0000
2000
3000
0000
0000
0000
0000
0000
0000
0100
0000
0000
0000
0000
0000
0000
0000
0020
0030
0000
0000
0001
0000
0000
0000
0200
0300
0000
0000
0000
0000
0000
0000
,
1000
0000
0000
0000
0000
0000
0000
0000
0202
0303
0000
0000
0000
0000
0000
0000
1000
0000
0000
0000
0000
0000
0000
0000
0010
0000
0000
0000
1000
0000
0000
0000
0002
0003
0000
0000
0000
0000
0000
0000
0020
0030
0000
0000
0000
0000
0000
0000
0100
0000
0000
0000
0000
0000
0000
0000
0020
0030
0000
0000
0000
0000
0000
0000
,
0000
0000
0000
0000
0000
0000
0000
0000
2002
3000
0000
0000
0000
0000
0000
0000
0010
0000
0000
0000
0000
0000
0000
0000
0000
0000
0000
0000
0000
0000
0000
0000
1003
0000
0000
0000
0000
0000
0000
0000
0200
0300
0000
0000
0000
0000
0000
0000
0010
0000
0000
0000
0000
0000
0000
0000
0002
0003
0000
0000
0000
0000
0000
0000
,
0000
0000
0000
0000
0000
0000
0000
0000
0202
0003
0000
0000
0000
0000
0000
0000
2000
3000
0000
0000
0000
0000
0000
0000
0000
0000
0000
0000
0000
0000
0000
0000
0301
0000
0000
0000
0000
0000
0000
0000
0200
0300
0000
0000
0000
0000
0000
0000
0020
0030
0000
0000
0000
0000
0000
0000
2000
3000
0000
0000
0000
0000
0000
0000
,
0000
0000
0000
0000
0000
0000
0000
0000
2200
0300
0000
0000
0000
0000
0000
0000
0001
0000
0000
0000
0000
0000
0000
0000
0000
0000
0000
0000
0000
0000
0000
0000
3010
0000
0000
0000
0000
0000
0000
0000
0200
0300
0000
0000
0000
0000
0000
0000
0010
0000
0000
0000
0000
0000
0000
0000
0002
0003
0000
0000
0000
0000
0000
0000
,
0010
0000
0000
0000
0000
0000
0000
0000
2000
3000
0000
0000
0000
0000
0000
0000
0010
0000
0000
0000
0000
0000
0000
0000
0200
0300
0000
0000
0000
0000
0000
0000
0001
0000
0000
0000
0000
0000
0000
0000
0010
0000
0000
0000
0000
0000
0000
0000
0200
0300
0000
0000
0000
0000
0000
0000
2000
3000
0000
0000
0001
0000
0000
0000
,
0100
0000
0001
0010
0100
0000
1000
0000
0010
0000
0001
0000
0010
0000
1000
0000
,
0100
0001
0100
1000
0010
0001
0010
1000
,
0100
0000
0000
0000
0000
0000
0000
0000
0010
0000
0000
0000
0000
0000
0000
0000
0001
0000
0000
0000
0000
0000
0000
0000
0100
0000
0000
0000
0000
0000
0000
0000
0020
0030
0000
0000
0000
0000
0000
0000
2000
3000
0000
0000
0000
0000
0000
0000
0002
0003
0000
0000
0000
0000
0000
0000
0020
0030
0000
0000
0000
0000
0000
0000
,
0100
0000
0000
0000
0000
0000
0000
0000
2000
3000
0000
0000
0000
0000
0000
0000
0001
0000
0000
0000
0000
0000
0000
0000
0010
0000
0000
0000
0000
0000
0000
0000
0100
0000
0000
0000
0000
0000
0000
0000
0000
0000
0000
0000
0001
0000
0000
0000
0010
0000
0000
0000
0000
0000
0000
0000
0001
0000
0000
0000
0000
0000
0000
0000
,
0100
0010
1000
0001
0100
0010
1000
0100
,
0010
0001
1000
0010
0001
1000
0100
0001
,
0010
1000
0010
0001
0000
0000
0010
0001
,
0010
0100
2002
0000
0000
3003
0000
0000
;

//---------------dance-single - ----------------
#NOTES:
     dance-single:
     :
     Medium:
     5:
     0.304,0.305,0.065,0.138,0.000:
0000
0000
0000
0000
,
0100
0010
1000
0001
,
0010
0100
0010
0000
,
0001
0100
0001
1000
,
0100
0010
0100
0000
,
1000
0010
0100
0001
,
0010
0100
1000
0000
,
0010
0100
0001
1000
,
0100
1000
0001
0000
,
0100
0010
0000
1000
,
0001
1000
0000
0200
,
0300
0010
0000
0100
,
0011
0000
1100
0000
0001
1000
0001
0000
,
0100
0010
0000
1000
,
0001
0010
0100
1000
,
0010
0000
0000
0100
0000
0010
0000
0100
,
0000
0101
0000
1010
0000
1000
0001
0000
,
0010
0100
0000
0000
0000
0001
0000
1000
,
0000
0100
0000
0000
0000
0000
0010
0000
,
0100
0000
1000
0000
0001
0000
0100
0010
,
0000
0010
0000
0000
2002
0000
3003
0000
,
0001
0000
0000
1000
0000
0000
0010
0100
,
0010
0000
0100
0000
0000
0000
0001
1000
,
0001
0010
0100
1000
,
1001
0000
0000
0000
0001
0100
0000
0000
,
1000
0200
0000
0000
0001
0000
0000
1000
,
0000
0010
0000
0010
0300
0000
0000
0000
,
0002
0000
2000
0000
,
3003
0000
0010
0100
,
0010
0000
0010
0100
0000
0000
0100
0000
,
0001
0010
0100
1000
,
0100
0010
0000
0010
0000
0000
0001
0000
,
1000
0000
0010
0100
0020
0000
0000
0000
,
0130
0002
0000
0000
1003
0200
0000
0010
,
0300
0010
0000
0100
2000
0000
3020
0000
,
0230
0000
0301
0000
0001
0000
0000
0010
,
0000
0010
0000
0000
0100
0100
0000
1000
,
0000
1000
0000
0000
0000
0010
0000
0010
,
0000
0100
0001
0000
0000
0010
0000
0010
,
0000
0100
1000
0000
0000
0010
0000
0100
,
0000
0010
0000
0000
1000
0001
0000
0000
,
1000
1000
0001
0001
0010
0010
0100
0100
,
1000
1000
0010
0010
0100
0100
0001
0001
,
0010
0100
1000
0010
,
0000
0100
0001
0100
,
0010
1000
0001
0000
,
0010
0000
0100
0000
0010
0100
0100
0000
,
1000
0001
0100
0010
,
1000
0001
0020
0032
,
0203
0310
1000
0001
,
0010
0000
0100
0000
1000
0100
0000
0100
,
0000
0100
0000
0000
0000
0001
0000
0010
,
0000
0010
0001
0000
0000
0100
0001
0100
,
0000
0000
0101
0000
0000
1000
0010
1000
,
0000
0000
0010
0000
1000
0000
0010
1000
,
0010
0100
0001
0010
,
0100
1000
0100
0010
,
0001
1000
0001
0000
0100
0010
0100
0000
,
0001
0010
0100
0000
1000
0000
0010
0000
,
0100
0100
0010
0010
,
0001
0001
0010
1000
,
0100
0010
0000
0001
,
1000
0000
2002
0000
0000
3003
0000
0000
;

//---------------dance-single - LIFTS----------------
#NOTES:
     dance-single:
     LIFTS:
     Edit:
     7:
     0.363,0.382,0.276,0.244,0.000:
0000
0000
0000
0000
,
2000
0000
0000
0000
,
0000
0000
0000
0000
0000
0000
3002
0010
,
0000
0000
0000
0000
,
0003
0000
0000
0000
,
0000
0000
0200
0000
0000
0320
0000
2030
,
0000
0000
0000
3200
0010
2300
0001
0000
,
0000
0000
3020
0000
0000
0032
0000
0203
,
0000
0320
1000
0030
0200
0001
0300
0000
,
0110
0001
0000
0101
,
1000
L010
0000
1001
,
L00L
0010
0000
0010
,
0LL0
0100
0020
000L
,
0130
L000
0000
1100
,
0001
0000
000L
0100
0000
0000
0LL0
0000
,
0010
0000
0000
1000
0000
0001
0000
1000
,
0000
L000
0000
0L00
0000
00L1
1000
0001
,
1000
L000
1000
0000
0000
0001
000L
0001
,
000L
0001
0000
0000
0000
0000
0100
0L00
,
0100
0000
0010
0000
0000
0000
1000
L000
,
1000
0000
0001
0010
00L0
0L10
0000
00L0
,
0001
000L
0001
0000
0000
0100
0L00
0100
,
0L00
0100
0000
0000
0000
0000
0010
00L0
,
0010
00L0
0010
00L0
0000
0000
1000
L000
,
1000
L000
1000
0000
0001
2000
0000
0000
,
3100
0020
0000
0000
0032
0000
0000
0203
,
0000
0302
0000
2003
0000
3000
0000
0000
,
0200
0000
L000
0000
,
0000
0000
0320
0032
,
2003
0000
3020
0100
0000
0000
003L
0000
,
00L0
0000
0200
0001
0000
0000
0320
0000
,
2030
0100
0000
000L
0000
00L0
0000
0L00
,
0000
0010
30L0
0000
0100
0010
0010
0010
,
0001
010L
0001
010L
,
0010
0000
10L0
0000
0L10
0000
0001
0010
,
0100
L100
0010
00L0
,
000L
0000
0L00
0000
10L0
0001
1000
0100
,
0000
0200
0000
0000
0000
1000
0000
L000
,
0000
1300
0002
0000
0000
0010
00L0
0010
,
0000
0000
00L3
0000
0000
0100
0010
0100
,
0000
0010
0000
0000
0001
1000
0000
0000
,
L000
000L
00L0
0L00
000L
00L0
0L00
L000
,
000L
0L00
L000
00L0
0L00
000L
L000
0L00
,
0010
0001
0100
0010
,
1000
0100
1000
0010
,
0100
0001
1000
0100
,
0010
0000
0001
0000
1000
0100
0100
0100
,
0010
00L1
0L10
1000
,
010L
0010
L100
0010
,
100L
0000
0001
1000
0001
0000
0100
0001
,
0000
0L0L
0000
0010
00L0
L010
0000
00L0
,
0000
00L0
0000
0000
0000
0100
0000
0L00
,
0000
0100
0L00
0000
0000
0001
1000
0001
,
0000
0000
L00L
0000
0000
1000
0001
1000
,
0000
0100
0000
0010
0000
0000
0001
0010
,
0100
1000
0001
0100
,
0010
1000
0001
0010
,
0100
0000
0010
0000
0001
0000
L100
0010
,
0000
0001
0000
1000
0000
0010
0000
0100
,
0000
010L
0000
01L0
0000
0000
0100
0000
,
L100
01L0
0100
010L
,
L100
0000
01L0
0010
0000
0000
0010
0000
,
L010
0000
002L
0000
0000
0030
0000
0000
;

//---------------dance-single - ----------------
#NOTES:
     dance-single:
     :
     Easy:
     4:
     0.232,0.228,0.016,0.033,0.000:
0000
0000
0000
0000
,
0000
1000
0000
0001
,
0000
0100
0000
0010
,
0000
1000
0000
0100
,
0000
0010
0000
0001
,
0001
0000
0100
0000
,
0010
0000
1000
0001
,
0000
1000
0000
0100
,
0010
0010
0100
0000
,
1000
1000
0000
0001
,
0001
0001
0000
0100
,
0000
0010
0000
1000
,
0001
1000
0002
0003
,
0010
0010
0000
0100
,
1000
0100
0000
1000
,
1000
0000
0010
0100
,
0001
1000
0100
0010
,
0100
0100
0000
0010
,
0010
0010
0000
0001
,
1000
0010
0100
0001
,
1000
0100
0020
0030
,
0100
0100
0000
1000
,
1000
1000
0000
0010
,
0100
0100
0001
0001
,
0010
0100
1000
0000
,
0001
0100
1000
0100
,
0001
0100
1000
0100
,
0002
0000
0200
0000
,
0303
0000
1000
0010
,
0100
0001
0010
0100
,
1000
0000
0100
0000
,
0010
0100
1000
0000
,
0001
1000
0001
0000
,
1000
0010
0001
0010
,
1000
0010
0001
0010
,
0100
0010
0001
0010
,
0100
0010
0001
0010
,
1000
0000
0000
0000
,
0010
0000
0000
0000
,
0100
0000
0000
0000
,
0001
1000
1001
0000
,
0010
0100
0001
1000
,
0100
0010
0100
0001
,
1000
0100
0010
0100
,
1000
0010
0001
0010
,
1000
0100
0010
0100
,
1000
0010
0001
0010
,
0100
0001
0010
0100
,
1000
0010
0100
0001
,
0010
1000
0001
1000
,
0100
0001
0100
1000
,
0001
1000
0000
0010
,
0100
0010
0000
1000
,
0001
1000
0000
0100
,
0010
0100
0010
0001
,
1000
1000
0001
0001
,
0100
0100
0010
0010
,
1000
0100
0010
0010
,
0100
1000
0001
0100
,
0010
0010
0000
1000
,
1000
1000
0000
0001
,
0001
0001
0000
0010
,
0010
1001
0000
0000
;

//---------------dance-single - ----------------
#NOTES:
     dance-single:
     :
     Beginner:
     1:
     0.089,0.177,0.146,0.008,0.000:
0000
0000
0000
0000
,
0000
0000
0000
0000
,
0000
0000
0000
0000
,
0000
0000
0000
0000
,
0000
0000
0000
0000
,
0000
0100
0000
0000
,
0000
0000
0000
0000
,
0000
0010
0000
0000
,
0000
0000
0000
0000
,
1001
0000
0000
0000
,
0000
0000
0000
0000
,
0100
0000
0000
0000
,
0010
0000
0000
0000
,
1001
0000
0000
0000
,
0000
0000
0000
0000
,
0010
0000
0000
0000
,
0100
0000
0000
0000
,
0001
0001
0000
0000
,
0000
0000
0000
1000
,
1000
0000
0000
0000
,
0100
0000
0000
0000
,
0010
0010
0000
0000
,
0000
0000
0000
0100
,
0100
0000
0000
0000
,
1000
0000
0000
0000
,
1001
0000
0100
0000
,
0000
0000
0000
0000
,
1001
0000
0100
0000
,
0000
0000
0000
0000
,
1000
0000
0000
0000
,
0100
0000
0000
0000
,
1001
0000
0100
0000
,
0000
0000
0000
0000
,
0001
0000
0000
0000
,
1000
0000
0000
0000
,
0010
0010
0000
0000
,
0110
0000
0000
0000
,
0100
0000
0000
0000
,
0100
0000
0000
0000
,
1001
0000
0000
0000
,
1001
0000
0000
0000
,
0200
0000
0000
0000
,
0000
0000
0000
0000
,
0300
0000
0000
0000
,
0010
0000
0000
0000
,
1000
0000
0000
0000
,
0001
0000
0000
0000
,
1001
0000
0100
0000
,
0000
0000
0010
0000
,
0110
0000
0001
0000
,
0000
0000
0100
0000
,
0110
0000
0000
0000
,
1001
0000
0000
0000
,
0110
0000
0000
0000
,
1001
0000
1001
0000
,
1001
0000
0000
0000
,
0010
0000
0000
0000
,
0100
0000
0000
0000
,
0010
0000
0000
0000
,
1000
0000
0000
0000
,
0001
0000
0000
0000
,
0000
1001
0000
0000
,
0000
0110
0000
0000
;

//---------------dance-double - ----------------
#NOTES:
     dance-double:
     :
     Challenge:
     6:
     0.403,0.379,0.195,0.057,0.000: // measure 1
00000000
00000000
00000000
00000000
,  // measure 2
00010000
01000000
00100000
10000000
,  // measure 3
01000000
00100000
00001000
00010000
,  // measure 4
00000100
00000010
00000001
00001000
,  // measure 5
00000010
00000000
00010000
00000000
00000100
00000010
00000001
00000010
,  // measure 6
00000100
00001000
00000010
00000100
,  // measure 7
00000001
00000100
00010000
00001000
,  // measure 8
00100000
10000000
00010000
00100000
,  // measure 9
01000000
10000000
00100000
00000000
01000000
00010000
00000000
00010000
,  // measure 10
00100000
00001000
00100000
00010000
00100000
00000000
00100000
01000000
,  // measure 11
00000000
01000000
00000000
00000000
10000000
00100000
01000000
00000000
,  // measure 12
00010000
00100000
00001000
00000000
00000000
00000000
00010000
00000100
,  // measure 13
00000000
00001100
00000000
00000000
00000001
00000010
00000000
00000001
,  // measure 14
00000100
00000000
00000100
00000010
00000000
00001010
00000000
00010000
,  // measure 15
00000000
00011000
00000000
00100000
00000000
00101000
00000000
00010000
,  // measure 16
00000100
00000010
00000000
00000100
00000000
00001000
00000000
00000001
,  // measure 17
00000000
00000101
00000000
00001010
00000000
00000001
00000010
00000100
,  // measure 18
00001000
00000010
00001000
00000000
00000000
00000100
00010000
00000100
,  // measure 19
00010000
00001000
00000000
00000000
00000000
00000000
01000000
00010000
,  // measure 20
01000000
00000000
00100000
10000000
01000000
00000000
00100000
00000000
,  // measure 21
01000000
00000000
10000000
00000000
00010000
01000000
00000000
00010000
,  // measure 22
01000000
00100000
01000000
00000000
00000000
10000000
01000000
10000000
,  // measure 23
01000000
00010000
00100000
00000000
00000000
01000000
00100000
00010000
,  // measure 24
01000000
00001000
00000000
00011000
00000000
00000010
00000000
00001010
,  // measure 25
00000000
00001000
00010000
00000000
00100000
01000000
00000000
00000000
,  // measure 26
10000000
00200000
00000000
00000000
00001000
00000000
00000000
01000000
,  // measure 27
00000000
10000000
00000000
01300000
00000000
00010000
00100000
01000000
,  // measure 28
00200000
00000000
00302000
00000000
,  // measure 29
00023000
00000000
00030020
00000100
,  // measure 30
00002030
00000000
00003001
00000020
00000000
00000000
00000100
00000000
,  // measure 31
00000000
00000000
00001000
00001000
00000000
00000000
00000031
00000000
,  // measure 32
00000100
00010000
00000000
00011000
00000000
00100000
00000000
01100000
,  // measure 33
00000000
00010000
00100000
00000000
10000000
01000000
00100000
00010000
,  // measure 34
10000000
10000000
00000000
00000000
00010000
00010000
00000000
10010000
,  // measure 35
00000000
01100000
00000000
01000000
00001000
00000000
00011000
00000000
,  // measure 36
00001100
00000000
00000010
00000001
00000010
00000000
00000100
00001000
,  // measure 37
00000000
00001100
00000000
00010000
00001000
00010000
00000000
00110000
,  // measure 38
00000000
11000000
00000000
00100000
00000000
01000000
00010000
01000000
,  // measure 39
00000000
00100000
01000000
00000000
00010000
10000000
01000000
00100000
,  // measure 40
00000000
00001000
00010000
00000000
00001000
00000100
00000010
00000001
,  // measure 41
00000000
00000100
00000000
00000010
00001000
00000001
00000000
00001000
,  // measure 42
00000001
00000100
00000010
00001000
00000100
00010000
00100000
00001000
,  // measure 43
10000000
01000000
00001000
00010000
01000000
00001000
00000010
00000100
,  // measure 44
00000001
00000010
00000000
00001100
00000000
00000001
00000000
00000100
,  // measure 45
00000000
00000010
00001000
00000100
00001000
00000010
00000100
00000001
,  // measure 46
00000010
00000100
00000000
00001100
00000000
00011000
00000000
00110000
,  // measure 47
00000000
00100000
01000000
00000000
10000000
00100000
01000000
00001000
,  // measure 48
00010000
01000000
00010000
00001000
00000010
00000100
00001000
00000001
,  // measure 49
00000000
00000100
00000000
00001000
00010000
00001000
00000100
00000010
,  // measure 50
00010000
00001000
01000000
00010000
01000000
10000000
01000000
00100000
,  // measure 51
00000000
10000000
00000000
00010000
10000000
00010000
00000000
00100000
,  // measure 52
00000000
01000000
00000000
00000000
00000000
00001000
00000000
00010000
,  // measure 53
00000000
00001000
00000010
00000000
00000100
00001000
00000001
00000010
,  // measure 54
00000000
00000100
00010000
00000000
00000100
00001000
00000010
00000100
,  // measure 55
00000000
00000101
00000000
00001010
00000000
00000000
00001000
00000000
,  // measure 56
00000010
00010000
00001000
00100000
,  // measure 57
00010000
01000000
00100000
10000000
,  // measure 58
01000000
00000000
00100000
00000000
00010000
10000000
01000000
00100000
,  // measure 59
00000000
00010000
00000000
01000000
00000000
00001000
00010000
00000100
,  // measure 60
00000010
00000100
00001000
00000001
00000000
00000100
00000001
00000100
,  // measure 61
00001000
00000000
00001000
00000100
00000010
00010000
00001000
00010000
,  // measure 62
01000000
10000000
01000000
00000000
01000000
00100000
00010000
00100000
,  // measure 63
01000000
01100000
00000000
00000000
;
