#TITLE:ワールズエンド・ダンスホール;
#SUBTITLE:;
#ARTIST:wowaka feat. 初音ミク・巡音ルカ;
#TITLETRANSLIT:World's End Dancehall;
#SUBTITLETRANSLIT:;
#ARTISTTRANSLIT:wowaka feat. Hatsune Miku & Megurine Luka;
#GENRE:;
#CREDIT:Azn_Punk_07/GuardianFrozen;
#MENUCOLOR:#7f7f7f;
#BANNER:World's End Dancehall-bn.png;
#BACKGROUND:World's End Dancehall-bg.png;
#LYRICSPATH:World's End Dancehall.lrc;
#CDTITLE:!cdtitle.png;
#MUSIC:World's End Dancehall.mp3;
#OFFSET:-1.094;
#SAMPLESTART:61.340;
#SAMPLELENGTH:15.000;
#SELECTABLE:YES;
#LISTSORT:;
#BPMS:0.000=170.940;
#STOPS:;
#TICKCOUNT:0.000=2;
#BGCHANGES:0.000=World's End Dancehall.avi=1.200=1=0=1,
1.750=World's End Dancehall.avi=1.000=0=0=1,
138.000=World's End Dancehall.avi=1.400=0=0=1,
140.250=World's End Dancehall.avi=1.000=0=0=1,
99999=-nosongbg-=1.000=0=0=0 // don't automatically add -songbackground-
;
#KEYSOUNDS:;
#ATTACKS:;

//---------------dance-single - ----------------
#NOTES:
     dance-single:
     :
     Hard:
     8:
     0.580,0.590,0.117,0.361,0.000:
0000
0000
0000
0000
,
0000
0000
0000
0000
,
0000
0000
0000
0000
,
1000
0000
0001
0100
0000
1000
0100
0000
,
0001
0000
1000
0010
0000
0001
0010
0000
,
0100
0000
0010
0001
0000
0010
1000
0000
,
0010
0000
0100
1000
0000
0010
0001
0000
,
1000
0000
0100
0010
0000
0100
1000
0000
,
0001
0000
0100
0010
0000
0100
0001
0000
,
0010
0000
0100
1000
0000
0001
1000
0000
,
0010
0000
0100
0001
0000
1000
0001
0000
,
0010
0001
0000
0100
0000
0001
0010
0000
,
0100
1000
0000
0010
0000
1000
0100
0000
,
0010
0001
0000
1000
0000
0001
0100
0000
,
0010
1000
0000
0001
0000
1000
0100
0000
,
1000
0000
0001
0100
0000
0100
0001
1000
,
0100
0000
0100
1000
0000
1000
0010
0001
,
0010
0000
0010
0100
0000
0100
0001
0010
,
0100
0000
0100
1000
0000
1000
0001
0000
,
2000
0000
0000
0010
0000
0000
3001
0100
,
0002
0000
0000
0010
0000
0000
1003
0000
,
0001
0000
0000
0011
0000
0000
0100
1000
,
0100
1000
0010
0000
,
0200
0000
0000
0001
0000
0000
0310
1000
,
0001
0000
0001
1000
0000
0000
0001
0010
,
0001
0000
0000
0100
0000
0000
0010
1000
,
0020
0230
0302
2003
,
3100
0010
0100
0000
1000
0000
0001
1000
,
0001
0000
0000
1100
0000
0000
0010
1000
,
0100
0000
0010
0000
0001
0000
1000
0010
,
0002
0023
2030
3200
,
0310
0001
0010
0000
0100
0000
1000
0000
,
0001
0000
0000
0100
0000
0000
0010
0000
,
1000
0100
1000
0000
0001
0000
0010
0000
,
2000
3020
0032
0203
,
0310
1000
0010
1000
0001
0100
0001
0100
,
1000
0100
0010
1000
0001
1000
0100
0001
,
1000
0010
0001
1000
0010
0001
0010
1000
,
0002
0023
0230
2300
,
3001
0100
0001
0100
0010
0010
0010
0000
,
1000
0010
1000
0010
0100
0100
0100
0000
,
0010
0000
0001
1000
0001
0000
1000
0000
,
0100
0010
0100
0010
0010
0000
0000
0000
,
1001
0000
0001
0010
0100
0000
0100
0010
,
0001
1000
0001
1000
0002
0000
0100
0000
,
1003
0000
1000
0100
0001
0000
0001
0100
,
0010
0100
1000
0001
0200
0000
1300
0000
,
1010
0000
0010
1000
0100
0000
0100
1000
,
0001
0001
0100
0001
0200
0000
1000
0000
,
0310
0000
0000
0010
1000
0000
0000
1000
,
0100
0000
0010
0001
0020
0000
0130
0000
,
1001
0000
1000
0100
0010
0000
0010
0100
,
1000
0001
1000
0001
2000
0000
0010
0000
,
3001
0000
0001
0010
1000
0000
1000
0010
,
0100
1000
0001
0010
0200
0000
1300
0000
,
0101
0000
0100
0001
0010
0010
0100
0100
,
1000
0001
1000
1000
0020
0000
0001
0000
,
0130
0000
0000
0100
0001
0000
0000
0001
,
0010
0000
0100
1000
0200
0000
0310
0000
,
0011
0000
1000
0001
0100
0000
0001
1000
,
0100
1000
0010
0001
0020
0000
0100
0000
,
1030
0000
0001
2000
0100
3000
0010
2000
,
0001
3001
0001
0100
0002
0000
0013
0000
,
0100
0000
1000
1000
0001
0000
0001
0001
,
0100
0001
0100
0001
0020
0000
0100
0000
,
0031
0000
1000
1000
0002
0000
0103
0100
,
0002
0100
0103
0010
2000
0000
3100
0000
,
1100
0000
0001
1000
0010
0000
1000
0001
,
0010
0001
0100
1000
0200
0000
0010
0000
,
0301
0000
1000
0002
0010
0013
0001
2000
,
0002
3000
0203
0010
0010
0000
1300
0000
,
0010
1010
0100
0101
,
0010
1000
0010
1000
0200
0000
0010
0000
,
1300
0000
0100
0001
0110
0000
0010
1000
,
0110
0000
0100
0010
2002
0000
3003
0000
,
1000
0000
0001
0100
0000
0010
1000
0000
,
0001
0000
1000
0100
0000
0010
0001
0000
,
1000
0000
0001
0100
0000
1000
0100
0010
,
1000
0000
1000
0100
0000
0010
0001
0000
,
0110
0000
0001
0100
0000
1000
0010
0000
,
1000
0000
0010
0001
0000
0100
1000
0000
,
0010
0000
0100
0001
0000
0001
0010
1000
,
0010
0000
0100
1000
0000
0001
0100
0000
;

//---------------dance-single - ----------------
#NOTES:
     dance-single:
     :
     Challenge:
     9:
     0.770,0.972,1.000,0.235,0.197:
0000
0000
0000
0000
,
0000
0000
0000
0000
,
0000
0000
0000
0000
,
1010
0000
1000
0100
0000
0010
0100
0000
,
0011
0000
0001
0100
0000
0010
0100
0000
,
0101
0000
0001
1000
0000
1000
0100
0000
,
1100
0000
1000
0001
0000
0001
0100
0000
,
1010
0000
1000
0100
0000
1000
0010
0100
,
0001
0000
0001
0010
0000
0001
0100
0000
,
0011
0000
0001
1000
0000
1000
0001
0010
,
1000
0000
0100
1000
0000
0010
0001
0000
,
0110
0000
0000
1000
0000
0000
0001
0000
0000
0000
0100
0000
0010
0000
1000
0000
,
0100
0000
0000
0010
0000
0000
0001
0000
0000
0000
0100
0000
0001
0000
0010
0000
,
1000
0000
0000
0010
0000
0000
0001
0000
0000
0000
0100
0000
1000
0000
0100
0000
,
0010
0000
0000
1000
0000
0000
0001
0000
0000
0000
0010
0000
1000
0000
0010
0000
,
1100
0000
0000
0101
0000
0000
1001
0000
0000
0000
0010
0000
0100
0000
0001
0000
,
1010
0000
0000
0011
0000
0000
1001
0000
0000
0000
0010
0000
0100
0000
1000
0000
,
0110
0000
0000
0101
0000
0000
1100
0000
0000
0000
1000
0000
0001
0000
0100
0000
,
1010
0000
0000
0011
0000
0000
1001
0000
0000
0000
0010
0000
0200
0000
0000
0000
,
0301
0000
0000
0001
0000
0000
0011
0000
0000
0000
0100
0000
1000
0000
0100
0000
,
1000
0000
0000
1000
0000
0000
2010
0000
0000
0000
3000
0000
0102
0000
0000
0000
,
0013
0000
0000
0010
0000
0000
0110
0000
0000
0000
1000
0000
0100
0000
0001
0000
,
0100
0000
0000
0100
0000
0000
0220
0000
0000
0000
0000
0000
0330
0000
0000
0000
,
0101
0000
0000
0001
0000
0000
0011
0000
0000
0000
0100
0000
0010
0000
0100
0000
,
1010
0000
0000
1000
0000
0000
1100
0000
0000
0000
0010
0000
0001
0000
0000
0000
,
1010
0000
0000
1000
0000
0000
0101
0000
0000
0000
0001
0000
1000
0000
0001
0000
,
2100
3002
0010
1003
,
1100
0000
0000
1000
0000
0000
0101
0000
0000
0000
0010
0000
1000
0000
0010
0000
,
0100
0000
0000
0101
0000
0000
0110
0000
0000
0000
1000
0000
0100
0000
0000
0000
,
0011
0000
0000
0100
0000
0000
1100
0000
0000
0000
1000
0000
0001
0000
1000
0000
,
0012
2003
0010
3001
,
1001
0000
0000
0010
0000
0000
0100
0000
0000
0000
1000
0000
0010
0000
0001
0000
,
0110
0000
0000
1000
0000
0000
0001
0000
0000
0000
0010
0000
0100
0000
0000
0000
,
1100
0000
0000
0010
0000
0000
0101
0000
0000
0000
0001
0000
1000
0000
0001
0000
,
2000
3200
0302
0023
,
1030
0000
1000
0000
0010
1000
0010
1000
0100
0000
0100
0000
0010
0001
0010
0001
,
1000
0100
1000
0100
0010
0001
0010
0000
0001
0100
0001
0000
1000
0010
1000
0000
,
0001
0010
1000
0010
0001
0000
1000
0100
0001
0100
1000
0000
0001
1000
0001
0000
,
2002
3003
0220
0330
2002
3003
0220
0330
,
0001
0000
0001
0000
0010
0100
0010
0100
1000
0000
0001
0000
1010
0000
0000
0000
,
1000
0001
1000
0001
0010
0000
0100
0000
0100
0000
0011
0000
1001
0000
0000
0000
,
1001
0000
0010
0100
1001
0010
0100
0010
,
1001
1001
0010
0100
0220
0000
0330
0000
,
1100
0000
0101
1000
0100
0000
0101
0010
,
0100
1000
0010
0100
0001
0000
0012
0000
,
1003
0000
0101
1000
0100
0000
0101
0010
,
0100
0001
0010
1000
0011
0000
1100
0000
,
1001
0000
0001
0100
1001
0000
0100
0100
,
1001
0100
0010
0100
1001
0000
0010
0000
,
1010
0000
1000
0100
0010
0000
0001
0100
,
0010
1000
0100
1000
1010
0000
0101
0000
,
1100
0000
0101
0010
1000
1001
0001
0010
,
0100
1100
0100
1000
0110
0000
0011
0000
,
0101
0000
0001
1000
1100
0000
1000
0001
,
0101
0010
0100
0010
1001
0000
0110
0000
,
0011
0000
0001
0100
0101
0001
1000
0100
,
0001
0001
1100
0010
1001
0000
0101
0000
,
1010
0000
0010
1000
0100
0000
0010
0001
,
0100
0100
0010
0010
1010
0000
0101
0000
,
0011
0000
1010
0001
0010
0000
1010
0100
,
0010
0001
0100
0010
1000
0000
2100
0000
,
3001
0000
1010
0001
0010
0000
1010
0100
,
0010
1000
0100
0001
1100
0000
0011
0000
,
1001
0000
1000
0010
1001
0000
0010
0010
,
1001
0010
0100
0010
1001
0000
0100
0000
,
0101
0000
0001
0010
0100
0000
1000
0010
,
0100
0001
0010
0001
0101
0000
1010
0000
,
1100
0000
0010
0010
0011
0000
0100
0100
,
1100
0001
0100
0001
1010
0000
0101
0000
,
1100
0000
0010
0001
0101
0000
0010
1000
,
1100
0001
1000
0001
0110
0000
1001
0000
,
0001
0101
1000
1100
,
0001
1000
0100
1000
0010
0000
0110
0000
,
1001
0000
0010
0100
2000
0000
3010
0001
,
0200
0000
1300
0100
0002
0000
0000
0000
,
1003
0000
0000
1000
0000
0000
1001
0000
0000
0000
0001
0000
0101
0000
0000
0000
,
0010
0000
0000
0010
0000
0000
0110
0000
0000
0000
1000
0000
1100
0000
0000
0000
,
0001
0000
0000
0001
0000
0000
0011
0000
0000
0000
0100
0000
1000
0000
0001
0000
,
0100
0000
0000
0100
0000
0000
1100
0000
0000
0000
0010
0000
1001
0000
0000
0000
,
1100
0000
0000
1010
0000
0000
1001
0000
0000
0000
0001
0000
1000
0000
0100
0000
,
0011
0000
0000
0101
0000
0000
1001
0000
0000
0000
1000
0000
0010
0000
0100
0000
,
1010
0000
0000
0011
0000
0000
1001
0000
0000
0000
0100
0000
1001
0000
0010
0000
,
0101
0000
0000
1100
0000
0000
1001
0000
0000
0000
0010
0000
0110
0000
0000
0000
;

//---------------dance-single - ----------------
#NOTES:
     dance-single:
     :
     Medium:
     7:
     0.508,0.590,0.101,0.704,0.000:
0000
0000
0000
0000
,
0000
0000
0000
0000
,
0000
0000
0000
0000
,
0010
0000
0000
0010
0000
0000
0010
0000
,
0100
0000
0000
0100
0000
0000
0100
0000
,
0001
0000
0000
0001
0000
0000
0001
0000
,
1000
0000
0000
1000
0000
0000
1000
0000
,
0200
0000
0000
0010
0000
0000
1300
0000
,
0002
0000
0000
1000
0000
0000
0103
0000
,
0020
0000
0000
0100
0000
0000
0031
0000
,
2000
0000
0000
0001
0000
0000
3010
0000
,
0002
0200
0000
0300
0003
0100
0001
0000
,
0020
0200
0000
0300
0030
0100
0010
0000
,
2000
0020
0000
0030
3000
0010
1000
0000
,
0002
2000
0000
3000
0003
1000
0001
0000
,
0200
2000
0000
3000
0300
1000
0100
0000
,
2000
0002
0000
0003
3000
0001
1000
0000
,
0020
0002
0000
0003
0030
0001
0010
0000
,
0200
0020
0000
0030
0300
0010
0100
0000
,
2000
0000
3001
0000
,
0001
0100
1000
0100
,
0002
0000
1003
0000
,
1000
0100
1001
0000
,
0020
0000
0130
0000
,
0010
0001
0100
0010
,
1000
0000
0100
0000
,
0010
0010
0100
0100
,
1000
0001
1000
0000
0020
0000
0230
0000
,
0301
1000
0001
0000
0020
0000
0230
0000
,
1300
0001
1000
0000
0020
0000
0230
0000
,
0301
0001
1000
1000
,
0200
0000
0310
0000
,
0100
1000
0001
0100
,
0020
0000
0130
0000
,
0001
0010
0100
1000
,
0001
0100
0001
0000
1000
0100
1000
0000
,
0001
0010
0001
0000
1000
0010
1000
0000
,
0001
0100
0001
0100
0010
1000
0010
1000
,
0002
2003
3002
2003
,
3100
0000
0100
0000
0100
0100
0100
0000
,
0010
0000
0010
0000
0010
0010
0010
0000
,
0002
0003
2000
3000
,
0001
1000
0001
1000
0001
0000
0000
0000
,
1100
0000
0000
1000
0100
0000
1000
0010
,
2000
3020
0032
0013
,
0110
0000
0000
0100
0010
0000
0000
0100
,
0010
1000
0001
1001
,
0101
0000
0000
0001
0100
0000
0001
0010
,
0002
0023
2030
3010
,
0110
0000
0000
0100
0010
0000
0000
0100
,
0010
0001
1000
1001
,
0120
0000
1000
0000
0130
0000
0001
1000
,
0001
0001
0010
0100
,
0010
0000
0000
0010
0100
0000
0000
0010
,
0100
0000
1000
0001
1000
0000
0010
0000
,
0100
0101
0000
1100
,
0010
0001
1000
0000
0010
0000
1000
0000
,
0001
0000
0000
1000
0100
0000
0000
0001
,
0100
0100
0020
0030
,
1000
0000
0100
0001
0100
0000
1000
0100
,
2000
3020
0032
0023
,
0230
0000
0301
1000
0001
0000
0010
0001
,
0020
2030
3200
2300
,
3020
0000
0031
1000
0001
0000
0100
0001
,
0200
2300
3020
0230
,
0302
0000
0013
1000
0010
0000
0001
0010
,
0002
0023
2030
3002
,
0023
0000
0130
1000
0100
0000
0001
0100
,
0002
0203
2300
3020
,
0230
0000
0301
1000
0001
0000
0010
1000
,
0020
0032
0203
2300
,
3002
0023
2030
3200
,
0310
0001
0100
0001
0020
0000
0032
0000
,
2003
0000
3010
0001
0020
0000
1030
0100
,
2000
0000
3100
0001
0200
0000
0000
0000
,
0310
0000
0000
0010
0000
0000
0010
0000
,
0100
0000
0000
0100
0000
0000
0100
0000
,
1000
0000
0000
1000
0000
0000
1000
0000
,
0001
0000
0000
0001
0000
0000
0001
0000
,
0100
0000
0010
0100
0000
0000
0110
0000
,
1000
0000
0001
1000
0000
0000
1001
0000
,
1000
0000
1000
0100
0000
0001
0100
0000
,
0001
0000
0001
0010
0000
1000
0010
0000
;

//---------------dance-single - ----------------
#NOTES:
     dance-single:
     :
     Beginner:
     2:
     0.140,0.208,0.050,0.201,0.000:
0000
0000
0000
0000
,
0000
0000
0000
0000
,
0000
0000
0000
0000
,
0010
0000
0000
0000
,
0000
0000
0000
0000
,
0100
0000
0000
0000
,
0000
0000
0000
0000
,
0001
0000
0000
0000
,
0000
0000
0000
0000
,
1000
0000
0000
0000
,
0000
0000
0000
0000
,
0200
0000
0300
0000
,
0200
0000
0300
0000
,
0200
0000
0300
0000
,
0200
0000
0300
0000
,
0020
0000
0030
0000
,
0020
0000
0030
0000
,
0020
0000
0030
0000
,
0020
0000
0030
0000
,
2002
0000
0000
0000
,
3003
0000
0000
0000
,
0000
0000
0000
0000
,
0000
0000
0000
0000
,
0220
0000
0000
0000
,
0330
0000
0000
0000
,
0000
0000
0000
0000
,
0000
0000
0000
0000
,
0001
0001
0000
0000
,
0000
0000
0000
0000
,
1000
1000
0000
0000
,
0000
0000
0000
0000
,
0100
0100
0000
0000
,
0000
0000
0000
0000
,
0010
0010
0000
0000
,
0000
0000
0000
0000
,
0002
0000
0003
0000
,
2000
0000
3000
0000
,
0100
0000
0100
0000
,
0200
0000
0300
0000
,
0010
0010
0010
0000
,
0010
0010
0010
0000
,
0100
0000
0100
0000
,
0200
0000
0300
0000
,
0001
0000
0000
0000
,
1000
0000
0000
0000
,
0100
0000
0000
0000
,
0010
0000
0000
0000
,
0001
0000
0000
0000
,
1000
0000
0000
0000
,
0010
0000
0000
0000
,
0100
0000
0000
0000
,
0001
0000
0010
0000
,
0000
0000
0000
0000
,
1000
0000
0010
0000
,
0000
0000
0000
0000
,
0001
0000
0100
0000
,
0000
0000
0000
0000
,
1000
0000
0100
0000
,
0000
0000
0000
0000
,
1001
0000
0000
0000
,
0010
0000
0000
0000
,
1001
0000
0000
0000
,
0100
0000
0000
0000
,
0110
0000
0000
0000
,
0001
0000
0000
0000
,
0110
0000
0000
0000
,
1000
0000
0000
0000
,
0010
0000
0010
0000
,
0100
0100
0100
0000
,
0001
0000
0001
0000
,
1000
1000
1000
0000
,
0100
0000
0100
0000
,
0010
0010
0010
0000
,
1000
0000
1000
0000
,
0001
0001
0002
0000
,
0003
0000
0000
0000
,
0200
0000
0300
0000
,
0020
0030
0000
0000
,
2000
0000
3000
0000
,
0002
0003
0000
0000
,
0020
0000
0030
0000
,
0200
0300
0000
0000
,
2000
0000
3000
0000
;

//---------------dance-single - ----------------
#NOTES:
     dance-single:
     :
     Easy:
     5:
     0.362,0.451,0.101,0.319,0.000:
0000
0000
0000
0000
,
0000
0000
0000
0000
,
0000
0000
0000
0000
,
0001
0000
0001
0000
,
1000
0000
1000
0000
,
0100
0000
0100
0000
,
0010
0000
0010
0000
,
0001
0000
1000
0000
,
0010
0000
0100
0000
,
0001
0000
0010
0000
,
0100
0000
1000
0000
,
0001
0100
1000
0100
,
0001
0100
1000
0100
,
0001
0010
1000
0010
,
0001
0010
1000
0010
,
0002
0100
0100
0103
,
2000
0100
0100
3100
,
0020
0100
0100
0130
,
0002
0100
0100
0103
,
0010
0000
1000
0000
,
0001
0000
0000
0000
,
1000
0000
0100
0000
,
0010
0000
0000
0000
,
0001
0000
1000
0000
,
0010
0000
0000
0000
,
0100
0000
0001
0000
,
0010
0100
0010
0100
,
0010
0001
1000
0000
,
0010
1000
0001
0000
,
0100
0001
1000
0000
,
0100
0100
0010
0010
,
0001
1000
0001
0100
,
0010
1000
0100
0010
,
0100
1000
0001
0100
,
0010
0010
0100
0100
,
0002
0103
0002
0013
,
0002
1003
0002
0013
,
2000
3100
2000
3010
,
2000
3001
2000
3100
,
0010
0010
0110
0110
,
1000
1000
1001
1001
,
0010
0010
0101
0010
,
1100
0101
1001
0000
,
0020
0000
0200
0330
,
1000
0100
0001
0100
,
2000
0000
0002
3003
,
0010
0010
0100
0100
,
0002
0000
2000
3003
,
1000
0010
0001
0010
,
0200
0000
0020
0330
,
0001
0001
1000
1000
,
0100
0010
0001
0001
,
0100
0010
1000
0001
,
2000
3100
0002
0103
,
0010
0010
0110
0110
,
2000
0010
0100
3010
,
0002
0010
0100
0010
,
2003
0000
0002
3003
,
0010
0010
0100
0110
,
0001
0010
0100
1000
,
0001
0010
0100
1000
,
0001
0100
1000
0100
,
0001
0100
1000
0100
,
1000
0100
0010
0001
,
1000
0100
0010
0001
,
1000
0010
0001
0010
,
1000
0010
0001
0010
,
0100
0100
0010
0010
,
1000
0001
0010
0100
,
1000
1000
0001
0001
,
0010
1000
0010
0001
,
0100
0100
0010
0010
,
1000
0001
1000
0001
,
2000
3100
0002
0103
,
1000
0100
2002
0000
,
3003
0000
0000
0020
0000
0000
0030
0000
,
0000
0000
0000
0200
0000
0000
0300
0000
,
0000
0000
0000
0002
0000
0000
0003
0000
,
0000
0000
0000
2000
0000
0000
3000
0000
,
0000
0000
0000
0200
0000
0000
0310
0000
,
0000
0000
0000
0002
0000
0000
1003
0000
,
0000
0000
0000
0020
0000
0000
0130
0000
,
0000
0000
0000
2000
0000
0000
3001
0000
;

//---------------dance-double - ----------------
#NOTES:
     dance-double:
     :
     Challenge:
     9:
     0.623,0.590,0.277,0.436,0.059: // measure 1
00000000
00000000
00000000
00000000
,  // measure 2
00000000
00000000
00000000
00000000
,  // measure 3
00000000
00000000
00000000
00000000
,  // measure 4
10010000
00000000
00100000
00001000
00000000
00010000
00000100
00000000
,  // measure 5
00001001
00000000
00000010
00010000
00000000
00001000
01000000
00000000
,  // measure 6
10010000
00000000
01000000
00001000
00000000
00010000
00000010
00000000
,  // measure 7
00001001
00000000
00000100
00010000
00000000
00001000
00100000
00000000
,  // measure 8
10010000
00000000
00100000
00001000
00000000
00010000
00000010
00000000
,  // measure 9
00001001
00000000
00000010
00010000
00000000
00001000
00100000
00000000
,  // measure 10
10010000
00000000
01000000
00001000
00000000
00010000
00000100
00000000
,  // measure 11
00001001
00000000
00000100
00010000
00000000
00001000
01000000
00000000
,  // measure 12
00100000
00000000
00000000
00100000
00000000
00000000
00100000
00000000
00000000
00000000
00010000
00000000
00001000
00000000
00000000
00000000
,  // measure 13
00000010
00000000
00000000
00000010
00000000
00000000
00000010
00000000
00000000
00000000
00001000
00000000
00010000
00000000
00000000
00000000
,  // measure 14
01000000
00000000
00000000
01000000
00000000
00000000
01000000
00000000
00000000
00000000
00010000
00000000
00001000
00000000
00000000
00000000
,  // measure 15
00000100
00000000
00000000
00000100
00000000
00000000
00000100
00000000
00000000
00000000
00001000
00000000
00010000
00000000
00000000
00000000
,  // measure 16
00000010
00000000
00000000
00000100
00000000
00000000
00000001
00000000
00000000
00000000
00000010
00000000
00000100
00000000
00010000
00000000
,  // measure 17
00001000
00000000
00000000
01000000
00000000
00000000
00100000
00000000
00000000
00000000
10000000
00000000
01000000
00000000
00001000
00000000
,  // measure 18
01000000
00000000
00000000
00100000
00000000
00000000
00001000
00000000
00000000
00000000
00010000
00000000
00000010
00000000
00000001
00000000
,  // measure 19
00000010
00000000
00000000
00001000
00000000
00000000
00000100
00000000
00000000
00000000
00010000
00000000
00000010
00000000
00000100
00000000
,  // measure 20
00000002
00000000
00000000
00000200
00000000
00000303
00000010
00010000
,  // measure 21
00002000
00000000
00000000
00000200
00000000
00003300
00010000
00000000
,  // measure 22
00200000
00000000
00000000
02000000
00000000
03300000
00010000
20000000
,  // measure 23
02000000
00000000
33000000
00100000
00000000
00000000
00010000
00000000
,  // measure 24
00002000
00000000
00000000
00200000
00000000
00303000
00010000
10000000
,  // measure 25
02000000
00000000
00000000
00002000
00000000
03003000
00010000
00000010
,  // measure 26
00000200
00000000
00000000
00020000
00000000
00030300
00001000
00000001
,  // measure 27
00000010
00001100
00000010
00000101
,  // measure 28
00000010
00000000
00000000
00010000
00000000
00000000
00000010
00000000
00000000
00000000
00001000
00000000
00000100
00000000
00001000
00000000
,  // measure 29
00000001
00000000
00000000
00000001
00000000
00000000
00000001
00000000
00000000
00000000
00000100
00000000
00000010
00000000
00000000
00000000
,  // measure 30
00010000
00000000
00000000
00001000
00000000
00000000
01000000
00000000
00000000
00000000
00100000
00000000
00001000
00000000
00100000
00000000
,  // measure 31
10000000
11000000
00100000
00101000
,  // measure 32
00010000
00000000
00000000
01000000
00000000
00000000
10000000
00000000
00000000
00000000
00100000
00000000
00010000
00000000
00001000
00000000
,  // measure 33
00100000
00000000
00000000
01000000
00000000
00000000
10000000
00000000
00000000
00000000
00010000
00000000
01000000
00000000
00000000
00000000
,  // measure 34
00001000
00000000
00000000
00000010
00000000
00000000
00000001
00000000
00000000
00000000
00000100
00000000
00010000
00000000
00001000
00000000
,  // measure 35
00100000
10100000
00100000
00101000
,  // measure 36
00010000
00010000
00000010
00000010
00001000
00001000
00000001
00000001
,  // measure 37
00000010
00000010
00000100
00000100
00010000
00010000
00001000
00001000
,  // measure 38
01000000
10000000
01000000
00001000
00100000
00001000
00010000
00000010
,  // measure 39
00020000
00000000
00001000
00000000
00130000
01000000
00001000
00000000
,  // measure 40
01000000
01000000
10000000
10000000
01000000
00001000
00020000
00000000
,  // measure 41
00030100
00000100
00000010
00000010
00000001
00001000
00000020
00000000
,  // measure 42
00000230
00000000
00000301
00000010
00002000
00000000
00013000
00000010
,  // measure 43
00000100
00000100
00010000
00100000
02000000
00000000
00000000
00000000
,  // measure 44
13000000
00000000
10000000
01000000
00010000
00000000
00001000
00000100
,  // measure 45
00000001
00000010
00000100
00001000
00010000
00000000
00001100
00000000
,  // measure 46
00010010
00000000
00001000
00010000
00100000
00000000
01000000
00100000
,  // measure 47
00010000
00000100
00000010
00001000
00000001
00000000
00000011
00000000
,  // measure 48
00001100
00000000
00010000
00001000
01000000
00000000
00100000
10000000
,  // measure 49
01000000
01000000
00010000
00001000
00000010
00000000
00001100
00000000
,  // measure 50
00000011
00000000
00000100
00010000
00001000
00000000
01000000
10000000
,  // measure 51
01000000
00001000
00010000
00000100
00000110
00000000
00001001
00000000
,  // measure 52
00000200
00000000
00000310
00010000
00000100
00000000
00001000
00000010
,  // measure 53
00000001
00000001
00000010
00010000
00000200
00000000
00000010
00000000
,  // measure 54
00000001
00000000
00001300
00100000
00010000
00000000
00100000
10000000
,  // measure 55
00010000
00010000
10000000
01000000
00002000
00000000
00010000
00000000
,  // measure 56
01000000
00000000
00003010
00000100
00000001
00001000
00000001
00000010
,  // measure 57
00000100
00010000
00001000
01000000
00100000
00000000
20000000
00000000
,  // measure 58
32000000
00000000
03010000
10000000
00200000
00000000
00301000
01000000
,  // measure 59
20000000
00000000
31000000
00100000
00020000
00000000
10000000
00000000
,  // measure 60
01000000
00000000
00031000
00000010
00000100
00000000
00001000
00010000
,  // measure 61
00100000
00010000
00001000
00000100
00000010
00000000
00002000
00000000
,  // measure 62
00003002
00000000
00000013
00000100
00020000
00000000
00031000
00100000
,  // measure 63
00002000
00000000
00003010
00000001
00000200
00000000
00002300
00000000
,  // measure 64
00023000
00000000
00130000
01000000
00001000
00000000
00010000
00000000
,  // measure 65
01000000
10000000
01000000
10000000
00020000
00000000
02030000
00000000
,  // measure 66
23000000
00000000
31000000
00001000
00020000
00000000
00030100
00000010
,  // measure 67
00000002
00000000
00000103
00001000
00020000
00000000
00000100
00000000
,  // measure 68
00001000
00000000
00130000
10000000
00010000
00000000
00100000
01000000
,  // measure 69
00010000
00001000
00000010
00001000
00020000
00000000
00030020
00000000
,  // measure 70
00000230
00000000
00000301
00001000
00000020
00000000
00000130
00001000
,  // measure 71
00020000
00000000
00031000
00100000
20000000
00000000
30200000
00000000
,  // measure 72
00310000
01010000
00001000
00010100
,  // measure 73
00000001
00000100
00001000
00010000
00002000
00000000
00000010
00000000
,  // measure 74
00010000
00000000
01003000
00100000
20000000
00000000
31000000
00100000
,  // measure 75
00010000
01000000
00001000
00010000
00022000
00000000
00000000
00033000
,  // measure 76
00011000
00000000
00000010
00000001
00000000
00000001
00000100
00000000
,  // measure 77
00011000
00000000
00100000
10000000
00000000
10000000
01000000
00000000
,  // measure 78
00011000
00000000
00000100
00000001
00000000
00000001
00000010
00000000
,  // measure 79
00011000
00000000
01000000
10000000
00000000
10000000
00100000
00000000
,  // measure 80
00011000
00000000
00000010
00000001
00000000
00001000
00000100
00000000
,  // measure 81
00011000
00000000
00100000
10000000
00000000
00010000
01000000
00000000
,  // measure 82
00011000
00000000
00000100
00000010
00000000
01000000
00100000
00000000
,  // measure 83
00011000
00000000
00000010
00000100
00000000
00100000
01000000
00000000
;
